osu file format v5

[General]
AudioFilename: 09 - O-Parts.mp3
AudioLeadIn: 0
PreviewTime: 96935
Countdown: 1
SampleSet: Normal
StackLeniency: 0.7
Mode: 0
LetterboxInBreaks: 0
SkinPreference:osu! Ends With You
EditorBookmarks: 29101,37408,81716,89093,127862,135247,159247,166631,196170
EditorDistanceSpacing: 1.10000002384186

[Metadata]
Title:Ooparts
Artist:A. Tanaka, M. Matsuda
Creator:awp
Version:Hard
Source:TWEWY OST
Tags:TWEWY

[Difficulty]
HPDrainRate:6
CircleSize:5
OverallDifficulty:6
SliderMultiplier:2
SliderTickRate:2

[Events]
//Background and Video events
0,0,"bg.png"
//Break Periods
2,29293,36350
2,81908,87653
2,127600,133807
2,159447,165581
//Storyboard Layer 0 (Background)
//Storyboard Layer 1 (Failing)
//Storyboard Layer 2 (Passing)
//Storyboard Layer 3 (Foreground)
//Storyboard Sound Samples
//Background Colour Transformations
3,100,163,162,255
3,100,163,162,255
3,100,163,162,255
3,100,163,162,255
3,100,163,162,255
3,100,163,162,255
3,100,163,162,255
3,100,163,162,255
3,100,163,162,255
3,100,163,162,255
3,100,163,162,255
3,100,163,162,255
3,100,163,162,255
3,100,163,162,255
3,100,163,162,255
3,100,163,162,255
3,100,163,162,255
3,100,163,162,255
3,100,163,162,255
3,100,163,162,255
3,100,163,162,255
3,100,163,162,255
3,100,163,162,255
3,100,163,162,255

[TimingPoints]
15243,461.538461538462,4,1,0,100,1,0
88631,461.538461538462,4,2,0,100,0,0
96939,461.538461538462,4,1,0,100,0,0

[HitObjects]
64,80,15246,2,0,B|64:168,2,50
192,80,15704,1,8
400,80,16166,2,0,L|360:112|416:136|376:168|424:208,1,200
112,216,17089,2,0,L|56:216,2,50
240,216,17551,1,8
448,216,18012,2,0,L|448:160|400:160|400:112|344:112,1,200
168,56,18935,6,0,B|80:56,2,50
168,184,19396,1,8
80,336,19858,1,0
208,336,20089,1,0
336,336,20319,1,0
448,104,20781,5,0
448,104,20896,1,0
448,104,21012,1,0
320,104,21242,1,8
320,104,21358,1,8
320,104,21473,1,8
192,104,21704,1,0
192,104,21819,1,0
192,104,21935,1,0
64,104,22166,1,8
64,104,22281,1,8
64,104,22396,1,8
64,232,22627,6,0,L|64:288|128:288,1,100
240,288,23089,1,8
480,192,23550,1,0
240,88,24012,1,0
24,192,24473,5,0
152,192,24704,2,0,L|152:264,3,50
336,192,25396,1,0
344,64,25627,2,0,L|280:64,2,50
344,64,25973,1,0
344,64,26089,1,0
232,136,26319,6,0,B|152:136,2,50
232,264,26781,2,0,B|232:336,1,50
48,256,27243,1,0
160,336,27473,1,0
296,336,27704,1,0
288,72,28166,6,0,L|160:72,1,100,14|0
188,72,28512,1,0
188,72,28627,2,0,L|188:176,1,100,2|0
188,172,28973,1,0
188,172,29089,1,12
56,160,37396,5,0
192,160,37627,1,0
128,272,37858,2,0,B|128:360,2,50
256,272,38319,1,0
360,192,38550,1,0
464,112,38781,1,0
328,336,39243,5,0
200,304,39474,1,0
80,256,39705,2,0,B|80:176,1,50
80,206,39935,1,0
176,104,40166,2,0,L|176:160,1,50,0|0
176,154,40396,1,0
312,152,40628,1,0
200,312,41089,6,0,B|128:280,1,50
154,291,41319,1,0
32,240,41550,1,2
48,112,41781,1,2
176,112,42012,2,0,B|272:112,1,50
226,112,42243,1,0
352,112,42473,1,10
256,288,42935,6,0,B|168:368|72:288,3,200
40,152,44550,6,0,B|96:64,1,100
232,64,45012,2,0,B|304:152,1,100,0|0
416,168,45473,2,2,B|416:280|272:280,1,200,2|2
136,280,46166,1,0
128,80,46627,6,0,L|104:152,1,50
112,127,46858,2,0,L|112:184,1,50
112,177,47089,2,0,L|144:224,1,50
140,218,47319,2,0,L|200:240,1,50
186,235,47550,2,0,L|248:224,1,50
235,226,47781,2,0,L|272:184,1,50
268,188,48012,1,0
488,328,48473,6,2,B|440:384|384:296,1,100,2|2
403,323,48935,2,2,B|348:271|296:328,1,100
313,312,49396,2,2,B|256:360|208:304,1,100
222,318,49858,1,2
328,152,50319,6,8,B|328:96,2,50,8|8|8
328,152,50781,1,2
184,152,51243,6,8,B|184:64,2,50
184,152,51704,1,4
256,192,52166,12,0,54935
256,192,55166,5,0
256,192,55396,5,8
392,80,55858,5,4
392,208,56089,1,8
256,80,56550,5,4
256,208,56781,1,8
128,80,57243,5,4
128,208,57473,1,8
400,264,57935,6,0,B|336:368|232:224|120:328,1,300
126,323,58743,1,0
126,323,58858,1,0
126,323,58973,1,0
126,323,59089,1,4
256,192,59550,12,0,60935
448,192,61627,5,8
352,56,61858,1,2
256,192,62089,1,8
152,56,62319,1,2
56,192,62550,1,2
152,336,63243,6,0,B|224:336,2,50
152,192,63704,1,0
32,264,63935,2,0,B|136:264,1,100,0|0
256,264,64396,1,0
440,48,64858,5,4
160,56,65319,1,2
32,104,65550,1,8
88,232,65781,1,8
232,232,66012,1,2
280,104,66243,1,8
256,312,66819,6,0,B|256:152,1,150
256,24,67396,1,0
32,192,67858,2,0,B|32:248,2,50
168,192,68319,2,0,B|168:80,1,100
168,92,68666,1,0
120,40,68781,6,0,B|224:40,1,100
384,264,69473,1,0
256,320,69704,1,0
128,256,69935,1,0
256,208,70166,1,0
256,208,70281,1,0
120,80,70627,5,4
120,208,70858,1,8
256,80,71319,5,4
256,208,71550,1,8
384,80,72012,5,4
384,208,72242,1,8
112,264,72704,6,0,B|176:368|280:224|392:328,1,300
386,323,73512,1,0
386,323,73627,1,0
386,323,73742,1,0
386,323,73858,1,0
392,112,74204,6,0,B|392:40|264:40,1,150
136,32,74781,1,0
72,304,75243,6,0,B|152:224,1,100
256,320,75704,2,0,B|328:240,1,100
322,245,76050,2,0,B|368:192,1,50
432,112,76396,1,0
152,80,76858,6,0,B|104:40|56:80,2,100
256,176,77550,1,0
120,304,78012,5,4
120,176,78243,1,8
256,304,78704,5,4
256,176,78935,1,8
384,304,79397,5,4
384,176,79627,1,8
112,120,80089,6,0,B|176:16|280:160|392:56,1,300
386,61,80897,1,0
386,61,81012,1,0
386,61,81127,1,0
386,61,81243,1,0
256,280,81704,5,4
56,192,89089,6,0,B|96:152|128:248|152:200,1,100
143,211,89435,1,0
143,211,89550,1,0
280,216,89781,2,0,B|280:104,2,100
280,216,90473,1,8
152,64,90935,6,0,B|192:104|96:136|144:160,1,100
133,151,91281,1,0
133,151,91396,1,0
128,288,91627,2,0,B|192:288,2,50
264,288,92089,1,0
400,288,92319,1,8
400,128,92781,6,0,B|288:64,1,100
313,78,93127,1,0
313,78,93243,2,0,B|192:80,1,100
213,79,93589,1,0
213,79,93704,2,0,B|128:160,2,100,0|0|8
80,240,94627,6,0,B|80:304|144:312,3,100
272,320,95550,1,0
408,320,95781,1,0
408,176,96012,1,0
272,176,96243,1,4
256,192,96935,12,4,98319
256,192,98550,5,0
256,192,98781,1,0
192,72,99243,6,0,B|192:144,2,50
328,72,99704,1,8
400,184,100166,6,0,L|400:248|360:248,1,100
368,352,100627,1,0
184,280,101089,5,0
56,216,101319,1,0
184,152,101550,1,8
184,16,102012,6,0,L|232:16|232:104|322:104,1,200,4|4
416,32,102704,1,0
416,168,102935,1,0
416,168,103050,1,0
416,168,103166,1,0
416,304,103396,1,8
184,144,103858,5,0
184,144,103973,1,0
184,144,104089,1,0
328,144,104319,1,8
328,144,104435,1,8
328,144,104550,1,8
184,216,104781,1,0
184,216,104896,1,0
184,216,105012,1,0
328,216,105243,1,8
328,216,105358,1,8
328,216,105473,1,8
184,280,105704,6,0,L|240:280,1,50
234,280,105935,2,0,L|288:280,1,50
284,280,106166,1,0
256,144,106627,5,0
256,144,106743,1,0
256,64,106973,1,0
64,104,107550,6,0,L|120:104,1,50
114,104,107781,2,0,L|114:160,1,50
114,154,108012,1,0
240,320,108358,6,2,B|344:320,2,100,2|2|0
240,320,108935,1,0
408,192,109396,5,0
408,112,109627,1,0
408,32,109858,1,0
256,192,110089,12,0,110781
112,192,111243,6,0,B|48:192,2,50
216,104,111704,1,0
256,240,111935,1,0
296,104,112166,1,0
424,352,112627,1,8
424,208,112858,1,8
288,168,113089,6,0,B|208:168|208:216|80:216,1,200,4|0
104,80,114012,2,0,L|32:80,2,50
104,80,114358,1,0
104,80,114473,1,0
184,208,114935,1,0
184,344,115166,1,0
312,280,115396,1,0
440,72,115858,1,0
248,200,116319,1,0
72,80,116666,5,0
200,80,116897,2,0,L|248:80,1,42.5,0|0
376,80,117243,1,0
384,288,117589,6,0,B|272:216,1,100
160,192,118050,2,0,B|112:240,1,50
328,240,118627,5,0
328,240,118742,1,0
328,240,118858,1,0
184,240,119088,1,8
184,240,119204,1,8
184,240,119319,1,8
328,168,119550,1,0
328,168,119665,1,0
328,168,119781,1,0
184,168,120012,1,8
184,168,120127,1,8
184,168,120242,1,8
80,72,120473,6,0,B|136:72,1,50
130,72,120704,2,0,B|232:72,1,100
400,192,121281,1,0
256,344,121627,1,0
168,232,121858,1,0
256,72,122319,5,0
256,72,122435,1,0
256,72,122550,1,0
392,72,122781,1,0
208,280,123127,2,0,B|248:352|304:352,1,100
278,347,123473,1,0
408,288,123704,1,0
256,192,123935,6,0,B|128:192,1,100
256,192,124396,2,0,B|168:88,1,100
256,192,124858,2,2,B|328:112,1,100
256,192,125319,2,2,B|368:192,1,100
96,296,126012,6,0,B|160:296,1,50
146,296,126243,2,0,B|208:296,2,50
408,192,126935,2,0,B|344:192,1,50
358,192,127166,2,0,B|288:192,2,50
104,320,135243,6,0,B|160:280,1,50
144,290,135473,2,0,B|208:288,1,50
193,288,135704,2,0,B|240:240,1,50
227,252,135935,2,0,B|294:252,1,50
277,252,136166,2,0,B|312:212,1,50
309,214,136396,2,4,B|304:152|224:168,1,100
96,168,137089,6,0,B|56:128,1,50
60,132,137319,2,0,B|60:68,1,50
60,82,137550,2,0,B|104:48,1,50
99,51,137781,2,0,B|156:50,1,50
148,50,138012,1,0
280,48,138243,1,4
408,48,138473,1,4
96,120,138935,5,4
96,256,139166,1,8
256,120,139627,5,4
256,256,139858,1,8
416,120,140319,5,4
416,256,140550,1,8
256,192,141012,12,0,141704
256,192,141935,5,0
256,192,142166,5,0
96,312,142627,6,0,B|152:312,1,50
146,312,142858,2,0,B|208:280,1,50
190,289,143089,2,0,B|216:240,1,50
213,244,143319,2,0,B|232:184,1,50
228,196,143550,1,0
228,196,143666,1,0
228,196,143781,1,0
228,196,143896,1,0
376,344,144473,5,0
376,344,144589,1,0
376,192,144819,1,0
376,192,144935,1,4
272,96,145166,1,0
176,192,145396,1,4
256,192,145512,12,0,147704
80,48,148166,6,0,L|80:160,1,100
176,48,148627,2,0,L|176:160,1,100,0|0
272,48,149089,2,0,L|272:160,1,100,0|0
376,48,149550,2,0,L|376:160,1,100,0|0
304,264,150012,2,2,B|376:384|464:264,3,200,2|2|2|10
256,72,151858,6,0,B|256:16|184:16,2,100
256,312,152781,6,0,B|256:368|328:368,2,100
216,72,153704,6,0,L|320:72,1,100
316,72,154050,1,0
316,72,154166,1,0
316,72,154281,1,0
320,192,154512,1,0
320,192,154627,2,0,L|208:192,1,100,0|0
220,192,154973,1,0
220,192,155089,1,0
220,192,155204,1,0
220,192,155319,1,0
136,88,155550,6,0,B|80:96,1,50
86,95,155781,2,0,B|80:216,1,100
81,194,156127,1,0
165,298,156358,6,0,B|221:290,1,50
214,290,156589,1,0
215,291,156704,2,0,B|221:170,1,100
220,192,157050,1,0
392,40,157396,5,0
120,40,157858,5,0
256,256,158319,5,0
256,192,158435,12,4,159243
112,288,166627,6,0,B|168:288,1,50
162,288,166858,2,0,B|224:288,1,50
212,288,167089,1,0
212,288,167319,1,0
344,288,167550,2,2,B|456:288,2,100
448,48,168473,6,0,B|392:48,1,50
398,48,168704,2,0,B|336:48,1,50
348,48,168935,1,0
348,48,169165,1,0
216,48,169396,2,2,B|104:48,2,100
32,192,170319,5,8
32,192,170435,1,8
32,192,170550,2,2,B|80:224|128:192,1,100
256,192,171012,1,0
256,192,171127,1,0
256,192,171243,1,8
256,192,171358,1,8
256,192,171473,2,2,B|304:160|352:192,1,100
344,320,171935,5,0
216,320,172166,1,0
312,232,172396,1,0
184,232,172627,1,0
280,320,172858,1,0
152,320,173089,1,0
72,72,173781,6,0,B|72:184,1,100
152,72,174243,2,0,B|152:176,1,100
232,72,174704,2,0,B|408:72|408:152|312:184,1,200
288,264,175396,1,0
32,320,175858,6,0,B|120:256,1,100
112,261,176204,1,0
112,261,176319,2,0,B|216:312,1,100
201,305,176666,1,0
201,305,176781,2,0,B|248:200,1,100
241,213,177127,1,0
241,213,177243,1,0
400,72,177704,5,0
272,72,177935,1,0
384,184,178166,1,0
256,184,178396,1,0
352,120,178627,1,0
224,120,178858,1,0
304,224,179089,1,0
56,296,179550,6,0,B|56:232,2,50
56,296,180012,1,0
256,64,180473,5,0
256,192,180704,1,0
256,320,180935,1,0
256,192,181396,12,0,184165
256,192,184396,5,0
256,192,184626,5,8
120,304,185088,5,4
120,176,185319,1,8
256,304,185780,5,4
256,176,186011,1,8
384,304,186473,5,4
384,176,186703,1,8
112,120,187165,6,0,B|176:16|280:160|392:56,1,300
386,61,187973,1,0
386,61,188088,1,0
386,61,188203,1,0
386,61,188319,1,0
256,192,188781,12,0,191550
256,192,191781,5,0
256,192,192011,5,8
392,304,192473,5,4
392,176,192704,1,8
256,304,193165,5,4
256,176,193396,1,8
128,304,193858,5,4
128,176,194088,1,8
400,120,194550,6,0,B|336:16|232:160|120:56,1,300
126,61,195358,1,0
126,61,195473,1,0
126,61,195588,1,0
126,61,195704,1,0
256,288,196166,5,4
