osu file format v5

[General]
AudioFilename: 09 - O-Parts.mp3
AudioLeadIn: 0
PreviewTime: 96935
Countdown: 1
SampleSet: Normal
StackLeniency: 0.7
Mode: 0
LetterboxInBreaks: 0
SkinPreference:osu! Ends With You
EditorBookmarks: 15255,29101,37408,81716,89093,127862,135247,159247,166631,196170
EditorDistanceSpacing: 1.10000002384186

[Metadata]
Title:Ooparts
Artist:A. Tanaka, M. Matsuda
Creator:awp
Version:Easy
Source:TWEWY OST
Tags:TWEWY

[Difficulty]
HPDrainRate:4
CircleSize:3
OverallDifficulty:3
SliderMultiplier:1.5
SliderTickRate:2

[Events]
//Background and Video events
0,0,"bg.png"
//Break Periods
2,29293,35960
2,81908,87653
2,127600,133807
2,159447,165191
//Storyboard Layer 0 (Background)
//Storyboard Layer 1 (Fail)
//Storyboard Layer 2 (Pass)
//Storyboard Layer 3 (Foreground)
//Storyboard Sound Samples
//Background Colour Transformations
3,100,163,162,255
3,100,163,162,255
3,100,163,162,255
3,100,163,162,255
3,100,163,162,255
3,100,163,162,255
3,100,163,162,255
3,100,163,162,255
3,100,163,162,255
3,100,163,162,255
3,100,163,162,255
3,100,163,162,255
3,100,163,162,255
3,100,163,162,255

[TimingPoints]
15243,461.538461538462,4,1,0,100,1,0
88631,461.538461538462,4,2,0,100,0,0
96939,461.538461538462,4,1,0,100,0,0

[HitObjects]
112,200,15243,2,0,B|112:104|208:104,1,150
309,104,16166,2,0,B|400:104|400:200,1,150
328,280,17089,2,0,B|160:280,1,150
256,208,18012,2,0,B|256:48,1,150
96,72,18935,5,0
96,176,19396,1,0
96,280,19858,1,0
200,280,20319,1,0
256,192,20781,12,4,22627
376,88,24473,6,0,B|272:88|272:184,1,150
168,176,25396,2,0,B|72:176|72:272,1,150
160,328,26319,2,8,B|224:264,2,75
264,328,27243,2,8,B|320:256,2,75
368,328,28166,5,0
368,208,28627,1,0
368,88,29089,1,4
120,80,37396,5,0
120,80,37627,1,0
120,80,37858,1,0
120,200,38319,1,0
120,200,38550,1,0
120,200,38781,1,0
120,320,39243,2,0,B|40:320,2,75
240,320,40166,2,0,B|328:320,2,75
232,200,41089,6,0,B|232:96|288:56,1,150
360,40,41781,1,8
440,62,42012,2,0,B|488:96|488:200,1,150
360,232,42935,1,0
264,312,43396,1,0
176,232,43858,1,4
128,91,44781,6,0,B|128:16|48:16|48:92,1,150
48,168,45473,2,0,B|48:300|128:300|128:167,1,225
248,192,46627,6,2,B|408:192,1,150,0|0
400,120,47319,1,8
400,48,47550,2,2,B|240:48,1,150,0|0
128,88,48473,6,0,B|48:144|192:152|96:224,1,150,0|0
208,272,49396,1,0
272,272,49627,1,0
336,272,49858,1,0
328,152,50319,6,8,B|328:72,2,75
184,152,51243,6,8,B|184:72,2,75
256,192,52166,12,0,54935
392,80,55858,5,4
392,80,56089,1,8
256,80,56550,5,4
256,80,56781,1,8
128,80,57243,5,4
128,80,57473,1,8
88,272,57935,6,0,B|168:328|272:320|360:248|408:144,1,375,0|8
256,192,59550,12,0,60935
384,192,61627,5,8
320,192,61858,1,2
256,192,62089,1,8
192,192,62319,1,2
128,192,62550,1,2
40,136,63243,6,0,B|40:40|136:40,1,150
256,40,64166,2,0,B|344:40,1,75
360,152,64858,5,4
256,232,65319,1,0
256,232,65550,1,0
312,288,65781,1,0
256,344,66012,1,0
200,288,66243,1,0
80,176,66935,6,0,B|80:88|192:88,1,150
216,200,67858,2,0,B|216:248|168:248,2,75
328,104,68781,5,8
392,104,69012,1,8
392,256,69473,2,0,B|312:256,1,75,0|0
312,328,69935,2,0,B|232:328,1,75,0|0
88,264,70627,5,4
88,264,70858,1,8
88,120,71319,5,4
88,120,71550,1,8
216,192,72012,5,4
216,192,72243,1,8
256,192,72704,12,4,74319
368,80,75243,5,0
296,80,75473,1,0
224,80,75704,1,0
128,192,76166,6,0,B|128:240|176:240,1,75
312,192,76858,1,0
384,192,77089,1,0
384,264,77319,1,0
312,264,77550,1,0
168,224,78012,6,0,B|112:168,1,75,4|8
256,168,78704,2,0,B|320:104,1,75,4|8
256,256,79396,2,0,B|312:312,1,75,4|8
256,192,80089,12,4,81704
352,80,89089,6,2,B|184:80,1,150
96,192,90012,2,0,B|16:192,2,75
256,192,90935,6,2,B|416:192,1,150
320,312,91858,2,0,B|408:312,2,75,0|0|0
168,312,92781,5,2
16,312,93243,1,2
88,184,93704,1,0
88,184,93935,1,0
88,184,94166,1,0
200,80,94627,5,0
360,80,95089,1,0
280,216,95550,2,2,B|280:296,2,75
280,216,96243,5,4
256,192,96935,12,4,98319
256,96,99243,6,0,B|256:16,2,75
256,248,100166,6,0,B|256:328|144:328,1,150,4|0
64,200,101089,2,0,B|64:144|112:144,2,75
216,216,102012,6,0,B|312:216|312:128|336:128,1,150,4|0
448,40,102935,2,0,B|472:80|448:112,2,75
296,40,103858,5,8
136,40,104319,1,8
216,176,104781,1,8
184,320,105704,5,4
256,320,105935,1,0
328,320,106166,1,0
256,192,106627,6,0,B|336:192|334:112|248:112,1,150
120,64,107550,6,0,B|120:224,1,150
120,360,108473,2,0,B|288:360,1,150
256,192,109396,5,0
408,192,109858,1,0
408,40,110319,2,0,B|256:40,1,150
120,104,111243,2,0,B|40:104,2,75
120,104,111935,1,0
120,104,112166,1,0
400,200,113089,6,0,B|320:200|320:152|256:152,1,150,4|0
160,256,114012,1,0
208,312,114243,1,0
280,336,114473,1,0
432,336,114935,2,0,B|432:256|360:256|360:208,1,150
128,80,116781,5,0
80,136,117012,1,0
128,192,117243,1,0
288,192,117704,1,0
336,136,117935,1,0
288,80,118166,1,0
208,248,118627,6,8,B|208:72,3,150
352,64,120473,6,2,B|440:64|440:168,1,150
328,264,121396,1,0
256,248,121627,1,0
216,184,121858,1,0
160,64,122319,6,2,B|72:64|72:168,1,150
184,264,123242,1,0
256,248,123473,1,0
296,184,123704,1,0
176,80,124166,6,0,B|344:80,1,150
400,104,124858,1,8
456,160,125089,2,0,B|456:312,1,150
304,312,126012,5,0
232,312,126243,1,0
160,312,126473,1,0
56,208,126935,1,8
104,264,127166,1,8
160,312,127396,1,8
368,192,135243,6,0,B|312:240|288:136|224:192,1,150
184,128,135935,1,8
240,72,136166,2,0,B|296:120|320:16|384:72,1,150,0|0
456,192,137089,6,0,B|456:272,1,75
408,328,137550,2,0,B|328:328,1,75
280,272,138012,1,8
280,200,138243,1,8
280,128,138473,1,8
128,120,138935,5,4
128,120,139166,1,8
128,272,139627,5,4
128,272,139858,1,8
256,192,140319,5,4
256,192,140550,1,8
408,192,141012,6,0,B|408:40|96:40,1,375
88,192,142627,6,0,B|88:272,1,75
160,272,143089,2,0,B|160:192,1,75
232,168,143550,2,0,B|232:320,1,150
376,344,144473,5,4
376,192,144935,1,4
376,40,145396,1,4
256,192,145627,12,8,148166
224,224,149089,6,0,B|224:72,1,150
296,80,149781,1,8
368,80,150012,2,0,B|416:168|368:224,3,150,0|0|0|8
256,312,151858,6,0,B|160:312|160:216,1,150
256,72,152781,2,0,B|352:72|352:168,1,150
208,208,153704,1,0
144,168,153935,1,0
80,208,154166,1,0
80,40,154627,1,0
144,80,154858,1,0
208,40,155089,1,0
344,104,155550,6,0,B|400:160,1,75
397,157,156012,1,8
400,304,156473,2,0,B|328:232,1,75
346,250,156935,1,8
256,128,157396,6,2,B|189:191|256:264,2,150
104,120,166627,5,0
48,168,166858,1,0
96,224,167089,1,0
248,224,167550,1,0
296,168,167781,1,0
248,112,168012,1,0
164,238,168473,6,0,B|164:318,1,75,0|0
240,312,168935,2,0,B|336:312,1,75
392,312,169396,2,0,B|480:312|480:208,1,150
440,72,170319,6,0,B|360:72,1,75
288,72,170781,2,0,B|248:144,1,75
176,136,171243,2,0,B|176:56,2,75
40,192,172166,5,8
144,288,172627,1,8
256,192,173089,1,8
432,328,173781,6,0,B|336:328,3,75
357,328,174704,2,0,B|357:151|464:152,1,225
400,56,175858,5,0
256,56,176319,1,0
328,184,176781,1,0
176,184,177243,1,0
80,312,177704,6,0,B|248:312,1,150,4|0
288,256,178396,1,8
336,192,178627,2,0,B|336:104|224:104,1,150,4|0
88,88,179550,5,0
88,88,179781,1,0
88,88,180012,1,0
88,240,180473,5,0
88,240,180704,1,0
88,240,180935,1,0
224,296,181396,6,0,B|264:224|328:264|368:224,1,150
464,136,182319,2,0,B|403:64|365:151|304:88,1,150
176,88,183243,1,0
104,88,183473,2,0,B|16:88,1,75
32,240,184166,1,0
104,240,184396,2,0,B|192:240,1,75
320,192,185089,5,4
320,192,185319,1,8
256,56,185781,5,4
256,56,186012,1,8
192,192,186473,5,4
192,192,186704,1,8
256,192,187166,12,0,188781
80,80,190627,6,0,B|168:80,2,75
80,232,191550,1,0
152,232,191781,1,0
224,232,192012,1,0
376,232,192473,5,4
376,232,192704,1,8
376,80,193166,5,4
376,80,193396,1,8
248,160,193858,6,4,B|336:160,1,75,4|8
168,160,194550,2,0,B|24:160|24:312,1,225
24,296,195473,1,0
24,296,195704,1,8
