osu file format v5

[General]
AudioFilename: A-Ha - Take On Me.MP3
AudioLeadIn: 0
PreviewTime: -1
Countdown: 1
SampleSet: Normal

[Metadata]
Title:Take On Me
Artist:A-ha
Creator:LuigiHann
Version:Normal

[Difficulty]
HPDrainRate:5
CircleSize:5
OverallDifficulty:5
SliderMultiplier:2.2
SliderTickRate:4

[Events]
//Background and Video events
1,0,"TakeOnMe.AVI"
//Break Periods
2,29598,34620
2,114358,120079
2,130203,154189
2,194536,199482
//Storyboard Layer 0 (Background)
//Storyboard Layer 1 (Failing)
//Storyboard Layer 2 (Passing)
//Storyboard Layer 3 (Foreground)
//Storyboard Sound Samples
//Background Colour Transformations
3,100,163,162,255

[TimingPoints]
1979,712.166172106825,4,1,0,100
35820,712.166172106825,4,1,0,100
132650,711.766572106824,4,1,0,100
172480,705.052878965922,4,1,0,100

[HitObjects]
392,80,18714,1,0
184,80,19427,1,0
184,288,20139,1,2
288,288,20495,1,2
392,288,20851,1,2
184,288,21563,5,0
48,128,22275,1,0
248,200,22987,1,2
184,120,23343,1,2
288,96,23700,1,2
392,304,24412,5,0
184,304,25125,1,0
184,96,25837,1,2
288,96,26193,1,2
392,96,26549,1,2
184,96,27261,5,0
48,256,27973,1,0
248,184,28685,1,2
184,264,29041,1,2
288,288,29398,1,2
120,120,35820,5,0
272,48,36354,1,0
376,88,36710,2,0,B|424:136,1,55
40,200,38668,6,0,B|168:104|238:236|238:236|304:208,1,275
472,112,40271,1,0
368,160,40627,1,0
368,160,40805,1,0
288,192,41161,1,0
176,232,41517,6,0,B|103:316|40:288|29:243|40:200,1,165
32,192,42229,1,0
48,136,42407,1,0
144,80,42763,1,0
352,88,44187,5,0
352,88,44365,1,0
418,176,44722,1,0
418,176,44900,1,0
352,232,45256,1,0
264,296,45612,2,0,B|192:288|176:208,1,110
144,152,46324,1,0
176,120,46502,2,0,B|216:48|296:88,1,110
320,160,47570,6,0,B|416:184|456:272|464:328|464:328|376:352,1,275
72,152,50419,1,0
136,96,50775,1,0
216,72,51131,2,0,B|312:48|360:96,1,110
368,104,51665,1,0
464,240,52199,2,4,B|502:263|504:304,1,55
368,312,52911,6,0,B|224:304|128:272|56:208|24:120,1,385
64,112,54336,2,0,B|200:48|304:56|208:144|232:192|336:208|408:208,1,385
392,160,55760,2,0,B|472:200|488:256|472:320|432:352|360:368|288:360|240:312,1,385
224,296,57184,5,0
144,184,57719,1,0
64,288,58253,1,0
56,200,58609,6,0,B|40:96|64:40|152:32|264:56|344:112,1,385
304,136,60033,2,0,B|376:208|464:128|464:128|504:176|512:264|456:328|432:344,1,385
432,280,61457,2,0,B|344:312|272:344|200:336|72:224,1,385
72,184,62882,5,0
168,96,63416,1,0
264,184,63950,1,0
272,96,64306,6,0,B|368:48|448:72|488:208|464:344,1,385
424,320,65730,2,0,B|280:336|152:312|208:104,1,385
192,72,67155,2,4,B|120:80|72:128|40:184|40:224|40:288|72:328|128:344|160:344,1,385
248,272,68935,6,2,B|176:192|176:128|328:184|366:191|410:145|272:48,1,330
256,192,70360,12,0,74276
152,128,75167,5,0
232,96,75701,2,0,B|336:56|360:176|312:248|472:200,1,275
472,168,76769,1,0
88,80,78371,5,0
88,80,78549,1,0
176,64,78906,2,0,B|269:-4|248:224|368:112,1,220
416,240,80152,1,0
416,240,80330,1,0
336,280,80686,2,2,B|272:296|224:248,1,110
168,200,81398,6,0,B|192:104|216:48|136:16|24:64,1,275
48,144,82644,1,0
96,264,84247,6,0,B|168:320|248:272,3,110
288,304,85671,2,0,B|344:280|360:208,3,110
432,256,87095,6,0,B|328:336|104:336,1,330
328,48,90300,1,0
408,80,90656,1,0
336,128,91012,1,0
408,168,91368,1,0
392,256,91725,1,0
392,256,91903,1,0
352,336,92259,1,0
224,352,92793,6,0,B|32:352|152:272|192:264|192:264|88:248|24:168,1,385
80,176,94217,2,0,B|160:224|232:200|231:59|456:160,1,385
456,192,95641,2,0,B|408:272|336:312|264:328|88:304,1,385
80,272,97066,5,0
32,144,97600,1,0
96,32,98134,1,0
184,32,98490,6,0,B|216:368|336:360,1,385
368,336,99914,2,0,B|471:286|505:225|498:102|424:8,1,385
400,48,101339,2,0,B|384:192|352:272|152:312,1,385
144,272,102763,5,0
216,160,103297,1,0
336,216,103831,1,0
392,280,104187,6,0,B|488:144|496:56|400:16|280:32,1,385
256,40,105612,2,0,B|112:56|64:96|32:152|24:208|24:256|48:304,1,385
80,296,107036,2,4,B|184:344|272:344|352:312|448:248,1,385
328,320,108817,6,2,B|448:288|448:288|424:224|336:184|336:184|416:136,1,330
256,192,110241,12,0,114158
72,152,121279,6,2,B|224:360,2,220
216,248,123416,1,0
376,312,124128,2,0,B|456:248|496:112,1,220
320,160,125552,1,0
144,160,126265,1,0
256,296,126977,1,0
256,296,127155,1,0
360,208,127689,1,0
432,48,128401,1,0
240,48,129113,5,0
224,224,129825,1,0
224,224,130003,1,0
208,312,155426,5,0
336,304,155960,1,0
456,256,156494,2,0,B|496:136|464:56|392:32|328:32|256:48|152:32,1,440
104,48,158273,6,0,B|48:112|40:192|32:248,1,165
48,288,159163,1,0
216,320,159875,1,0
344,304,160408,1,0
424,272,160764,5,0
464,192,161120,2,0,B|464:96|432:56|360:32|368:40,2,165
96,80,163967,5,0
72,168,164323,2,0,B|56:224|144:288,3,110
168,328,165747,1,0
256,336,166103,1,0
344,336,166458,1,0
472,336,167170,6,0,B|408:288|330:267|278:219|336:120,1,275
376,64,170017,5,0
424,136,170373,1,0
440,224,170729,1,0
408,304,171085,2,0,B|320:352|160:312,1,220
64,192,172480,6,0,B|120:112|208:72|352:48|456:112,1,385
432,128,173890,2,0,B|530:171|472:278|337:207|199:288|386:387|440:256,1,385
408,232,175300,2,0,B|368:160|312:112|272:80|208:64|144:64|64:80,1,385
64,112,176710,5,0
88,240,177239,1,0
216,240,177767,1,0
304,248,178120,6,0,B|448:208|456:104|336:64|176:80|184:96,1,385
160,56,179530,2,0,B|64:88|24:168|24:240|56:296|144:344|184:352,1,385
200,344,180940,2,0,B|304:352|408:304|464:256|496:216|496:136,1,385
488,112,182350,5,0
360,64,182879,1,0
224,64,183408,1,0
136,80,183760,6,0,B|24:136|0:248|56:320|200:352,1,385
224,344,185170,2,0,B|344:344|424:312|464:256|488:192|456:112,1,385
440,80,186581,2,4,B|392:40|320:24|232:32|152:48|112:72|40:120,1,385
56,312,188696,6,2,B|144:312|208:304|288:304,1,220
256,192,189753,12,0,194336
216,40,200682,1,4
384,176,201387,1,4
176,240,202092,5,4
328,96,202797,1,4
240,296,203502,5,4
168,88,204207,1,4
384,144,204912,5,4
240,312,205617,1,4
96,168,206322,5,4
304,104,207027,1,4
312,320,207732,5,4
104,248,208437,1,4
320,304,209142,5,4
384,96,209847,1,4
416,312,210552,1,4
