osu file format v5

[General]
AudioFilename: A-Ha - Take On Me.MP3
AudioLeadIn: 0
PreviewTime: -1
Countdown: 1
SampleSet: Normal
StackLeniency: 0.7
Mode: 0
LetterboxInBreaks: 1

[Metadata]
Title:Take On Me
Artist:A-ha
Creator:LuigiHann
Version:Insane
Source:
Tags:

[Difficulty]
HPDrainRate:6
CircleSize:6
OverallDifficulty:6
SliderMultiplier:2.2
SliderTickRate:4

[Events]
//Background and Video events
1,0,"TakeOnMe.AVI"
//Break Periods
2,30131,34620
2,114358,120229
2,149757,153841
2,194536,199482
//Storyboard Layer 0 (Background)
//Storyboard Layer 1 (Failing)
//Storyboard Layer 2 (Passing)
//Storyboard Layer 3 (Foreground)
//Storyboard Sound Samples
//Background Colour Transformations
3,100,163,162,255

[TimingPoints]
1979,712.166172106825,4,1,0,100,1
35820,712.166172106825,4,1,0,100,1
132650,711.732972106825,4,1,0,100,1
172480,705.052878965922,4,1,0,100,1

[HitObjects]
120,80,18714,1,0
176,80,18892,1,0
232,80,19070,1,0
288,80,19249,1,0
400,80,19605,1,0
400,192,19961,1,0
400,304,20317,1,0
288,304,20673,1,2
232,304,20851,1,2
184,280,21029,1,2
136,248,21207,1,2
104,200,21385,1,2
104,144,21563,5,0
144,104,21741,1,0
184,64,21919,1,0
224,24,22097,1,0
336,40,22453,1,0
448,64,22809,1,0
448,176,23165,1,0
432,288,23522,1,2
392,320,23700,1,2
344,336,23878,1,2
288,344,24056,1,2
232,336,24234,1,2
176,312,24412,5,0
144,272,24590,1,0
128,224,24768,1,0
112,168,24946,1,0
168,72,25302,1,0
296,48,25658,1,0
408,48,26014,1,0
456,144,26370,1,2
480,192,26548,1,2
480,248,26726,1,2
464,296,26904,1,2
416,328,27082,1,2
360,328,27261,5,0
304,328,27438,1,0
248,328,27616,1,0
192,328,27795,1,0
80,328,28151,1,0
80,216,28507,1,0
80,104,28863,1,0
176,56,29219,1,2
232,48,29397,1,2
288,48,29575,1,2
344,56,29753,1,2
392,80,29931,1,2
400,120,35820,6,0,B|288:64,1,110
248,64,36354,2,0,B|128:64,1,110
104,104,36888,1,0
176,248,37422,5,0
272,296,37778,1,0
328,296,37956,1,0
472,200,38490,5,0
472,200,38668,1,0
472,200,38846,2,0,B|344:104|336:128,1,110
272,120,39558,1,0
56,112,40271,1,0
144,160,40627,1,0
144,160,40805,1,0
144,160,40983,2,0,B|200:200,1,55
264,272,41517,6,0,B|337:356|400:328|411:283|400:240,1,165
432,248,42229,1,0
448,192,42407,1,0
424,88,42763,1,0
320,56,43119,5,0
256,144,43475,1,0
256,144,43653,1,0
160,88,44187,5,0
120,128,44365,1,0
80,232,44722,1,0
120,272,44900,1,0
232,296,45256,1,0
344,280,45612,2,0,B|416:272|432:192,1,110
424,104,46324,5,0
424,104,46502,1,0
424,104,46680,1,0
424,104,46858,1,0
312,112,47214,1,0
200,112,47570,6,0,B|96:112|56:144,1,110
56,168,48104,1,0
56,224,48282,2,0,B|96:296,1,55
192,296,48817,5,0
304,288,49173,1,0
304,288,49351,1,0
440,200,50419,5,0
416,152,50597,1,0
384,104,50775,1,0
336,72,50953,1,0
280,64,51131,1,0
224,64,51309,1,0
176,80,51487,1,0
128,112,51665,1,0
56,264,52199,1,0
56,264,52377,1,0
208,328,52911,5,0
240,280,53090,1,0
272,240,53268,1,0
336,328,53624,1,0
400,240,53980,1,0
432,192,54158,1,0
440,136,54336,5,0
408,96,54514,1,0
368,56,54692,1,0
296,136,55048,1,0
224,56,55404,1,0
176,80,55582,1,0
128,112,55760,5,0
88,152,55938,1,0
48,192,56116,1,0
144,248,56472,1,0
64,320,56828,1,0
176,320,57184,5,0
304,136,57719,1,0
448,288,58253,1,0
448,176,58609,5,0
424,128,58787,1,0
384,88,58965,1,0
280,64,59321,1,0
168,56,59677,1,0
192,104,59855,1,0
232,144,60033,5,0
288,160,60211,1,0
336,192,60389,1,0
408,272,60745,1,0
336,352,61101,1,0
304,304,61279,1,0
272,264,61457,5,0
232,304,61636,1,0
192,344,61814,1,0
104,280,62170,1,0
64,176,62526,1,0
160,120,62882,5,0
376,64,63416,1,0
368,280,63950,1,0
272,328,64306,5,0
224,304,64484,1,0
184,272,64662,1,0
96,200,65018,1,0
104,88,65552,5,0
152,56,65730,1,0
208,40,65908,1,0
264,32,66087,1,0
376,40,66443,1,0
480,168,66977,5,0
472,224,67155,1,0
440,264,67333,1,0
400,296,67511,1,0
296,336,67867,1,0
112,296,68401,1,4
160,136,68935,6,2,B|240:88,1,55
312,64,69469,2,2,B|400:104|416:136,1,110
256,192,70360,12,0,74276
360,128,75167,5,0
360,128,75345,1,0
256,96,75701,2,0,B|192:104|136:152|104:200,1,165
56,272,76591,2,0,B|112:328,1,55
264,320,77303,5,0
368,272,77659,1,0
368,272,77837,1,0
424,80,78371,5,0
424,80,78549,1,0
312,64,78906,1,0
256,64,79084,2,0,B|176:56,5,55
152,88,80152,1,0
136,136,80330,1,0
128,248,80686,2,2,B|192:264|240:216,1,110
344,200,81398,6,0,B|320:104|296:48|376:16,1,165
392,32,82110,2,0,B|448:72|480:88,1,55
464,144,82644,1,0
368,192,83001,5,0
256,200,83357,1,0
256,200,83535,1,0
416,264,84247,6,0,B|344:320|264:272,3,110
208,280,85493,1,0
120,216,85849,1,0
120,216,86027,1,0
64,120,86383,2,0,B|40:176,1,55
184,264,87095,6,0,B|288:344|344:360,1,165
376,256,87986,1,0
368,312,88164,2,0,B|432:288|464:224,3,110
184,48,90300,5,0
184,48,90478,1,0
136,72,90656,1,0
136,72,90834,1,0
176,128,91012,1,0
176,128,91190,1,0
128,152,91368,1,0
128,152,91547,1,0
128,208,91725,1,0
128,208,91903,1,0
176,304,92259,1,0
176,304,92437,1,0
312,264,92793,5,0
352,224,92972,1,0
392,184,93150,1,0
384,296,93506,1,0
464,224,93862,1,0
448,168,94039,1,0
424,120,94218,5,0
376,88,94396,1,0
328,56,94574,1,0
304,160,94930,1,0
216,96,95286,1,0
160,104,95463,1,0
112,128,95642,5,0
64,160,95820,1,0
24,200,95998,1,0
128,240,96354,1,0
40,304,96710,1,0
152,320,97066,5,0
280,136,97601,1,0
432,288,98135,1,0
344,352,98490,5,0
328,296,98668,1,0
312,240,98846,1,0
280,136,99202,1,0
248,32,99558,1,0
192,32,99736,1,0
136,32,99914,5,0
144,88,100092,1,0
152,144,100271,1,0
176,248,100627,1,0
200,352,100983,1,0
256,344,101161,1,0
312,336,101339,5,0
360,312,101517,1,0
408,280,101695,1,0
464,184,102051,1,0
496,80,102407,1,0
400,136,102763,5,0
208,280,103297,1,0
136,56,103831,1,0
48,120,104187,5,0
40,176,104365,1,0
40,232,104543,1,0
128,296,104899,1,0
288,328,105433,5,0
344,320,105611,1,0
392,288,105789,1,0
424,240,105968,1,0
456,136,106324,1,0
336,248,106858,5,0
304,288,107036,1,0
264,320,107214,1,0
208,328,107392,1,0
104,296,107748,1,0
32,144,108282,1,4
168,240,108817,6,2,B|104:192,1,55
152,104,109351,2,2,B|32:16,1,110
256,192,110241,12,0,114158
72,152,121279,6,2,B|152:272,5,110
216,248,123416,1,0
272,336,123772,1,0
376,312,124128,2,0,B|464:224,1,110
464,128,124840,1,0
368,72,125196,1,0
304,160,125552,1,0
224,240,125909,1,0
144,160,126265,1,0
152,272,126621,1,0
256,296,126977,5,0
256,296,127155,1,0
256,296,127333,1,0
360,208,127689,1,0
456,160,128045,1,0
432,48,128401,1,0
328,88,128757,1,0
240,48,129113,1,0
168,128,129469,1,0
224,224,129825,1,0
224,224,130003,1,0
224,224,130182,1,0
312,288,130538,1,0
384,200,130894,1,0
312,120,131250,1,0
224,56,131606,1,0
184,160,131962,1,0
184,160,132140,1,0
184,160,132318,1,0
120,80,132650,5,0
176,80,132828,1,0
232,80,133006,1,0
288,80,133185,1,0
400,80,133541,1,0
400,192,133897,1,0
400,304,134253,1,0
288,304,134609,1,2
232,304,134787,1,2
184,280,134965,1,2
136,248,135143,1,2
104,200,135321,1,2
104,144,135499,5,0
144,104,135677,1,0
184,64,135855,1,0
224,24,136033,1,0
336,40,136389,1,0
448,64,136745,1,0
448,176,137101,1,0
432,288,137458,1,2
392,320,137636,1,2
344,336,137814,1,2
288,344,137992,1,2
232,336,138170,1,2
176,312,138348,5,0
144,272,138526,1,0
128,224,138704,1,0
112,168,138882,1,0
168,72,139238,1,0
296,48,139594,1,0
408,48,139950,1,0
456,144,140306,1,2
480,192,140484,1,2
480,248,140662,1,2
464,296,140840,1,2
416,328,141018,1,2
360,328,141197,5,0
304,328,141374,1,0
248,328,141552,1,0
192,328,141731,1,0
80,328,142087,1,0
80,216,142443,1,0
80,104,142799,1,0
176,56,143155,1,2
232,48,143333,1,2
288,48,143511,1,2
344,56,143689,1,2
392,80,143867,1,2
424,120,144037,5,0
368,120,144215,1,0
312,120,144393,1,0
256,120,144572,1,0
144,120,144928,1,0
72,200,145284,1,0
112,304,145640,1,0
224,304,145996,1,2
280,304,146174,1,2
328,280,146352,1,2
376,248,146530,1,2
408,200,146708,1,2
408,144,146886,5,0
368,104,147064,1,0
328,64,147242,1,0
288,24,147420,1,0
176,40,147776,1,0
64,64,148132,1,0
64,176,148488,1,0
80,288,148845,1,2
120,320,149023,1,2
168,336,149201,1,2
224,344,149379,1,2
280,336,149557,1,2
456,216,154891,6,0,B|432:272|368:296,1,110
304,312,155425,1,0
176,304,155959,1,0
72,280,156315,1,0
56,256,156493,2,0,B|16:136|48:56|120:32|184:32,1,275
256,32,157738,2,0,B|352:32,1,55
408,48,158272,6,0,B|464:112,1,55
464,144,158628,1,0
480,200,158806,2,0,B|480:272,1,55
456,304,159162,1,0
352,328,159517,1,4
240,328,159873,1,0
128,328,160229,1,0
128,328,160407,1,0
128,328,160585,1,0
128,328,160763,1,0
48,248,161119,6,0,B|16:136|88:56,1,165
160,40,162008,2,0,B|240:32,1,55
376,64,162720,1,0
344,168,163076,1,0
344,168,163254,1,0
416,80,163788,5,0
416,80,163966,1,0
440,168,164322,2,0,B|456:224,1,55
424,328,164855,1,0
312,328,165211,1,0
200,328,165567,1,0
88,328,165923,1,0
88,328,166101,1,0
88,328,166279,1,0
88,328,166457,1,0
48,224,166813,1,4
48,112,167169,6,0,B|80:56|280:24,1,220
320,40,168058,1,0
400,112,168414,1,0
432,216,168770,1,0
432,216,168948,1,0
256,80,169660,6,0,B|192:40|96:72,1,110
104,88,170193,1,0
72,128,170371,2,0,B|40:200,1,55
40,232,170727,1,0
48,288,170905,2,0,B|96:336|184:328,1,110
200,344,171439,1,0
256,344,171617,2,0,B|328:344,1,55
312,264,172480,5,0
352,224,172656,1,0
392,184,172832,1,0
384,296,173185,1,0
464,224,173537,1,0
456,168,173713,1,0
424,120,173890,5,0
376,88,174066,1,0
328,56,174242,1,0
304,160,174595,1,0
216,96,174947,1,0
160,96,175123,1,0
112,128,175300,5,0
64,160,175476,1,0
24,200,175652,1,0
128,240,176005,1,0
40,304,176357,1,0
152,320,176710,5,0
280,136,177239,1,0
432,288,177767,1,0
344,352,178120,5,0
328,296,178296,1,0
312,240,178472,1,0
280,136,178825,1,0
248,32,179178,1,0
192,32,179354,1,0
136,32,179530,5,0
144,88,179706,1,0
152,144,179883,1,0
176,248,180235,1,0
200,352,180588,1,0
256,352,180764,1,0
312,336,180940,5,0
360,312,181116,1,0
408,280,181293,1,0
464,184,181645,1,0
496,80,181998,1,0
400,136,182350,5,0
208,280,182878,1,0
136,56,183407,1,0
48,120,183760,5,0
40,176,183936,1,0
40,232,184112,1,0
128,296,184465,1,0
288,328,184993,5,0
344,320,185170,1,0
392,288,185346,1,0
424,240,185522,1,0
456,136,185875,1,0
336,248,186404,5,0
304,288,186580,1,0
264,320,186756,1,0
208,328,186932,1,0
104,296,187285,1,0
32,144,187814,1,4
280,256,188696,2,2,B|338:216|338:216|328:144|280:104|216:112,1,220
256,192,189753,12,0,194336
216,40,200682,1,0
216,40,200858,1,0
216,40,201034,1,4
384,176,201387,1,0
384,176,201739,1,4
176,240,202092,5,0
176,240,202268,1,0
176,240,202444,1,4
328,96,202797,1,0
328,96,203149,1,4
240,296,203502,5,0
240,296,203678,1,0
240,296,203854,1,4
168,88,204207,1,0
168,88,204559,1,4
384,144,204912,5,0
240,312,205441,1,0
96,120,205970,1,0
96,168,206322,5,0
96,168,206498,1,0
96,168,206675,1,4
304,104,207027,1,0
304,104,207380,1,4
312,320,207732,5,0
312,320,207908,1,0
312,320,208085,1,4
104,248,208437,1,0
104,248,208790,1,4
320,304,209142,5,0
320,304,209319,1,0
320,304,209495,1,4
384,96,209847,1,0
384,96,210200,1,4
400,200,210552,2,0,B|424:344,1,110
232,192,211610,2,0,B|144:320,1,110
