osu file format v5

[General]
AudioFilename: tutorialSong.mp3
AudioLeadIn: 0
PreviewTime: 59998
Countdown: 0
SampleSet: Normal
StackLeniency: 0.7
Mode: 0
LetterboxInBreaks: 1

[Editor]
DistanceSpacing: 0.800000011920929
BeatDivisor: 2
GridSize: 8

[Metadata]
Title:Super Trouper
Artist:A-Teens
Creator:Sushi971
Version:Easy
Source:ABBA
Tags:

[Difficulty]
HPDrainRate:3
CircleSize:3
OverallDifficulty:3
SliderMultiplier:0.9
SliderTickRate:1

[Events]
//Background and Video events
0,0,"Background.png"
//Break Periods
//Storyboard Layer 0 (Background)
//Storyboard Layer 1 (Fail)
//Storyboard Layer 2 (Pass)
//Storyboard Layer 3 (Foreground)
//Storyboard Sound Samples
//Background Colour Transformations
3,100,0,0,64

[TimingPoints]
13926,480,4,1,0,80,1,0
55686,-200,4,1,0,80,0,0
59526,-100,4,2,0,80,0,0
73926,-100,4,1,0,80,0,0
75366,-100,4,1,0,80,0,1
88746,-100,4,1,0,80,0,0
88806,-100,4,1,0,80,0,1
102966,-100,4,1,1,100,0,0

[Colours]
Combo1 : 255,255,0
Combo2 : 255,0,255
Combo3 : 0,255,255
Combo4 : 255,0,0

[HitObjects]
184,80,13926,5,0
328,80,14886,1,0
432,184,15846,2,2,B|64:184,1,360,2|4
184,280,18726,5,0
328,280,19686,2,2,B|408:280|408:200,3,90,2|2|2|4
432,176,21606,5,4
328,72,22566,1,0
184,72,23526,2,2,B|104:152|184:232,2,180,2|2|4
288,256,26406,5,0
256,192,27366,12,4,28806
128,192,29286,5,0
200,192,29766,1,8
272,192,30246,1,0
344,192,30726,1,8
416,192,31206,2,2,B|504:192|504:72|440:72|296:72,1,270,2|4
256,200,33606,5,8
256,344,34566,1,8
184,344,35046,2,2,B|88:344|88:208,2,180,2|2|4
256,344,37446,5,8
328,344,37926,1,0
328,272,38406,1,8
328,200,38886,2,2,B|328:112|328:72|256:72|184:72|184:152,1,270,2|4
256,272,41286,5,8
256,128,42246,1,8
256,192,42726,12,4,44646
88,192,45126,5,0
160,192,45606,2,0,B|272:192,3,90,0|8|0|8
320,192,47526,1,2
320,192,47766,1,2
176,304,48966,6,0,B|80:304,2,90,0|0|8
248,304,50406,2,2,B|336:304|336:232|424:232,2,180,2|2|4
248,232,52806,5,0
248,160,53286,1,8
368,232,54246,2,0,B|456:232,4,45,8|0|8|0|8
256,232,55926,6,0,B|192:232|128:192|128:120|192:88|304:88,1,292.5,0|4
336,224,60006,6,0,B|384:224|384:160,3,90,0|2|0|2
384,88,61926,2,0,B|248:88|248:160|120:160,1,270,0|4
56,160,63846,5,0
56,304,64806,1,0
200,304,65766,2,0,B|360:304|432:240|432:160,1,270,0|4
384,136,67686,5,0
248,88,68646,1,0
176,216,69606,2,0,B|256:152|368:152|440:240,1,270,0|4
376,272,71526,5,0
304,272,72006,1,0
232,272,72486,2,0,B|128:272,1,90
72,272,73446,2,0,B|72:176|16:96,1,180,0|4
168,96,75366,6,0,B|128:136|128:192,1,90,0|8
168,232,76326,2,0,B|208:272|208:328,1,90,0|8
280,304,77286,1,0
344,280,77766,1,8
392,224,78246,1,0
408,152,78726,1,12
408,80,79206,6,0,B|288:80,4,90,0|8|0|8|4
264,80,82086,1,4
264,224,83046,5,0
264,224,83526,1,8
264,296,84006,1,0
264,296,84486,1,8
192,296,84966,2,0,B|64:296|64:184,1,180,4|4
256,192,86646,12,4,88326
302,191,88806,6,0,B|198:191,3,90,0|8|0|8
136,192,90726,1,0
64,192,91206,1,8
64,264,91686,1,0
136,264,92166,1,8
208,264,92646,6,0,B|288:264|256:184|384:184,2,180,0|0|4
256,128,95526,1,4
256,56,96006,1,0
328,56,96486,6,0,B|432:56|432:88|432:192,1,180
432,232,97926,1,8
432,304,98406,1,4
288,304,99366,1,4
216,304,99846,1,8
256,192,100326,12,0,103206
