osu file format v9

[General]
AudioFilename: A-Ha - Take On Me.MP3
AudioLeadIn: 0
PreviewTime: -1
Countdown: 1
SampleSet: Normal
StackLeniency: 0.7
Mode: 0
LetterboxInBreaks: 1

[Editor]
DistanceSpacing: 1
BeatDivisor: 4
GridSize: 8

[Metadata]
Title:Take On Me
Artist:A-Ha
Creator:Rolled
Version:Rolled
Source:
Tags:

[Difficulty]
HPDrainRate:6
CircleSize:4
OverallDifficulty:7
ApproachRate:8
SliderMultiplier:1.99999990463257
SliderTickRate:2

[Events]
//Background and Video events
Video,0,"TakeOnMe.AVI"
0,0,"Notebook-paper-stock2416.jpg"
//Break Periods
2,74489,80661
//Storyboard Layer 0 (Background)
//Storyboard Layer 1 (Fail)
//Storyboard Layer 2 (Pass)
//Storyboard Layer 3 (Foreground)
//Storyboard Sound Samples
//Background Colour Transformations
3,100,163,162,255

[TimingPoints]
1649,356.083086053412,4,2,0,35,1,0
18305,-100,4,1,0,35,0,0
19152,-100,4,1,0,35,0,0
35654,-100,4,2,0,45,0,0
52835,-100,4,1,0,40,0,0
52924,-100,4,1,0,40,0,1
56930,-100,4,1,0,58,0,1
58355,-100,4,1,0,40,0,1
62806,-100,4,1,0,58,0,1
64141,-100,4,1,0,40,0,1
74289,-100,4,2,0,45,0,0
92717,-100,4,1,0,40,0,0
114171,-100,4,2,0,45,0,0
115239,-100,4,1,0,15,0,0
121114,-100,4,2,0,28,0,0
127613,-100,4,1,0,15,0,0
131530,-100,4,1,0,20,0,0
131797,-100,4,1,0,25,0,0
132153,-100,4,1,0,30,0,0
132509,-100,4,1,0,35,0,0

[HitObjects]
56,312,1649,1,0
152,312,1827,1,0
224,248,2005,2,0,B|240:160|336:112|408:144,1,199.999990463257,4|2
392,232,2539,1,0
312,168,2717,2,0,B|280:80|184:80|136:112,1,199.999990463257,4|2
56,144,3251,1,0
144,200,3429,2,0,B|224:232|216:328|152:360,1,199.999990463257,4|2
88,280,3963,1,0
192,272,4141,2,0,B|304:256,1,99.9999952316285,4|4
392,232,4497,5,2
480,176,4675,1,0
384,136,4853,2,0,B|312:128|248:72|240:16,1,199.999990463257,4|2
248,112,5387,1,0
288,200,5565,2,0,B|328:256|320:336|272:384,1,199.999990463257,4|2
224,296,6100,1,0
192,200,6278,2,0,B|136:168|104:72|168:-8,1,199.999990463257,4|2
96,112,6812,1,0
40,192,6990,2,0,B|0:296,1,99.9999952316285,4|4
104,344,7346,6,0,B|176:256|304:224|400:240|488:280,1,399.999980926514,2|4
256,64,8592,1,0
256,160,8770,1,2
256,264,8948,2,0,B|256:320|312:344,2,99.9999952316285
256,160,9482,2,0,B|280:96|352:48|408:40,1,199.999990463257,4|2
472,120,10016,1,0
408,40,10194,6,0,B|336:128|208:160|112:144|24:104,1,399.999980926514,2|6
256,280,11441,1,0
184,216,11619,2,0,B|112:208|72:256,2,99.9999952316285,2|0|0
280,192,12153,1,0
352,264,12331,2,0,B|432:280|480:192|440:128,1,199.999990463257,4|0
368,64,12865,1,0
224,48,13043,6,0,B|216:120|144:208|56:192,1,199.999990463257,10|0
200,184,13577,2,0,B|128:256|112:368,1,199.999990463257,8|0
216,352,14111,2,0,B|328:320,1,99.9999952316285,8|0
368,224,14468,2,0,B|271:251,2,99.9999952316285,10|8|0
464,200,15002,1,8
368,224,15180,2,0,B|288:240|208:200|208:104,1,199.999990463257,4|8
64,32,15714,5,8
112,120,15892,2,0,B|176:136|200:248|136:296,1,199.999990463257,10|0
80,216,16426,1,8
168,168,16604,2,0,B|216:136|224:72,1,99.9999952316285,4|0
320,56,16960,1,8
416,56,17138,1,0
320,152,17316,1,10
416,152,17494,2,0,B|448:208|400:264,1,99.9999952316285,8|0
320,248,17850,1,8
224,248,18028,2,0,B|192:304|240:360,3,99.9999952316285,4|4|4|4
40,328,18741,5,6
88,240,18919,1,2
96,144,19097,1,8
72,48,19275,2,0,B|128:112|208:112|264:96,1,199.999990463257,0|0
400,176,19809,1,8
440,336,19987,2,0,B|384:272|304:272|248:288,1,199.999990463257
112,208,20521,1,8
112,208,20699,1,8
256,72,20877,5,6
296,160,21055,1,2
216,224,21233,1,8
256,312,21411,1,0
472,80,21589,5,6
424,168,21767,1,2
416,264,21945,1,8
440,360,22123,2,0,B|384:296|304:296|248:312,1,199.999990463257,0|0
112,232,22657,1,8
72,72,22835,2,0,B|128:136|208:136|264:120,1,199.999990463257
400,200,23369,1,8
400,200,23547,1,8
256,336,23725,5,6
216,248,23903,1,2
296,184,24081,1,8
256,96,24259,1,0
48,32,24438,5,6
112,112,24616,1,2
112,208,24794,1,8
48,280,24972,2,0,B|96:216|184:192|264:216,1,199.999990463257
408,296,25506,1,8
344,224,25684,2,0,B|304:168|304:88|352:40,1,199.999990463257
296,120,26218,2,0,B|280:192|232:208,1,99.9999952316285,8|8
88,312,26574,5,6
8,248,26752,1,2
96,200,26930,1,8
144,112,27108,1,0
168,248,27286,5,6
224,328,27465,1,2
320,344,27643,1,8
416,336,27821,2,0,B|472:304|472:200|424:160,1,199.999990463257
360,264,28355,1,8
280,224,28533,2,0,B|224:192|224:88|272:48,1,199.999990463257
208,128,29067,2,0,B|192:192|112:216,1,99.9999952316285,8|8
40,288,29423,2,0,B|160:272,1,99.9999952316285,6|2
8,368,29779,2,0,B|128:352,1,99.9999952316285,8|0
256,280,30135,5,6
328,208,30313,1,2
424,200,30491,1,8
328,208,30669,2,0,B|232:184|224:96|240:48,1,199.999990463257
48,48,31203,1,8
120,120,31381,2,0,B|168:192|152:264|120:312,1,199.999990463257
40,368,31916,1,8
224,288,32094,5,8
320,304,32272,1,2
408,352,32450,1,2
400,256,32628,2,0,B|376:208|392:152,1,99.9999952316285,8|0
312,32,32984,5,2
264,120,33162,1,2
184,176,33340,1,8
88,184,33518,2,0,B|8:208|8:328|80:352,1,199.999990463257,0|0
120,264,34052,1,8
88,184,34230,2,0,B|136:112|104:32|32:0,2,199.999990463257,0|0|0
184,176,35120,1,0
184,176,35298,1,0
184,176,35476,1,0
448,248,35832,6,0,B|400:192|320:224|296:264|312:320,1,199.999990463257,4|0
328,208,36367,2,0,B|376:152|368:64|328:16,1,199.999990463257,2|0
232,24,36901,1,2
56,152,37435,1,8
56,152,37791,1,0
64,248,37969,2,8,B|88:312|192:336|256:304,1,199.999990463257
384,224,38503,5,0
440,144,38681,1,4
344,144,38859,2,0,B|272:128|240:64,1,99.9999952316285,2|0
168,48,39215,2,0,B|112:16|16:64|64:168,1,199.999990463257,2|2
120,232,39749,1,2
120,232,39927,1,0
336,328,40284,1,2
336,328,40640,1,0
360,232,40818,2,0,B|352:168|400:96|472:80,1,199.999990463257,2|2
360,112,41352,5,0
288,184,41530,2,0,B|232:288,1,99.9999952316285,4|0
128,320,41886,2,0,B|184:216,1,99.9999952316285,2|0
200,136,42242,1,2
104,168,42420,2,0,B|80:96|128:40|176:16|232:40,1,199.999990463257,2|2
424,296,43132,2,0,B|208:296,1,199.999990463257,8|0
152,224,43666,2,0,B|280:224,1,99.9999952316285,8|0
352,224,44022,1,8
432,168,44200,1,0
384,24,44378,6,0,B|320:80|240:96|192:96,1,199.999990463257,4|0
104,96,44913,2,0,B|32:128|32:232|112:272,2,199.999990463257,2|2|2
200,96,45803,2,0,B|256:128|304:128,1,99.9999952316285,0|0
376,184,46159,1,2
376,184,46337,1,0
280,216,46515,2,0,B|216:248|224:344|280:384,1,199.999990463257,2|2
48,88,47227,5,4
48,88,47405,1,0
80,184,47583,2,0,B|136:264|128:376,1,199.999990463257,2|0
152,280,48117,1,0
192,184,48295,2,0,B|232:144|288:144,1,99.9999952316285,2|0
424,304,48830,1,8
256,264,49186,1,0
344,216,49364,2,0,B|408:200|448:88|400:32,1,199.999990463257,8|8
208,40,49898,5,0
120,88,50076,2,0,B|32:144,1,99.9999952316285,4|0
136,184,50432,2,0,B|220:130,2,99.9999952316285,2|0|2
48,232,50966,1,0
136,280,51144,2,0,B|220:226,1,99.9999952316285,2|0
328,184,51500,2,0,B|256:272|320:384|456:384|520:320|512:240,2,399.999980926514,4|4|4
424,144,53103,5,0
344,88,53281,2,0,B|296:40|208:40|160:96,2,199.999990463257,8|0|8
272,160,54171,1,0
200,232,54349,1,4
104,256,54527,1,0
168,328,54705,2,0,B|216:376|304:376|352:320,2,199.999990463257,8|0|8
104,256,55595,1,0
48,168,55773,1,4
72,72,55951,1,0
164,91,56129,2,0,B|208:40|296:40|344:88,2,199.999990463257,8|0|8
32,328,57019,5,0
104,256,57197,2,0,B|160:216|192:128|192:80,1,199.999990463257,6|0
312,312,57732,2,0,B|256:224|280:120,1,199.999990463257,6|0
424,240,58266,1,6
440,56,58444,5,0
384,136,58622,1,4
288,160,58800,1,0
192,120,58978,2,0,B|176:48|88:16|24:40,2,199.999990463257,8|0|8
296,280,59868,5,0
216,224,60046,1,4
120,232,60224,1,0
192,304,60402,2,0,B|136:360|56:336|24:280|32:240,2,199.999990463257,8|0|8
304,192,61292,5,0
336,96,61470,1,4
424,48,61648,1,0
440,144,61827,2,0,B|376:208|384:288|432:336,2,199.999990463257,8|0|8
336,96,62717,5,0
248,136,62895,2,0,B|176:200|72:192|32:176,1,199.999990463257,6|0
256,272,63429,2,0,B|304:224|400:200|448:216,1,199.999990463257,6|0
336,96,63963,1,6
72,328,64319,5,4
120,240,64497,1,0
112,144,64675,1,0
336,96,65031,6,0,B|384:64|456:160|408:224|376:296|512:336,1,299.999985694885,8|8
392,256,65743,1,12
296,224,65921,1,0
200,248,66100,1,0
72,96,66456,6,0,B|88:184|192:200|296:128|232:16,1,299.999985694885,8|8
264,136,67168,1,12
296,224,67346,1,0
368,288,67524,2,0,B|400:328|464:336,1,99.9999952316285,0|0
368,288,67880,1,10
280,336,68058,1,0
192,280,68236,2,0,B|144:240|88:240,1,99.9999952316285,0|14
256,40,68948,5,0
256,40,69126,1,0
256,40,69482,2,0,B|232:112|296:176|256:240,1,199.999990463257,0|0
256,192,70373,12,2,74289
280,72,81411,6,0,B|392:80|464:200|448:288,1,299.999985694885,4|0
352,280,82123,1,2
256,280,82301,2,0,B|208:296|184:352,2,99.9999952316285,0|2|0
88,176,83013,1,8
256,64,83370,1,0
296,160,83548,2,0,B|352:208|464:176|464:104,1,199.999990463257,8|8
416,256,84082,5,0
328,304,84260,2,0,B|288:352|224:352,1,99.9999952316285,4|0
192,264,84616,1,2
96,248,84794,2,0,B|32:256|16:320,1,99.9999952316285,0|2
40,192,85150,2,0,B|112:176|128:128,1,99.9999952316285,0|2
192,64,85506,2,0,B|184:152|264:184|336:168,1,199.999990463257,4|0
400,104,86040,1,4
464,304,86396,1,6
368,280,86574,1,0
272,280,86752,1,2
176,304,86930,1,0
48,264,87108,6,0,B|136:248|184:144|160:96,1,199.999990463257,4|2
208,208,87643,2,0,B|200:96|288:32,1,199.999990463257,0|2
296,136,88177,2,0,B|272:208|304:288|384:320|488:296,1,299.999985694885,2|8
448,104,89067,1,0
400,192,89245,2,0,B|400:264|368:328|264:336,1,199.999990463257,8|8
40,328,89779,5,0
120,272,89957,2,0,B|248:248,1,99.9999952316285,4|0
88,184,90313,1,8
104,96,90491,2,0,B|80:32|32:24,2,99.9999952316285,0|4|0
176,192,91025,1,8
120,272,91203,1,0
200,336,91381,2,0,B|264:280|336:264|400:272,1,199.999990463257,4|0
248,256,91916,2,0,B|336:208|360:96,1,199.999990463257,4|0
472,48,92450,2,0,B|472:152,1,99.9999952316285,4|0
472,344,92806,5,4
392,280,92984,1,0
336,200,93162,2,0,B|336:112|256:80|184:104,2,199.999990463257,8|0|8
248,336,94052,5,0
152,360,94230,1,4
64,320,94408,1,0
32,224,94586,2,0,B|0:176|0:80|48:32,2,199.999990463257,8|0|8
152,360,95476,5,0
248,320,95654,1,4
344,320,95832,1,0
440,352,96011,2,0,B|376:272|424:160,2,199.999990463257,8|0|8
368,216,96901,5,0
280,168,97079,2,0,B|216:128|216:40|280:-8,1,199.999990463257,6|0
232,216,97613,2,0,B|296:256|296:344|232:392,1,199.999990463257,6|0
72,256,98147,1,6
128,72,98325,5,0
224,80,98503,2,0,B|304:64|344:72,1,99.9999952316285,4|0
416,96,98859,2,0,B|344:144|320:240|336:288,2,199.999990463257,8|0|8
464,256,99749,5,0
408,344,99927,2,0,B|336:336|296:344,1,99.9999952316285,4|0
224,288,100284,2,0,B|176:224|80:208|32:232,2,199.999990463257,8|0|8
296,128,101174,5,0
224,56,101352,1,4
128,72,101530,1,0
48,128,101708,2,0,B|96:200|96:280|80:336,2,199.999990463257,8|0|8
120,232,102598,5,0
200,288,102776,2,0,B|272:240|408:224,1,199.999990463257,6|0
480,72,103310,2,0,B|368:144|264:144,1,199.999990463257,6|0
120,232,103844,1,6
72,144,104022,5,0
168,144,104200,1,4
120,56,104378,1,0
224,56,104557,2,0,B|288:88|288:192|216:240,1,199.999990463257,0|8
231,227,105091,1,0
504,224,105447,5,8
408,224,105625,1,12
456,312,105803,1,0
352,312,105982,2,0,B|288:280|288:176|360:128,1,199.999990463257,0|8
344,140,106516,1,0
32,344,106871,5,8
96,272,107049,2,0,B|104:216|160:184,1,99.9999952316285,12|0
72,128,107405,1,0
128,48,107583,2,0,B|64:56|32:16,2,99.9999952316285,0|10|0
200,112,108117,1,0
296,144,108295,1,10
296,144,108473,1,0
392,128,108651,1,0
456,48,108830,1,8
392,128,109008,1,0
360,224,109186,1,8
376,320,109364,1,0
288,360,109542,1,8
200,320,109720,1,0
256,192,110254,12,0,114171
64,296,115595,6,0,B|128:296|200:336|272:344,1,199.999990463257,8|0
336,344,116129,1,0
400,296,116307,1,2
288,40,116663,1,8
256,112,116841,1,0
264,192,117019,2,0,B|288:248|360:248,1,99.9999952316285,8|8
192,264,117376,1,0
136,208,117554,1,8
56,216,117732,1,2
456,88,118088,5,8
416,232,118266,1,8
352,184,118444,2,0,B|320:240|360:288,1,99.9999952316285,8|0
432,320,118800,1,0
360,352,118978,2,0,B|312:384|248:344,1,99.9999952316285,0|2
80,296,119512,5,8
176,168,119690,1,0
56,48,119868,2,0,B|96:88|152:64,1,99.9999952316285,8|8
296,64,120224,1,0
248,128,120402,1,8
248,208,120580,2,0,B|272:256|336:264|392:264|432:240,1,199.999990463257,2|8
32,344,121292,6,0,B|80:304,3,49.9999976158143,0|0|0|0
80,304,121648,2,0,B|120:272,3,49.9999976158143,4|0|8|0
128,264,122005,1,8
136,256,122094,1,0
144,248,122183,1,0
152,240,122272,1,0
160,232,122361,1,4
168,224,122450,1,0
176,216,122539,1,0
184,208,122628,1,0
192,200,122717,6,0,B|232:240,3,49.9999976158143,8|0|0|0
240,248,123073,2,0,B|280:208,3,49.9999976158143,4|0|2|0
288,224,123429,1,8
296,232,123518,1,0
304,240,123607,1,0
312,248,123696,1,0
320,256,123785,1,12
328,264,123874,1,0
336,272,123963,1,8
344,280,124052,1,0
352,288,124141,6,0,B|392:248,3,49.9999976158143,8|0|0|0
400,240,124497,2,0,B|432:200,3,49.9999976158143,4|0|0|0
424,192,124853,1,8
416,184,124942,1,0
408,176,125031,1,0
400,168,125120,1,0
392,160,125209,1,4
384,152,125298,1,0
376,144,125387,1,0
368,136,125476,1,0
360,128,125565,6,0,B|304:128,3,49.9999976158143,8|0|0|0
296,128,125921,2,0,B|240:128,3,49.9999976158143,4|0|0|0
232,128,126278,6,0,B|120:128|56:232|72:352|112:360,1,299.999985694885,4|0
96,240,126990,2,0,B|168:176|176:64|120:16|24:8,1,299.999985694885,4|0
48,112,127702,1,6
400,80,128058,5,8
248,320,128236,1,0
328,320,128414,2,0,B|304:272|328:224,1,99.9999952316285,8|8
312,72,128770,1,0
296,152,128948,1,0
232,200,129126,2,0,B|128:200,1,99.9999952316285,6|0
32,344,129482,5,8
8,200,129660,1,8
72,144,129838,2,0,B|96:96|72:48,1,99.9999952316285,8|0
152,152,130194,2,0,B|128:200|152:248,1,99.9999952316285,0|0
224,288,130551,2,0,B|296:248|384:256|432:304,1,199.999990463257,6|8
488,160,131085,5,8
424,208,131263,2,0,B|368:200|336:160,1,99.9999952316285,8|0
256,112,131619,1,8
256,112,131975,1,8
256,112,132331,1,8
