osu file format v12

[General]
AudioFilename: firefly.mp3
AudioLeadIn: 0
PreviewTime: -1
Countdown: 1
SampleSet: Normal
StackLeniency: 0.7
Mode: 1
LetterboxInBreaks: 1
WidescreenStoryboard: 0

[Editor]
DistanceSpacing: 0.8
BeatDivisor: 4
GridSize: 8

[Metadata]
Title:Firefly
TitleUnicode:Firefly
Artist:A Teens
ArtistUnicode:A Teens
Creator:1164530434
Version:9 stars
Source:Firefly
Tags:Firefly a teens xuanwu
BeatmapID:358464
BeatmapSetID:144286

[Difficulty]
HPDrainRate:1
CircleSize:2
OverallDifficulty:10
ApproachRate:0
SliderMultiplier:1.4
SliderTickRate:2

[Events]
//Background and Video events
0,0,"Firefly.jpg",0,0
//Break Periods
2,58875,62729
2,120339,124192
//Storyboard Layer 0 (Background)
//Storyboard Layer 1 (Fail)
//Storyboard Layer 2 (Pass)
//Storyboard Layer 3 (Foreground)
//Storyboard Sound Samples
//Background Colour Transformations
3,100,163,162,255

[TimingPoints]
17700.2713172847,365.853658536585,4,1,0,71,1,0
41114,-100,4,1,0,71,0,1
64529,-100,4,1,0,71,0,0
90871,-100,4,1,0,71,0,1
114285,-100,4,1,0,71,0,0
137700,-100,4,1,0,71,0,1
184529,-100,4,1,0,71,0,0

[HitObjects]
256,192,17700,1,8,0:0:0:0:
256,192,18066,1,0,0:0:0:0:
256,192,18431,1,8,0:0:0:0:
256,192,18614,1,0,0:0:0:0:
256,192,18797,1,0,0:0:0:0:
256,192,19163,1,12,0:0:0:0:
256,192,19529,1,0,0:0:0:0:
256,192,19895,1,0,0:0:0:0:
256,192,20261,1,0,0:0:0:0:
256,192,20627,1,8,0:0:0:0:
256,192,20992,1,0,0:0:0:0:
256,192,21358,1,8,0:0:0:0:
256,192,21541,1,0,0:0:0:0:
256,192,21724,1,0,0:0:0:0:
256,192,22090,1,12,0:0:0:0:
256,192,22456,1,8,0:0:0:0:
256,192,22822,1,0,0:0:0:0:
256,192,23005,1,0,0:0:0:0:
256,192,23188,1,0,0:0:0:0:
256,192,23371,1,0,0:0:0:0:
256,192,23553,1,12,0:0:0:0:
256,192,23919,1,0,0:0:0:0:
256,192,24285,1,8,0:0:0:0:
256,192,24468,1,0,0:0:0:0:
256,192,24651,1,0,0:0:0:0:
256,192,25017,1,12,0:0:0:0:
256,192,25383,1,0,0:0:0:0:
256,192,25749,1,0,0:0:0:0:
256,192,26114,1,0,0:0:0:0:
256,192,26480,1,8,0:0:0:0:
256,192,26846,1,0,0:0:0:0:
256,192,27212,1,8,0:0:0:0:
256,192,27395,1,0,0:0:0:0:
256,192,27578,1,0,0:0:0:0:
256,192,27944,1,12,0:0:0:0:
256,192,28310,1,8,0:0:0:0:
256,192,28675,1,0,0:0:0:0:
256,192,28858,1,0,0:0:0:0:
256,192,29041,1,0,0:0:0:0:
256,192,29224,1,0,0:0:0:0:
256,192,29407,1,12,0:0:0:0:
256,192,29773,1,0,0:0:0:0:
256,192,30139,1,8,0:0:0:0:
256,192,30322,1,0,0:0:0:0:
256,192,30505,1,0,0:0:0:0:
256,192,30871,1,8,0:0:0:0:
256,192,31236,1,0,0:0:0:0:
256,192,31602,1,0,0:0:0:0:
256,192,31968,1,0,0:0:0:0:
256,192,32334,1,12,0:0:0:0:
256,192,32700,1,0,0:0:0:0:
256,192,33066,1,8,0:0:0:0:
256,192,33249,1,0,0:0:0:0:
256,192,33431,1,0,0:0:0:0:
256,192,33797,1,8,0:0:0:0:
256,192,34163,1,8,0:0:0:0:
256,192,34529,1,0,0:0:0:0:
256,192,34712,1,0,0:0:0:0:
256,192,34895,1,0,0:0:0:0:
256,192,35078,1,0,0:0:0:0:
256,192,35261,1,12,0:0:0:0:
256,192,35627,1,0,0:0:0:0:
256,192,35992,1,0,0:0:0:0:
256,192,36358,1,0,0:0:0:0:
256,192,36724,1,8,0:0:0:0:
256,192,37090,1,0,0:0:0:0:
256,192,37456,1,0,0:0:0:0:
256,192,37822,1,0,0:0:0:0:
256,192,38188,1,12,0:0:0:0:
256,192,38553,1,8,0:0:0:0:
256,192,38919,1,8,0:0:0:0:
256,192,39285,1,8,0:0:0:0:
256,192,39651,1,8,0:0:0:0:
256,192,40017,1,0,0:0:0:0:
256,192,40200,1,0,0:0:0:0:
256,192,40383,1,8,0:0:0:0:
256,192,40566,1,0,0:0:0:0:
256,192,40749,1,0,0:0:0:0:
256,192,41114,1,12,0:0:0:0:
256,192,41297,1,0,0:0:0:0:
256,192,41480,1,8,0:0:0:0:
256,192,41663,1,0,0:0:0:0:
256,192,41846,1,8,0:0:0:0:
256,192,42212,1,0,0:0:0:0:
256,192,42578,1,8,0:0:0:0:
256,192,42669,1,8,0:0:0:0:
256,192,42944,1,0,0:0:0:0:
256,192,43035,1,0,0:0:0:0:
256,192,43310,1,8,0:0:0:0:
256,192,43401,1,8,0:0:0:0:
256,192,43675,1,0,0:0:0:0:
256,192,44041,1,8,0:0:0:0:
256,192,44224,1,0,0:0:0:0:
256,192,44407,1,8,0:0:0:0:
256,192,44590,1,0,0:0:0:0:
256,192,44773,1,8,0:0:0:0:
256,192,45139,1,0,0:0:0:0:
256,192,45505,1,8,0:0:0:0:
256,192,45596,1,8,0:0:0:0:
256,192,45871,1,0,0:0:0:0:
256,192,45962,1,0,0:0:0:0:
256,192,46236,1,8,0:0:0:0:
256,192,46328,1,8,0:0:0:0:
256,192,46602,1,0,0:0:0:0:
256,192,46968,1,12,0:0:0:0:
256,192,47151,1,0,0:0:0:0:
256,192,47334,1,8,0:0:0:0:
256,192,47517,1,0,0:0:0:0:
256,192,47700,1,8,0:0:0:0:
256,192,48066,1,0,0:0:0:0:
256,192,48431,1,8,0:0:0:0:
256,192,48523,1,8,0:0:0:0:
256,192,48797,1,0,0:0:0:0:
256,192,48889,1,0,0:0:0:0:
256,192,49163,1,8,0:0:0:0:
256,192,49255,1,8,0:0:0:0:
256,192,49529,1,0,0:0:0:0:
256,192,49895,1,8,0:0:0:0:
256,192,50078,1,0,0:0:0:0:
256,192,50261,1,8,0:0:0:0:
256,192,50444,1,0,0:0:0:0:
256,192,50627,1,8,0:0:0:0:
256,192,50992,1,0,0:0:0:0:
256,192,51358,1,8,0:0:0:0:
256,192,51450,1,8,0:0:0:0:
256,192,51724,1,0,0:0:0:0:
256,192,51816,1,0,0:0:0:0:
256,192,52090,1,8,0:0:0:0:
256,192,52181,1,8,0:0:0:0:
256,192,52456,1,0,0:0:0:0:
256,192,52822,1,12,0:0:0:0:
256,192,53005,1,0,0:0:0:0:
256,192,53188,1,8,0:0:0:0:
256,192,53371,1,0,0:0:0:0:
256,192,53553,1,8,0:0:0:0:
256,192,53919,1,0,0:0:0:0:
256,192,54285,1,8,0:0:0:0:
256,192,54377,1,8,0:0:0:0:
256,192,54651,1,0,0:0:0:0:
256,192,54742,1,0,0:0:0:0:
256,192,55017,1,8,0:0:0:0:
256,192,55108,1,8,0:0:0:0:
256,192,55383,1,0,0:0:0:0:
256,192,55749,1,8,0:0:0:0:
256,192,55931,1,0,0:0:0:0:
256,192,56114,1,8,0:0:0:0:
256,192,56297,1,0,0:0:0:0:
256,192,56480,1,8,0:0:0:0:
256,192,56846,1,0,0:0:0:0:
256,192,57212,1,8,0:0:0:0:
256,192,57303,1,8,0:0:0:0:
256,192,57578,1,0,0:0:0:0:
256,192,57669,1,0,0:0:0:0:
256,192,57944,1,8,0:0:0:0:
256,192,58035,1,8,0:0:0:0:
256,192,58310,1,0,0:0:0:0:
256,192,58675,1,12,0:0:0:0:
256,192,64529,5,12,0:0:0:0:
256,192,64895,1,8,0:0:0:0:
256,192,65261,1,0,0:0:0:0:
256,192,65444,1,0,0:0:0:0:
256,192,65627,1,0,0:0:0:0:
256,192,65992,1,8,0:0:0:0:
256,192,66358,1,0,0:0:0:0:
256,192,66724,1,8,0:0:0:0:
256,192,67090,1,0,0:0:0:0:
256,192,67456,1,12,0:0:0:0:
256,192,68188,1,0,0:0:0:0:
256,192,68553,1,0,0:0:0:0:
256,192,68919,1,0,0:0:0:0:
256,192,69468,1,0,0:0:0:0:
256,192,69560,1,0,0:0:0:0:
256,192,69651,1,0,0:0:0:0:
256,192,69834,1,8,0:0:0:0:
256,192,70017,1,0,0:0:0:0:
256,192,70383,1,12,0:0:0:0:
256,192,70749,1,8,0:0:0:0:
256,192,71114,1,0,0:0:0:0:
256,192,71297,1,0,0:0:0:0:
256,192,71480,1,0,0:0:0:0:
256,192,71846,1,8,0:0:0:0:
256,192,72212,1,0,0:0:0:0:
256,192,72578,1,8,0:0:0:0:
256,192,72761,1,0,0:0:0:0:
256,192,72944,1,8,0:0:0:0:
256,192,73127,1,0,0:0:0:0:
256,192,73310,1,12,0:0:0:0:
256,192,73675,1,8,0:0:0:0:
256,192,74041,1,0,0:0:0:0:
256,192,74224,1,0,0:0:0:0:
256,192,74407,1,0,0:0:0:0:
256,192,74773,1,8,0:0:0:0:
256,192,75139,1,0,0:0:0:0:
256,192,75505,1,8,0:0:0:0:
256,192,75688,1,0,0:0:0:0:
256,192,75871,1,8,0:0:0:0:
256,192,76053,1,0,0:0:0:0:
256,192,76236,1,8,0:0:0:0:
256,192,76602,1,0,0:0:0:0:
256,192,76968,1,8,0:0:0:0:
256,192,77334,1,0,0:0:0:0:
256,192,77700,1,8,0:0:0:0:
256,192,78066,1,0,0:0:0:0:
256,192,78157,1,0,0:0:0:0:
256,192,78249,1,0,0:0:0:0:
256,192,78431,1,8,0:0:0:0:
256,192,78797,1,0,0:0:0:0:
256,192,79163,1,12,0:0:0:0:
256,192,79529,1,0,0:0:0:0:
256,192,79895,1,8,0:0:0:0:
256,192,80078,1,0,0:0:0:0:
256,192,80261,1,0,0:0:0:0:
256,192,80627,1,8,0:0:0:0:
256,192,80718,1,8,0:0:0:0:
256,192,80992,1,0,0:0:0:0:
256,192,81084,1,0,0:0:0:0:
256,192,81358,1,0,0:0:0:0:
256,192,81450,1,0,0:0:0:0:
256,192,81724,1,0,0:0:0:0:
256,192,81816,1,0,0:0:0:0:
256,192,82090,1,12,0:0:0:0:
256,192,82456,1,0,0:0:0:0:
256,192,82822,1,8,0:0:0:0:
256,192,83005,1,0,0:0:0:0:
256,192,83188,1,0,0:0:0:0:
256,192,83553,1,8,0:0:0:0:
256,192,83919,1,0,0:0:0:0:
256,192,84285,1,8,0:0:0:0:
256,192,84468,1,0,0:0:0:0:
256,192,84651,1,0,0:0:0:0:
256,192,84834,1,0,0:0:0:0:
256,192,85017,1,8,0:0:0:0:
256,192,85108,1,8,0:0:0:0:
256,192,85383,1,0,0:0:0:0:
256,192,85474,1,0,0:0:0:0:
256,192,85749,1,0,0:0:0:0:
256,192,85840,1,0,0:0:0:0:
256,192,86114,1,0,0:0:0:0:
256,192,86206,1,0,0:0:0:0:
256,192,86480,1,8,0:0:0:0:
256,192,86572,1,8,0:0:0:0:
256,192,86846,1,0,0:0:0:0:
256,192,86938,1,0,0:0:0:0:
256,192,87212,1,0,0:0:0:0:
256,192,87303,1,0,0:0:0:0:
256,192,87578,1,0,0:0:0:0:
256,192,87669,1,0,0:0:0:0:
256,192,87944,1,12,0:0:0:0:
256,192,88310,1,0,0:0:0:0:
256,192,88675,1,8,0:0:0:0:
256,192,88858,1,0,0:0:0:0:
256,192,89041,1,0,0:0:0:0:
256,192,89224,1,0,0:0:0:0:
256,192,89407,1,8,0:0:0:0:
256,192,89773,1,8,0:0:0:0:
256,192,89956,1,0,0:0:0:0:
256,192,90047,1,0,0:0:0:0:
256,192,90139,1,0,0:0:0:0:
256,192,90322,1,0,0:0:0:0:
256,192,90413,1,0,0:0:0:0:
256,192,90505,1,0,0:0:0:0:
256,192,90688,1,0,0:0:0:0:
256,192,90871,1,12,0:0:0:0:
256,192,91236,1,0,0:0:0:0:
256,192,91602,1,0,0:0:0:0:
256,192,91785,1,0,0:0:0:0:
256,192,91968,1,0,0:0:0:0:
256,192,92334,1,8,0:0:0:0:
256,192,92425,1,8,0:0:0:0:
256,192,92700,1,0,0:0:0:0:
256,192,92791,1,0,0:0:0:0:
256,192,93066,1,8,0:0:0:0:
256,192,93157,1,8,0:0:0:0:
256,192,93431,1,0,0:0:0:0:
256,192,93797,1,12,0:0:0:0:
256,192,94163,1,0,0:0:0:0:
256,192,94529,1,0,0:0:0:0:
256,192,94712,1,0,0:0:0:0:
256,192,94895,1,0,0:0:0:0:
256,192,95261,1,8,0:0:0:0:
256,192,95352,1,8,0:0:0:0:
256,192,95627,1,0,0:0:0:0:
256,192,95718,1,0,0:0:0:0:
256,192,95992,1,8,0:0:0:0:
256,192,96084,1,8,0:0:0:0:
256,192,96358,1,0,0:0:0:0:
256,192,96724,1,12,0:0:0:0:
256,192,97090,1,0,0:0:0:0:
256,192,97456,1,0,0:0:0:0:
256,192,97639,1,0,0:0:0:0:
256,192,97822,1,0,0:0:0:0:
256,192,98188,1,8,0:0:0:0:
256,192,98279,1,8,0:0:0:0:
256,192,98553,1,0,0:0:0:0:
256,192,98645,1,0,0:0:0:0:
256,192,98919,1,8,0:0:0:0:
256,192,99011,1,8,0:0:0:0:
256,192,99285,1,0,0:0:0:0:
256,192,99651,1,12,0:0:0:0:
256,192,100017,1,0,0:0:0:0:
256,192,100383,1,0,0:0:0:0:
256,192,100566,1,0,0:0:0:0:
256,192,100749,1,0,0:0:0:0:
256,192,101114,1,8,0:0:0:0:
256,192,101206,1,8,0:0:0:0:
256,192,101480,1,0,0:0:0:0:
256,192,101572,1,0,0:0:0:0:
256,192,101846,1,8,0:0:0:0:
256,192,101938,1,8,0:0:0:0:
256,192,102212,1,0,0:0:0:0:
368,168,102578,1,12,0:0:0:0:
256,192,102944,1,0,0:0:0:0:
256,192,103127,1,0,0:0:0:0:
256,192,103310,1,8,0:0:0:0:
256,192,103492,1,0,0:0:0:0:
256,192,103675,1,0,0:0:0:0:
256,192,104041,1,0,0:0:0:0:
256,192,104133,1,0,0:0:0:0:
256,192,104224,1,0,0:0:0:0:
256,192,104407,1,0,0:0:0:0:
256,192,104499,1,0,0:0:0:0:
256,192,104590,1,0,0:0:0:0:
256,192,104773,1,0,0:0:0:0:
256,192,104864,1,0,0:0:0:0:
256,192,104956,1,0,0:0:0:0:
256,192,105139,1,8,0:0:0:0:
256,192,105505,1,12,0:0:0:0:
256,192,105871,1,0,0:0:0:0:
256,192,106053,1,0,0:0:0:0:
256,192,106236,1,8,0:0:0:0:
256,192,106419,1,0,0:0:0:0:
256,192,106602,1,0,0:0:0:0:
256,192,106968,1,0,0:0:0:0:
256,192,107060,1,0,0:0:0:0:
256,192,107151,1,0,0:0:0:0:
256,192,107334,1,0,0:0:0:0:
256,192,107425,1,0,0:0:0:0:
256,192,107517,1,0,0:0:0:0:
256,192,107700,1,0,0:0:0:0:
256,192,107791,1,0,0:0:0:0:
256,192,107883,1,0,0:0:0:0:
256,192,108066,1,8,0:0:0:0:
256,192,108431,1,12,0:0:0:0:
256,192,108797,1,0,0:0:0:0:
256,192,108980,1,0,0:0:0:0:
256,192,109163,1,8,0:0:0:0:
256,192,109346,1,0,0:0:0:0:
256,192,109529,1,0,0:0:0:0:
256,192,109895,1,0,0:0:0:0:
256,192,109986,1,0,0:0:0:0:
256,192,110078,1,0,0:0:0:0:
256,192,110261,1,0,0:0:0:0:
256,192,110352,1,0,0:0:0:0:
256,192,110444,1,0,0:0:0:0:
256,192,110627,1,0,0:0:0:0:
256,192,110718,1,0,0:0:0:0:
256,192,110810,1,0,0:0:0:0:
256,192,110992,1,8,0:0:0:0:
256,192,111358,1,12,0:0:0:0:
256,192,111724,1,0,0:0:0:0:
256,192,111907,1,0,0:0:0:0:
256,192,112090,1,8,0:0:0:0:
256,192,112273,1,0,0:0:0:0:
256,192,112456,1,0,0:0:0:0:
256,192,112822,1,0,0:0:0:0:
256,192,112913,1,0,0:0:0:0:
256,192,113005,1,0,0:0:0:0:
256,192,113188,1,8,0:0:0:0:
256,192,113553,1,0,0:0:0:0:
256,192,113919,1,0,0:0:0:0:
256,192,114285,1,4,0:0:0:0:
256,192,114377,1,0,0:0:0:0:
256,192,114468,1,0,0:0:0:0:
256,192,115017,1,8,0:0:0:0:
256,192,115383,1,0,0:0:0:0:
256,192,115749,1,0,0:0:0:0:
256,192,115840,1,0,0:0:0:0:
256,192,115931,1,0,0:0:0:0:
256,192,116480,1,8,0:0:0:0:
256,192,116846,1,0,0:0:0:0:
256,192,117212,1,0,0:0:0:0:
256,192,117303,1,0,0:0:0:0:
256,192,117394,1,0,0:0:0:0:
256,192,117944,1,8,0:0:0:0:
256,192,118310,1,0,0:0:0:0:
256,192,118676,1,0,0:0:0:0:
256,192,118767,1,0,0:0:0:0:
256,192,118858,1,0,0:0:0:0:
256,192,119041,1,0,0:0:0:0:
256,192,119133,1,0,0:0:0:0:
256,192,119224,1,0,0:0:0:0:
256,192,119407,1,0,0:0:0:0:
256,192,119499,1,0,0:0:0:0:
256,192,119590,1,0,0:0:0:0:
256,192,119773,1,0,0:0:0:0:
256,192,119864,1,0,0:0:0:0:
256,192,119956,1,0,0:0:0:0:
256,192,120139,1,12,0:0:0:0:
256,192,125992,5,12,0:0:0:0:
256,192,126358,1,8,0:0:0:0:
256,192,126724,1,0,0:0:0:0:
256,192,126816,1,0,0:0:0:0:
256,192,126907,1,0,0:0:0:0:
256,192,127090,1,0,0:0:0:0:
256,192,127181,1,0,0:0:0:0:
256,192,127273,1,0,0:0:0:0:
256,192,127456,1,0,0:0:0:0:
256,192,127547,1,0,0:0:0:0:
256,192,127639,1,0,0:0:0:0:
256,192,128188,1,0,0:0:0:0:
256,192,128553,1,0,0:0:0:0:
256,192,128919,1,12,0:0:0:0:
256,192,129285,1,8,0:0:0:0:
256,192,129651,1,0,0:0:0:0:
256,192,130017,1,0,0:0:0:0:
256,192,130383,1,8,0:0:0:0:
256,192,130749,1,0,0:0:0:0:
256,192,131114,1,0,0:0:0:0:
256,192,131480,1,0,0:0:0:0:
256,192,131846,1,12,0:0:0:0:
256,192,132212,1,8,0:0:0:0:
256,192,132578,1,0,0:0:0:0:
256,192,132944,1,0,0:0:0:0:
256,192,133310,1,0,0:0:0:0:
256,192,133401,1,0,0:0:0:0:
256,192,133492,1,0,0:0:0:0:
256,192,134041,1,0,0:0:0:0:
256,192,134407,1,0,0:0:0:0:
256,192,134773,1,4,0:0:0:0:
256,192,134864,1,0,0:0:0:0:
256,192,134956,1,0,0:0:0:0:
256,192,135047,1,0,0:0:0:0:
256,192,135139,1,0,0:0:0:0:
256,192,135505,1,0,0:0:0:0:
256,192,135596,1,0,0:0:0:0:
256,192,135688,1,0,0:0:0:0:
256,192,135779,1,0,0:0:0:0:
256,192,135871,1,0,0:0:0:0:
256,192,136236,1,0,0:0:0:0:
256,192,136328,1,0,0:0:0:0:
256,192,136419,1,0,0:0:0:0:
256,192,136511,1,0,0:0:0:0:
256,192,136602,1,0,0:0:0:0:
256,192,136968,1,0,0:0:0:0:
256,192,137060,1,0,0:0:0:0:
256,192,137151,1,0,0:0:0:0:
256,192,137242,1,0,0:0:0:0:
256,192,137334,1,0,0:0:0:0:
256,192,137700,1,12,0:0:0:0:
256,192,138066,1,0,0:0:0:0:
256,192,138431,1,0,0:0:0:0:
256,192,138614,1,0,0:0:0:0:
256,192,138797,1,0,0:0:0:0:
256,192,139163,1,0,0:0:0:0:
256,192,139255,1,0,0:0:0:0:
256,192,139529,1,0,0:0:0:0:
256,192,139621,1,0,0:0:0:0:
256,192,139895,1,0,0:0:0:0:
256,192,139986,1,0,0:0:0:0:
256,192,140261,1,8,0:0:0:0:
256,192,140627,1,12,0:0:0:0:
256,192,140992,1,0,0:0:0:0:
256,192,141358,1,0,0:0:0:0:
256,192,141541,1,0,0:0:0:0:
256,192,141724,1,0,0:0:0:0:
256,192,142090,1,0,0:0:0:0:
256,192,142181,1,0,0:0:0:0:
256,192,142456,1,0,0:0:0:0:
256,192,142547,1,0,0:0:0:0:
256,192,142822,1,0,0:0:0:0:
256,192,142913,1,0,0:0:0:0:
256,192,143188,1,8,0:0:0:0:
256,192,143553,1,12,0:0:0:0:
256,192,143919,1,0,0:0:0:0:
256,192,144285,1,0,0:0:0:0:
256,192,144468,1,0,0:0:0:0:
256,192,144651,1,0,0:0:0:0:
256,192,145017,1,0,0:0:0:0:
256,192,145108,1,0,0:0:0:0:
256,192,145383,1,0,0:0:0:0:
256,192,145474,1,0,0:0:0:0:
256,192,145749,1,0,0:0:0:0:
256,192,145840,1,0,0:0:0:0:
256,192,146114,1,8,0:0:0:0:
256,192,146480,1,12,0:0:0:0:
256,192,146846,1,0,0:0:0:0:
256,192,147212,1,0,0:0:0:0:
256,192,147395,1,0,0:0:0:0:
256,192,147578,1,0,0:0:0:0:
256,192,147944,1,0,0:0:0:0:
256,192,148035,1,0,0:0:0:0:
256,192,148310,1,0,0:0:0:0:
256,192,148401,1,0,0:0:0:0:
256,192,148675,1,0,0:0:0:0:
256,192,148767,1,0,0:0:0:0:
256,192,149041,1,8,0:0:0:0:
256,192,149407,1,12,0:0:0:0:
256,192,149773,1,0,0:0:0:0:
256,192,149956,1,0,0:0:0:0:
256,192,150139,1,8,0:0:0:0:
256,192,150322,1,0,0:0:0:0:
256,192,150505,1,0,0:0:0:0:
256,192,150871,1,0,0:0:0:0:
256,192,150962,1,0,0:0:0:0:
256,192,151053,1,0,0:0:0:0:
256,192,151236,1,0,0:0:0:0:
256,192,151328,1,0,0:0:0:0:
256,192,151419,1,0,0:0:0:0:
256,192,151602,1,0,0:0:0:0:
256,192,151694,1,0,0:0:0:0:
256,192,151785,1,0,0:0:0:0:
256,192,151968,1,8,0:0:0:0:
256,192,152334,1,12,0:0:0:0:
256,192,152700,1,0,0:0:0:0:
256,192,152883,1,0,0:0:0:0:
256,192,153066,1,8,0:0:0:0:
256,192,153249,1,0,0:0:0:0:
256,192,153431,1,0,0:0:0:0:
256,192,153797,1,0,0:0:0:0:
256,192,153889,1,0,0:0:0:0:
256,192,153980,1,0,0:0:0:0:
256,192,154163,1,0,0:0:0:0:
256,192,154255,1,0,0:0:0:0:
256,192,154346,1,0,0:0:0:0:
256,192,154529,1,0,0:0:0:0:
256,192,154621,1,0,0:0:0:0:
256,192,154712,1,0,0:0:0:0:
256,192,154895,1,8,0:0:0:0:
256,192,155261,1,12,0:0:0:0:
256,192,155627,1,0,0:0:0:0:
256,192,155810,1,0,0:0:0:0:
256,192,155992,1,8,0:0:0:0:
256,192,156175,1,0,0:0:0:0:
256,192,156358,1,0,0:0:0:0:
256,192,156724,1,0,0:0:0:0:
256,192,156816,1,0,0:0:0:0:
256,192,156907,1,0,0:0:0:0:
256,192,157090,1,0,0:0:0:0:
256,192,157181,1,0,0:0:0:0:
256,192,157273,1,0,0:0:0:0:
256,192,157456,1,0,0:0:0:0:
256,192,157547,1,0,0:0:0:0:
256,192,157639,1,0,0:0:0:0:
256,192,157822,1,8,0:0:0:0:
256,192,158188,1,12,0:0:0:0:
256,192,158553,1,0,0:0:0:0:
256,192,158736,1,0,0:0:0:0:
256,192,158919,1,8,0:0:0:0:
256,192,159102,1,0,0:0:0:0:
256,192,159285,1,0,0:0:0:0:
256,192,159651,1,0,0:0:0:0:
256,192,159742,1,0,0:0:0:0:
256,192,159834,1,0,0:0:0:0:
256,192,160017,1,8,0:0:0:0:
256,192,160383,1,0,0:0:0:0:
256,192,160749,1,0,0:0:0:0:
256,192,161114,1,12,0:0:0:0:
256,192,161480,1,0,0:0:0:0:
256,192,161663,1,0,0:0:0:0:
256,192,161846,1,8,0:0:0:0:
256,192,162029,1,0,0:0:0:0:
256,192,162212,1,0,0:0:0:0:
256,192,162578,1,0,0:0:0:0:
256,192,162669,1,0,0:0:0:0:
256,192,162761,1,0,0:0:0:0:
256,192,162944,1,0,0:0:0:0:
256,192,163035,1,0,0:0:0:0:
256,192,163127,1,0,0:0:0:0:
256,192,163310,1,0,0:0:0:0:
256,192,163401,1,0,0:0:0:0:
256,192,163492,1,0,0:0:0:0:
256,192,163675,1,8,0:0:0:0:
256,192,164041,1,12,0:0:0:0:
256,192,164407,1,0,0:0:0:0:
256,192,164590,1,0,0:0:0:0:
256,192,164773,1,8,0:0:0:0:
256,192,164956,1,0,0:0:0:0:
256,192,165139,1,0,0:0:0:0:
256,192,165505,1,0,0:0:0:0:
256,192,165596,1,0,0:0:0:0:
256,192,165688,1,0,0:0:0:0:
256,192,165871,1,0,0:0:0:0:
256,192,165962,1,0,0:0:0:0:
256,192,166053,1,0,0:0:0:0:
256,192,166236,1,0,0:0:0:0:
256,192,166328,1,0,0:0:0:0:
256,192,166419,1,0,0:0:0:0:
256,192,166602,1,8,0:0:0:0:
256,192,166968,1,12,0:0:0:0:
256,192,167334,1,0,0:0:0:0:
256,192,167517,1,0,0:0:0:0:
256,192,167700,1,8,0:0:0:0:
256,192,167883,1,0,0:0:0:0:
256,192,168066,1,0,0:0:0:0:
256,192,168431,1,0,0:0:0:0:
256,192,168523,1,0,0:0:0:0:
256,192,168614,1,0,0:0:0:0:
256,192,168797,1,0,0:0:0:0:
256,192,168889,1,0,0:0:0:0:
256,192,168980,1,0,0:0:0:0:
256,192,169163,1,0,0:0:0:0:
256,192,169255,1,0,0:0:0:0:
256,192,169346,1,0,0:0:0:0:
256,192,169529,1,8,0:0:0:0:
256,192,169895,1,12,0:0:0:0:
256,192,170261,1,0,0:0:0:0:
256,192,170444,1,0,0:0:0:0:
256,192,170627,1,8,0:0:0:0:
256,192,170810,1,0,0:0:0:0:
256,192,170992,1,0,0:0:0:0:
256,192,171358,1,0,0:0:0:0:
256,192,171450,1,0,0:0:0:0:
256,192,171541,1,0,0:0:0:0:
256,192,171724,1,0,0:0:0:0:
256,192,171816,1,0,0:0:0:0:
256,192,171907,1,0,0:0:0:0:
256,192,172090,1,0,0:0:0:0:
256,192,172181,1,0,0:0:0:0:
256,192,172273,1,0,0:0:0:0:
256,192,172456,1,8,0:0:0:0:
256,192,172822,1,0,0:0:0:0:
256,192,172913,1,0,0:0:0:0:
256,192,173005,1,0,0:0:0:0:
256,192,173188,1,8,0:0:0:0:
256,192,173553,1,0,0:0:0:0:
256,192,173645,1,0,0:0:0:0:
256,192,173736,1,0,0:0:0:0:
256,192,173919,1,8,0:0:0:0:
256,192,174285,1,0,0:0:0:0:
256,192,174376,1,0,0:0:0:0:
256,192,174468,1,0,0:0:0:0:
256,192,174651,1,8,0:0:0:0:
256,192,175016,1,0,0:0:0:0:
256,192,175108,1,0,0:0:0:0:
256,192,175199,1,0,0:0:0:0:
256,192,175382,1,8,0:0:0:0:
256,192,175749,1,4,0:0:0:0:
256,192,175840,1,0,0:0:0:0:
256,192,175932,1,0,0:0:0:0:
256,192,176115,1,8,0:0:0:0:
256,192,176480,1,0,0:0:0:0:
256,192,176572,1,0,0:0:0:0:
256,192,176663,1,0,0:0:0:0:
256,192,176846,1,8,0:0:0:0:
256,192,177212,1,0,0:0:0:0:
256,192,177303,1,0,0:0:0:0:
256,192,177395,1,0,0:0:0:0:
256,192,177578,1,8,0:0:0:0:
256,192,177943,1,0,0:0:0:0:
256,192,178035,1,0,0:0:0:0:
256,192,178126,1,0,0:0:0:0:
256,192,178310,1,8,0:0:0:0:
256,192,178675,1,12,0:0:0:0:
