osu file format v13

[General]
AudioFilename: A Pink Mr. Chu.mp3
AudioLeadIn: 0
PreviewTime: 50861
Countdown: 1
SampleSet: None
StackLeniency: 0.7
Mode: 0
LetterboxInBreaks: 1
WidescreenStoryboard: 0

[Editor]
DistanceSpacing: 1.4
BeatDivisor: 4
GridSize: 4
TimelineZoom: 1

[Metadata]
Title:Mr. Chu
TitleUnicode:Mr. Chu
Artist:A Pink
ArtistUnicode:에이핑크
Creator:K1dPoker
Version:Hard
Source:Pink Blossom
Tags:kpop apink Chorong Bomi Eunji Naeun Namjoo Hayoung
BeatmapID:407763
BeatmapSetID:167935

[Difficulty]
HPDrainRate:6
CircleSize:4
OverallDifficulty:7
ApproachRate:7
SliderMultiplier:2
SliderTickRate:1

[Events]
//Background and Video events
0,0,"bg.jpg",0,0
Video,0,"video.avi"
//Break Periods
2,82061,86461
2,137686,144461
//Storyboard Layer 0 (Background)
//Storyboard Layer 1 (Fail)
//Storyboard Layer 2 (Pass)
//Storyboard Layer 3 (Foreground)
//Storyboard Sound Samples

[TimingPoints]
17361,500,4,1,0,30,1,0
17361,-133.333333333333,4,2,0,30,0,0
33361,-100,4,1,0,50,0,0
51361,-100,4,1,0,70,0,1
81861,-100,4,1,0,50,0,0
87361,-133.333333333333,4,2,0,30,0,0
95361,-100,4,1,0,50,0,0
105361,-100,4,1,0,70,0,1
135861,-100,4,1,0,50,0,0
137361,-100,4,1,0,20,0,0
145361,-100,4,1,0,50,0,0
157361,-100,4,1,0,80,0,1
187861,-100,4,1,0,50,0,0

[Colours]
Combo1 : 128,0,255
Combo2 : 255,255,0
Combo3 : 255,0,128
Combo4 : 255,255,255
Combo5 : 255,128,192
Combo6 : 255,0,0

[HitObjects]
132,272,17361,5,0,0:0:0:0:
204,348,17611,1,0,0:0:0:0:
308,348,17861,1,0,0:0:0:0:
380,272,18111,1,0,0:0:0:0:
292,216,18361,2,0,L|212:216,2,75.0000028610231,0|0|0,0:0|0:0|0:0,0:0:0:0:
256,116,19111,5,0,0:0:0:0:
300,20,19361,2,0,P|332:36|352:72,1,75.0000028610231
256,116,19861,1,0,0:0:0:0:
256,220,20111,2,0,P|184:200|152:136,1,150.000005722046
256,116,20861,1,0,0:0:0:0:
464,104,21361,2,0,L|408:160,1,75.0000028610231,0|0,0:0|0:0,0:0:0:0:
320,204,21861,1,0,0:0:0:0:
320,308,22111,1,0,0:0:0:0:
424,308,22361,2,0,P|464:284|480:236,2,75.0000028610231
320,308,23111,5,0,0:0:0:0:
220,344,23361,2,0,P|208:308|220:272,1,75.0000028610231,0|0,0:0|0:0,0:0:0:0:
296,204,23861,1,0,0:0:0:0:
208,144,24111,2,0,P|176:124|160:88,2,75.0000028610231
296,204,24861,5,0,0:0:0:0:
220,276,25111,1,0,0:0:0:0:
116,260,25361,2,0,P|124:224|152:196,1,75.0000028610231
220,276,25861,1,0,0:0:0:0:
324,292,26111,2,0,P|316:328|288:356,1,75.0000028610231
220,276,26611,2,0,P|228:240|256:212,1,75.0000028610231
356,192,27111,5,0,0:0:0:0:
456,228,27361,2,0,P|468:192|456:156,1,75.0000028610231,0|0,0:0|0:0,0:0:0:0:
376,88,27861,1,0,0:0:0:0:
356,192,28111,2,0,B|288:192|288:132|224:132,1,150.000005722046
208,236,28861,5,0,0:0:0:0:
116,284,29111,1,0,0:0:0:0:
28,224,29361,2,0,L|64:156,1,75.0000028610231
52,52,29861,2,0,L|120:88,1,75.0000028610231
204,152,30361,5,0,0:0:0:0:
204,152,30611,1,0,0:0:0:0:
308,152,30861,1,0,0:0:0:0:
308,152,31111,1,0,0:0:0:0:
292,256,31361,2,0,P|256:268|220:256,3,75.0000028610231,0|0|0|0,0:0|0:0|0:0|0:0,0:0:0:0:
256,156,32361,1,0,0:0:0:0:
208,64,33361,5,0,0:0:0:0:
288,128,33611,1,0,0:0:0:0:
240,216,33861,1,0,0:0:0:0:
160,152,34111,2,0,P|112:138|64:152,1,100
64,248,34611,2,0,P|112:262|160:248,1,100
256,296,35111,5,0,0:0:0:0:
256,296,35361,2,0,P|270:248|256:200,1,100
280,104,35861,1,0,0:0:0:0:
360,48,36111,2,0,L|464:48,1,100
460,48,36611,1,0,0:0:0:0:
460,48,36861,1,0,0:0:0:0:
464,248,37361,6,0,P|448:296|400:320,1,100
368,224,37861,1,0,0:0:0:0:
368,224,37986,1,0,0:0:0:0:
368,224,38111,1,0,0:0:0:0:
344,128,38361,2,0,P|296:144|272:192,2,100
440,120,39111,6,0,P|424:72|384:40,1,100
344,128,39611,1,0,0:0:0:0:
288,48,39861,1,0,0:0:0:0:
288,48,40111,2,0,P|205:96|120:40,1,200
123,47,40861,1,0,0:0:0:0:
160,248,41361,2,0,P|176:296|216:328,2,100,0|0|0,0:0|0:0|0:0,0:0:0:0:
176,152,42111,2,0,P|128:152|88:184,2,100,0|0|0,0:0|0:0|0:0,0:0:0:0:
352,248,43111,5,0,0:0:0:0:
352,248,43361,2,0,P|336:296|296:328,1,100
200,320,43861,1,0,0:0:0:0:
192,224,44111,2,0,P|144:240|112:280,2,100
200,320,44861,1,0,0:0:0:0:
272,136,45361,6,0,P|272:88|240:48,1,100
192,224,45861,2,0,P|232:256|280:256,1,100
352,192,46361,1,0,0:0:0:0:
360,96,46611,1,0,0:0:0:0:
448,40,46861,1,0,0:0:0:0:
360,96,47111,6,0,L|260:96,1,100
160,120,47611,1,0,0:0:0:0:
160,220,47861,2,0,P|104:300|8:316,2,200
244,36,49361,2,0,L|280:72,3,50,0|0|0|0,0:0|0:0|0:0|0:0,0:0:0:0:
320,104,49861,2,0,L|320:160,3,50,0|0|0|0,0:0|0:0|0:0|0:0,0:0:0:0:
320,184,50361,1,0,0:0:0:0:
324,212,50486,1,0,0:0:0:0:
344,232,50611,1,0,0:0:0:0:
372,244,50736,1,0,0:0:0:0:
396,248,50861,2,0,P|428:288|428:336,1,100
328,328,51361,2,0,P|232:328|160:256,1,200,0|0,0:0|0:0,0:0:0:0:
232,192,52111,6,0,P|192:160|144:160,1,100
80,232,52611,2,0,P|48:192|48:144,1,100
112,64,53111,1,0,0:0:0:0:
144,160,53361,2,0,P|240:160|312:88,1,200
408,96,54111,6,0,P|400:48|368:8,1,100
310,90,54611,1,0,0:0:0:0:
352,184,54861,1,0,0:0:0:0:
448,184,55111,1,0,0:0:0:0:
352,184,55361,2,0,P|264:232|224:320,1,200
312,360,56111,5,0,0:0:0:0:
224,320,56361,2,0,P|176:320|128:344,1,100
32,312,56861,1,0,0:0:0:0:
32,216,57111,1,0,0:0:0:0:
88,136,57361,6,0,P|136:112|184:112,1,100
280,224,57861,2,0,P|232:240|184:224,1,100
280,112,58361,2,0,P|328:112|376:136,1,100
472,248,58861,2,0,P|424:264|376:248,1,100
280,224,59361,5,0,0:0:0:0:
200,168,59611,1,0,0:0:0:0:
104,200,59861,2,0,L|160:288,1,100
248,336,60361,2,0,B|296:352|296:320|352:336,2,100
157,284,61111,5,0,0:0:0:0:
104,200,61361,2,0,L|200:168,1,100
256,248,61861,1,0,0:0:0:0:
352,248,62111,1,0,0:0:0:0:
360,136,62361,2,0,P|269:104|200:168,1,200
256,248,63111,5,0,0:0:0:0:
304,336,63361,2,0,P|400:336|456:248,1,200
352,248,64111,1,0,0:0:0:0:
256,248,64361,2,0,P|160:248|104:336,1,200
208,336,65111,1,0,0:0:0:0:
256,248,65361,6,0,P|256:200|224:152,1,100
160,88,65861,2,0,P|200:64|256:64,1,100
328,128,66361,2,0,P|352:88|344:32,1,100
248,64,66861,2,0,P|224:104|232:160,1,100
296,232,67361,2,0,B|240:280|168:240|168:240|120:288,1,200
64,208,68111,6,0,L|136:136,1,100
232,160,68611,2,0,L|304:88,1,100
400,112,69111,1,0,0:0:0:0:
464,40,69361,2,0,P|369:20|304:88,1,200
400,112,70111,5,0,0:0:0:0:
328,184,70361,2,0,P|280:184|232:160,1,100
232,64,70861,1,0,0:0:0:0:
136,24,71111,1,0,0:0:0:0:
72,104,71361,2,0,P|164:132|232:64,1,200
136,24,72111,5,0,0:0:0:0:
160,120,72361,2,0,L|184:232,2,100
80,184,73111,1,0,0:0:0:0:
80,280,73361,6,0,P|112:320|160:336,1,100
264,232,73861,2,0,P|216:224|160:232,1,100
264,120,74361,2,0,P|312:128|368:120,1,100
464,232,74861,2,0,P|416:224|360:232,1,100
264,232,75361,6,0,P|272:192|320:144,1,100
408,152,75861,1,0,0:0:0:0:
336,80,76111,1,0,0:0:0:0:
432,80,76361,2,0,P|480:64|512:24,2,100
336,80,77111,5,0,0:0:0:0:
264,16,77361,2,0,P|240:64|248:120,1,100
312,176,77861,1,0,0:0:0:0:
384,240,78111,1,0,0:0:0:0:
352,336,78361,2,0,B|240:376|272:288|152:336,1,200
56,336,79111,5,0,0:0:0:0:
56,240,79361,2,0,L|152:200,1,100
208,120,79861,2,0,P|194:72|208:24,1,100
304,24,80361,2,0,P|318:72|304:120,1,100
304,216,80861,5,0,0:0:0:0:
304,216,81111,2,0,P|256:230|208:216,1,100
256,128,81611,1,0,0:0:0:0:
256,128,81861,1,0,0:0:0:0:
336,184,87361,5,0,0:0:0:0:
248,128,87611,1,0,0:0:0:0:
180,208,87861,1,0,0:0:0:0:
268,264,88111,2,0,L|324:320,2,75.0000028610231
76,208,89111,5,0,0:0:0:0:
80,104,89361,2,0,L|144:60,1,75.0000028610231
220,132,89861,1,0,0:0:0:0:
248,32,90111,2,0,P|312:68|324:140,1,150.000005722046
324,138,90861,1,0,0:0:0:0:
160,268,91361,6,0,P|184:292|224:296,1,75.0000028610231
324,264,91861,1,0,0:0:0:0:
248,192,92111,1,0,0:0:0:0:
156,144,92361,2,0,P|208:92|280:92,1,150.000005722046
352,172,93111,5,0,0:0:0:0:
428,248,93361,2,0,P|460:268|496:268,2,75.0000028610231
328,280,94111,2,0,P|328:208|380:156,1,150.000005722046
380,155,94861,1,0,0:0:0:0:
176,160,95361,6,0,P|136:136|112:88,2,100,0|0|0,0:0|0:0|0:0,0:0:0:0:
200,256,96111,2,0,P|246:232|270:192,2,100,0|0|0,0:0|0:0|0:0,0:0:0:0:
320,96,97111,5,0,0:0:0:0:
320,96,97361,2,0,P|360:120|384:168,1,100
352,264,97861,1,0,0:0:0:0:
304,352,98111,2,0,P|240:288|280:200,1,200
280,199,98861,1,0,0:0:0:0:
432,328,99361,6,0,L|352:264,1,100
216,328,99861,2,0,L|136:264,1,100
56,200,100361,2,0,P|96:168|152:168,2,100
136,264,101111,6,0,P|184:264|224:232,1,100
224,136,101611,1,0,0:0:0:0:
248,40,101861,2,0,P|320:104|304:200,2,200
156,216,103361,2,0,L|203:230,3,50,0|0|0|0,0:0|0:0|0:0|0:0,0:0:0:0:
232,272,103861,2,0,L|284:272,3,50,0|0|0|0,0:0|0:0|0:0|0:0,0:0:0:0:
328,292,104361,1,0,0:0:0:0:
376,272,104486,1,0,0:0:0:0:
420,292,104611,1,0,0:0:0:0:
468,272,104736,1,0,0:0:0:0:
480,224,104861,2,0,L|432:136,1,100
488,56,105361,2,0,P|392:48|336:128,1,200
280,208,106111,6,0,L|232:120,1,100
184,32,106611,2,0,L|288:32,1,100
232,120,107111,1,0,0:0:0:0:
136,120,107361,2,0,P|192:208|280:208,1,200
328,120,108111,6,0,P|368:152|376:200,1,100
336,288,108611,1,0,0:0:0:0:
400,360,108861,1,0,0:0:0:0:
440,264,109111,1,0,0:0:0:0:
336,288,109361,2,0,B|248:280|248:376|160:368,1,200
64,360,110111,5,0,0:0:0:0:
40,264,110361,2,0,L|88:176,2,100
136,288,111111,1,0,0:0:0:0:
208,216,111361,6,0,B|256:232|256:200|312:216,1,100
456,216,111861,2,0,L|384:144,1,100
288,32,112361,2,0,L|392:32,1,100
272,120,112861,2,0,L|168:120,1,100
80,160,113361,5,0,0:0:0:0:
16,88,113611,1,0,0:0:0:0:
116,76,113861,2,0,P|114:125|80:160,1,100
16,88,114361,2,0,L|112:120,2,100
96,24,115111,5,0,0:0:0:0:
112,120,115361,2,0,B|160:136|160:104|216:120,1,100
312,120,115861,1,0,0:0:0:0:
312,120,116111,1,0,0:0:0:0:
360,208,116361,2,0,P|408:128|360:32,1,200
264,32,117111,5,0,0:0:0:0:
312,120,117361,2,0,P|408:120|464:40,1,200
360,32,118111,1,0,0:0:0:0:
264,32,118361,2,0,P|168:32|112:112,1,200
208,120,119111,1,0,0:0:0:0:
264,208,119361,6,0,P|224:240|176:240,1,100
112,168,119861,2,0,P|80:208|80:256,1,100
144,328,120361,2,0,P|176:288|176:240,1,100
200,144,120861,2,0,L|288:88,1,100
360,24,121361,2,0,B|408:80|368:152|368:152|416:200,1,200
464,280,122111,6,0,P|416:296|368:280,1,100
304,208,122611,2,0,P|256:192|208:208,1,100
160,288,123111,1,0,0:0:0:0:
256,304,123361,2,0,B|296:208|216:208|256:104,1,200
184,32,124111,5,0,0:0:0:0:
120,104,124361,1,0,0:0:0:0:
24,72,124611,1,0,0:0:0:0:
120,104,124861,1,0,0:0:0:0:
136,200,125111,1,0,0:0:0:0:
80,280,125361,2,0,P|176:288|232:208,1,200
232,112,126111,5,0,0:0:0:0:
320,64,126361,2,0,L|416:96,1,100
456,192,126861,1,0,0:0:0:0:
456,192,127111,1,0,0:0:0:0:
456,288,127361,6,0,P|408:280|376:240,1,100
408,96,127861,2,0,P|368:64|320:64,1,100
256,200,128361,2,0,P|304:192|336:152,1,100
192,120,128861,2,0,P|160:160|160:208,1,100
208,296,129361,5,0,0:0:0:0:
296,344,129611,1,0,0:0:0:0:
312,256,129861,1,0,0:0:0:0:
400,304,130111,1,0,0:0:0:0:
416,208,130361,2,0,L|504:256,2,100
328,160,131111,5,0,0:0:0:0:
376,72,131361,2,0,P|328:56|280:72,1,100
232,160,131861,1,0,0:0:0:0:
272,248,132111,1,0,0:0:0:0:
232,160,132361,2,0,P|176:240|216:328,1,200
312,336,133111,5,0,0:0:0:0:
272,248,133361,2,0,L|168:248,1,100
72,224,133861,2,0,L|144:152,1,100
240,136,134361,2,0,P|224:88|184:64,1,100
144,152,134861,5,0,0:0:0:0:
144,152,135111,2,0,P|160:200|200:224,1,100
304,216,135611,1,0,0:0:0:0:
304,216,135861,1,0,0:0:0:0:
256,24,136361,5,0,0:0:0:0:
256,120,136861,5,0,0:0:0:0:
256,216,137361,2,0,L|256:272,1,50
176,248,145361,6,0,P|224:232|256:192,1,100
168,152,145861,1,0,0:0:0:0:
168,152,145986,1,0,0:0:0:0:
168,152,146111,1,0,0:0:0:0:
80,208,146361,2,0,P|72:264|88:304,2,100
176,248,147111,5,0,0:0:0:0:
240,328,147361,2,0,P|288:312|320:272,1,100
416,272,147861,1,0,0:0:0:0:
408,232,147986,1,0,0:0:0:0:
384,200,148111,1,0,0:0:0:0:
352,184,148236,1,0,0:0:0:0:
312,176,148361,2,0,P|280:144|264:88,2,100
320,272,149111,5,0,0:0:0:0:
240,328,149361,2,0,P|152:288|128:192,1,200
144,96,150111,5,0,0:0:0:0:
240,64,150361,1,0,0:0:0:0:
224,160,150611,1,0,0:0:0:0:
320,128,150861,2,0,B|336:216|264:248|264:248|320:272,2,200
240,64,152111,1,0,0:0:0:0:
240,64,152361,2,0,P|328:24|408:80,1,200
408,280,153361,6,0,P|352:336|280:336,1,150
264,296,153861,2,0,P|208:224|152:232,1,150
120,256,154361,2,0,P|152:192|112:120,1,150
72,112,154861,2,0,P|120:56|192:64,1,150
256,192,155361,12,0,157361,0:0:0:0:
272,152,157861,5,0,0:0:0:0:
272,152,158111,2,0,P|264:104|232:64,1,100
168,144,158611,2,0,P|176:192|208:232,1,100
304,240,159111,1,0,0:0:0:0:
256,328,159361,2,0,P|352:328|400:240,1,200
360,152,160111,6,0,L|448:104,1,100
392,16,160611,1,0,0:0:0:0:
304,64,160861,1,0,0:0:0:0:
208,64,161111,1,0,0:0:0:0:
168,152,161361,2,0,P|232:216|336:216,1,200
432,176,162111,5,0,0:0:0:0:
352,120,162361,2,0,P|392:88|440:80,2,100
336,216,163111,1,0,0:0:0:0:
256,272,163361,6,0,P|296:304|344:312,1,100
424,184,163861,2,0,P|376:184|336:216,1,100
272,352,164361,2,0,P|224:352|184:320,1,100
80,216,164861,2,0,P|120:184|168:176,1,100
264,184,165361,5,0,0:0:0:0:
336,256,165611,1,0,0:0:0:0:
376,160,165861,2,0,L|304:88,1,100
208,88,166361,2,0,B|160:104|160:72|104:88,2,100
304,88,167111,5,0,0:0:0:0:
376,160,167361,2,0,B|424:176|424:144|480:160,1,100
480,256,167861,1,0,0:0:0:0:
432,344,168111,1,0,0:0:0:0:
384,256,168361,2,0,P|280:256|224:336,1,200
328,344,169111,5,0,0:0:0:0:
328,344,169361,2,0,L|240:152,1,200
200,72,170111,1,0,0:0:0:0:
144,160,170361,2,0,P|248:160|304:80,1,200
200,72,171111,1,0,0:0:0:0:
104,72,171361,6,0,P|64:104|48:152,1,100
64,296,171861,2,0,P|112:280|144:240,1,100
256,136,172361,2,0,L|256:240,1,100
344,360,172861,2,0,P|392:328|408:288,1,100
312,264,173361,2,0,P|376:192|472:216,1,200
408,288,174111,6,0,L|368:192,1,100
272,176,174611,2,0,L|232:80,2,100
312,264,175361,2,0,P|216:288|136:232,1,200
104,136,176111,6,0,L|32:208,2,100
208,136,176861,1,0,0:0:0:0:
280,72,177111,1,0,0:0:0:0:
208,136,177361,2,0,P|296:168|376:104,1,200
280,72,178111,5,0,0:0:0:0:
192,24,178361,2,0,P|144:32|104:64,1,100
64,152,178861,1,0,0:0:0:0:
64,152,179111,1,0,0:0:0:0:
64,248,179361,6,0,P|112:240|144:200,1,100
208,64,179861,2,0,B|256:48|256:80|312:64,1,100
368,200,180361,2,0,P|400:240|448:248,1,100
304,304,180861,2,0,B|256:288|256:320|200:304,1,100
104,304,181361,5,0,0:0:0:0:
40,224,181611,1,0,0:0:0:0:
104,144,181861,1,0,0:0:0:0:
56,56,182111,1,0,0:0:0:0:
152,56,182361,2,0,L|256:56,2,100
56,56,183111,5,0,0:0:0:0:
104,144,183361,2,0,L|176:216,1,100
248,288,183861,1,0,0:0:0:0:
272,192,184111,1,0,0:0:0:0:
176,216,184361,2,0,P|248:288|336:264,1,200
416,200,185111,5,0,0:0:0:0:
464,112,185361,2,0,P|416:96|368:112,1,100
416,200,185861,2,0,P|368:216|320:200,1,100
232,152,186361,2,0,P|216:200|232:248,1,100
320,200,186861,5,0,0:0:0:0:
320,200,187111,2,0,L|216:200,1,100
120,200,187611,1,0,0:0:0:0:
120,200,187861,1,0,0:0:0:0:
232,32,188361,5,0,0:0:0:0:
232,128,188861,5,0,0:0:0:0:
232,224,189361,6,0,L|232:280,1,50
