osu file format v9

[General]
AudioFilename: the outsider[cut].mp3
AudioLeadIn: 0
PreviewTime: 141881
Countdown: 0
SampleSet: Soft
StackLeniency: 0.7
Mode: 0
LetterboxInBreaks: 1

[Editor]
DistanceSpacing: 1
BeatDivisor: 4
GridSize: 8

[Metadata]
Title:The Outsider (Resident Renholder mix)
Artist:A Perfect Circle
Creator:La Cataline
Version:Normal
Source:Resident Evil: Apocalypse
Tags:afterlife prison break

[Difficulty]
HPDrainRate:5
CircleSize:4
OverallDifficulty:5
ApproachRate:6
SliderMultiplier:1.1
SliderTickRate:1

[Events]
//Background and Video events
0,0,"resident-evil-afterlife-024.jpg"
//Break Periods
2,65510,75202
2,104687,111907
2,138569,141554
//Storyboard Layer 0 (Background)
//Storyboard Layer 1 (Fail)
//Storyboard Layer 2 (Pass)
//Storyboard Layer 3 (Foreground)
//Storyboard Sound Samples
//Background Colour Transformations
3,100,0,0,0

[TimingPoints]
31076,352.941176470588,3,1,1,80,1,0
55164,-100,3,2,1,80,0,0
55781,-100,3,1,1,80,0,0
64958,352.941176470588,4,1,1,80,1,0
65310,-125,4,2,1,0,0,0
65487,-125,4,2,1,61,0,0
87546,352.941176470588,3,1,1,80,1,0
87546,-125,3,1,1,80,0,0
87722,-125,3,2,1,80,0,0
100251,-125,3,1,1,80,0,0
100428,-125,3,2,1,80,0,0
101310,-125,3,1,1,80,0,0
101487,-125,3,2,1,80,0,0
102369,-125,3,1,1,80,0,0
102546,-125,3,2,1,80,0,0
103428,-125,3,1,1,80,0,0
103604,-125,3,2,1,80,0,0
104487,-125,3,1,1,80,0,0
112957,-100,3,1,1,80,0,0
121428,-100,3,1,1,80,0,1
121516,-100,3,1,1,80,0,0
138369,-100,3,2,1,0,0,0
141898,-100,3,1,1,80,0,0
144016,352.941176470588,4,1,1,80,1,0
144016,-100,4,1,1,80,0,0
163780,352.941176470588,3,1,1,80,1,0
163780,-100,3,1,1,80,0,0
163868,-100,3,2,1,80,0,0
180721,-100,3,1,1,80,0,1
180809,-100,3,1,1,80,0,0
197662,-100,3,2,1,0,0,0

[Colours]
Combo1 : 103,103,199
Combo2 : 160,198,153
Combo3 : 255,88,100

[HitObjects]
72,184,31075,2,2,B|152:208|256:184,1,165,6|0
288,176,31781,2,2,B|371:156|451:180,1,165,2|0
451,180,32487,1,0
456,72,32840,1,8
336,64,33193,2,2,B|252:83|172:59,1,165,4|0
172,59,33899,1,2
256,128,34252,1,0
256,128,34428,1,0
56,312,35311,6,2,B|128:264|104:160,1,165,2|0
105,165,36017,2,0,B|224:168,1,110,2|2
304,240,36723,2,2,B|185:237,1,110,0|8
248,336,37428,2,2,B|346:358|394:286,1,165,0|0
393,287,38134,1,2
432,184,38487,1,0
432,184,38664,1,0
376,88,39017,1,0
376,88,39193,1,8
296,160,39546,6,2,B|192:208|72:152,1,220
136,64,40605,2,2,B|192:96|256:64,2,110,2|0|10
248,64,41664,2,2,B|352:16|472:72,1,220,4|2
408,160,42723,2,0,B|352:128|288:160,2,110,0|0|8
328,232,43781,6,2,B|272:256|256:312|256:312|232:256|168:224,1,220
183,122,44840,1,0
256,40,45193,1,8
328,120,45546,1,8
310,227,45899,2,6,B|395:236|435:276|395:316|307:332,1,220,4|2
200,331,46958,2,4,B|115:315|75:275|115:235|200:226,1,220,0|8
310,226,48017,6,2,B|372:254|423:203,1,110,0|0
343,124,48723,2,2,B|280:95|229:146,1,110,0|2
343,124,49428,2,2,B|405:152|456:101,1,110,0|2
383,16,50134,2,6,B|320:-12|269:38,1,110,4|0
240,136,50840,2,0,B|302:164|353:113,1,110,2|0
240,136,51546,2,0,B|177:107|126:158,1,110,0|8
200,208,52252,6,2,B|328:240|296:384,1,220,0|0
214,375,53311,2,2,B|184:240|312:208,1,220,2|10
424,200,54370,2,2,B|456:152|440:88,2,110,0|0|10
464,304,55428,2,0,B|449:246|481:198,2,110,2|8|10
360,264,56487,6,6,B|256:320|144:256,1,220,4|2
152,152,57546,2,0,B|256:96|368:160,1,220,0|8
360,264,58605,2,2,B|400:312|472:288,1,110,0|0
432,184,59311,2,0,B|392:136|320:160,1,110,2|0
360,264,60017,2,0,B|300:284|260:236,1,110,0|8
192,152,60723,6,2,B|248:256|184:368,1,220,2|2
136,264,61781,2,2,B|80:160|144:48,1,220,0|2
256,192,62840,12,0,65310
64,192,76252,6,0,B|144:176|192:232,3,132
185,225,78369,1,0
264,264,78722,1,0
336,312,79075,2,0,B|377:361|457:345,3,132
344,160,81546,6,0,B|320:120,1,44
321,122,81899,2,0,B|182:122,1,132
192,32,82781,2,0,B|331:32,1,132
456,152,84016,5,0
424,232,84369,1,0
496,280,84722,2,0,B|424:256|368:304,1,132
239,301,85781,2,0,B|184:256|114:279,1,132
224,200,86840,2,0,B|312:232|400:200,1,176,4|0
472,160,87898,6,0,B|472:128|472:128|480:104|480:104|472:64,2,88,0|0|2
464,248,88957,2,0,B|464:280|464:280|456:304|456:304|464:344,2,88,0|0|2
375,248,90016,2,0,B|319:248,4,44,0|0|0|0|2
375,159,91075,2,0,B|432:160,4,44,0|0|0|0|4
176,336,92840,6,0,B|248:296|256:236|256:236|264:296|344:344,2,264
64,96,96016,6,0,B|152:144|240:96,1,176,0|2
312,56,97075,2,0,B|360:144|312:232,1,176,0|2
272,304,98134,2,0,B|360:352|448:304,1,176,0|2
440,307,99193,1,0
440,307,99369,1,2
384,96,100251,6,0,B|296:48|208:104,1,176,0|2
288,144,101310,2,0,B|208:194|120:146,1,176,0|2
93,230,102369,2,0,B|141:254|181:246|181:246|181:286|213:326,1,176,0|2
299,324,103428,2,0,B|329:285|329:245|329:245|369:253|417:229,1,176,0|2
417,229,104487,1,0
64,328,112957,6,0,B|144:288|120:176,1,165
122,187,113663,2,0,B|233:186,1,110,0|8
336,184,114369,2,0,B|400:208,3,55
416,216,115075,2,0,B|336:248|296:336,1,165
300,327,115781,2,0,B|171:327,1,110,0|8
96,304,116487,2,0,B|32:280,3,55
72,240,117193,6,0,B|160:216|184:112,1,165,4|0
180,126,117898,2,0,B|244:126,1,55
235,126,118251,2,0,B|320:88|400:128,1,165,8|0
394,125,118957,1,0
456,216,119310,6,0,B|368:240|344:344,1,165,4|0
347,329,120016,2,0,B|283:329,1,55,0|8
292,329,120369,2,0,B|207:367|127:327,1,165,4|0
112,312,121075,1,0
96,296,121251,1,0
80,280,121428,6,0,B|48:232|80:160,1,110
136,88,122134,2,2,B|184:48,1,55,0|0
178,52,122487,2,2,B|231:95,1,55,2|0
264,120,122840,2,2,B|312:160|384:144,1,110,0|2
480,144,123546,6,0,B|512:192|480:264,1,110,0|2
424,336,124251,2,2,B|376:376,1,55,0|0
382,372,124604,2,2,B|328:328,1,55,2|0
296,304,124957,2,0,B|248:264|176:280,1,110,0|2
88,240,125663,6,0,B|144:176|240:176,1,165
234,176,126369,2,0,B|184:144|176:80,1,110,2|2
280,112,127075,2,2,B|330:144|338:208,1,110,0|2
424,240,127781,1,2
360,328,128134,1,0
256,288,128487,1,2
152,328,128840,1,2
88,240,129193,1,0
152,328,129546,1,2
256,288,129898,5,6
192,200,130251,2,0,B|168:176|184:128,1,55
178,148,130604,2,0,B|296:144,2,110,2|2|0
72,160,131663,2,2,B|80:280,1,110,0|2
96,376,132369,1,0
208,368,132722,2,0,B|336:360,1,110,2|2
424,344,133428,1,0
344,264,133781,2,0,B|304:224|336:144,1,110,2|4
329,160,134487,6,2,B|256:144,1,55,0|0
276,148,134840,2,2,B|224:112|160:128,1,110,2|2
96,208,135546,2,0,B|169:224,1,55,0|0
149,220,135898,2,2,B|201:256|265:240,1,110
360,240,136604,1,0
440,320,136957,5,2
328,336,137310,1,2
256,256,137663,1,0
184,336,138016,1,2
80,312,138369,1,4
112,208,142604,5,2
200,272,142957,1,4
312,272,143310,1,4
400,208,143663,1,2
360,104,144016,5,0
360,88,144192,1,0
248,96,144545,1,0
248,72,144721,1,8
136,72,145074,2,0,B|128:136,1,55,2|0
80,144,145427,2,2,B|128:208,1,55,2|0
113,188,145780,2,0,B|120:256|80:304,2,110,4|0|2
24,256,146839,6,2,B|104:224|184:288,1,165,2|0
178,283,147545,1,10
288,312,147898,2,0,B|352:288,1,55,2|0
296,264,148251,2,2,B|304:208,1,55,2|0
352,240,148604,2,0,B|416:152,2,110,4|4|2
288,152,149663,6,0,B|160:152,1,110,4|2
178,152,150192,2,2,B|192:208|176:272,1,110,0|2
232,240,150721,2,2,B|218:293|232:349,1,110,4|2
232,349,151251,2,2,B|122:349,1,110,0|2
94,349,151780,1,2
66,349,151957,1,0
38,349,152133,1,2
96,256,152486,5,6
96,240,152663,1,0
200,200,153016,1,0
200,168,153192,1,8
312,152,153545,2,2,B|312:96,1,55,2|0
360,128,153898,2,2,B|424:112,1,55,2|0
400,64,154251,2,0,B|456:40|528:48,2,110,4|4|2
424,168,155310,6,2,B|384:232|408:328,1,165,2|0
407,327,156016,2,0,B|288:328,1,110,10|2
272,280,156545,2,0,B|224:216,1,55,0|2
288,208,156898,2,2,B|272:152,1,55,0|2
168,176,157427,2,2,B|48:176,1,110,0|2
32,280,158133,6,2,B|72:216|48:120,1,165,2|0
48,120,158839,2,0,B|167:119,1,110,10|2
184,168,159368,2,2,B|232:232,1,55,0|2
168,240,159721,2,2,B|184:296,1,55,0|10
288,272,160251,2,2,B|408:272,1,110,0|2
472,192,160957,6,0,B|360:192,1,110,4|2
362,192,161486,2,2,B|344:144|360:64,1,110,4|2
312,56,162016,2,0,B|330:104|314:184,1,110,0|2
317,164,162545,2,2,B|190:165,1,110,4|2
196,164,163074,1,2
184,164,163251,1,0
173,164,163427,1,2
64,152,163780,6,0,B|48:280,1,110
96,296,164309,2,0,B|141:354,2,55,2|0|2
104,240,164838,2,0,B|208:264|344:240,1,220,8|8
376,152,165897,2,0,B|328:136|264:152,1,110,4|0
224,112,166427,2,0,B|284:96|332:112,1,110,2|2
384,96,166956,2,0,B|440:104|504:88,2,110,8|0|8
424,200,168015,6,0,B|488:200,1,55,4|0
479,200,168368,2,0,B|488:256|464:328,1,110,0|2
359,308,169074,2,0,B|336:328|295:324,1,55,2|0
320,272,169427,2,0,B|288:264|272:224,1,55,8|8
328,224,169780,2,0,B|319:168|343:96,1,110,0|4
248,48,170485,2,0,B|257:104|233:176,1,110,0|2
152,88,171191,6,0,B|128:96|88:88,1,55,2|0
72,136,171544,2,0,B|41:129|17:137,1,55,8|8
40,184,171897,2,0,B|46:214|38:238,1,55,0|8
38,239,172250,2,0,B|159:240,2,110,0|0|2
112,320,173309,2,0,B|-9:321,2,110,8|0|4
208,272,174368,6,0,B|168:224|208:160,1,110
304,208,175074,1,2
288,96,175427,2,0,B|352:80,1,55,8|8
341,82,175780,2,0,B|408:104|432:168,1,110,0|4
424,264,176485,5,2
320,304,176838,1,0
216,336,177191,1,2
112,368,177544,1,8
144,264,177897,6,0,B|112:208|152:144,1,110,0|4
120,48,178603,2,0,B|152:104|112:168,1,110,0|0
216,208,179309,2,0,B|272:176|336:216,1,110,0|8
368,112,180015,2,0,B|432:112,4,55,0|8|0|8|4
256,112,181074,6,0,B|256:224,1,110,0|8
256,222,181780,2,2,B|352:208|432:224,2,165
328,304,183191,2,0,B|272:296|208:320,1,110,0|8
112,336,183897,2,2,B|120:248|56:184,2,165,2|2|6
184,248,185309,6,0,B|176:192|120:144,1,110
131,153,186015,2,2,B|304:152,1,165
296,152,186721,1,8
408,144,187074,6,2,B|398:204|416:264,1,110,4|2
464,248,187603,2,0,B|478:296|468:357,1,110,2|2
440,312,188132,2,0,B|379:321|320:304,1,110,4|2
336,256,188662,2,0,B|287:241|226:251,1,110,2|2
227,250,189191,5,0
120,256,189544,1,2
8,264,189897,1,8
56,168,190250,1,2
56,168,190427,1,4
168,160,190780,1,2
168,160,190956,1,8
208,264,191309,6,2,B|232:320|216:384,2,110,2|0|2
312,304,192368,2,2,B|288:248|304:184,2,110,0|0|2
400,232,193427,6,0,B|424:160,1,55,4|0
417,179,193780,2,2,B|376:136|408:72,1,110,0|2
296,96,194485,2,0,B|272:168,1,55,8|0
278,148,194838,2,2,B|319:191|287:255,1,110,0|2
208,328,195544,5,2
216,336,195721,2,0,B|264:376|344:344,1,110,4|2
184,256,196603,1,2
176,248,196780,2,0,B|128:208|48:240,1,110,4|2
232,192,197662,2,0,B|287:206|343:193,1,110,4|0
