osu file format v9

[General]
AudioFilename: the outsider[cut].mp3
AudioLeadIn: 0
PreviewTime: 141881
Countdown: 0
SampleSet: Soft
StackLeniency: 0.7
Mode: 0
LetterboxInBreaks: 1

[Editor]
DistanceSpacing: 0.1
BeatDivisor: 4
GridSize: 8

[Metadata]
Title:The Outsider (Resident Renholder mix)
Artist:A Perfect Circle
Creator:La Cataline
Version:Hard
Source:Resident Evil: Apocalypse
Tags:afterlife prison break

[Difficulty]
HPDrainRate:6
CircleSize:4
OverallDifficulty:7
ApproachRate:8
SliderMultiplier:1.4
SliderTickRate:0.5

[Events]
//Background and Video events
0,0,"resident-evil-afterlife-024.jpg"
//Break Periods
2,65510,75502
2,104686,112207
2,138569,141148
//Storyboard Layer 0 (Background)
//Storyboard Layer 1 (Fail)
//Storyboard Layer 2 (Pass)
//Storyboard Layer 3 (Foreground)
//Storyboard Sound Samples
//Background Colour Transformations
3,100,0,0,0

[TimingPoints]
31076,352.941176470588,3,1,1,80,1,0
34693,-100,3,2,1,80,0,0
35046,-100,3,1,1,80,0,0
43252,-100,3,2,1,80,0,0
43781,-100,3,1,1,80,0,0
47399,-100,3,2,1,80,0,0
47928,-100,3,1,1,80,0,0
51458,-100,3,2,1,80,0,0
52164,-100,3,1,1,80,0,0
64958,352.941176470588,4,1,1,80,1,0
65223,-100,4,2,1,0,0,0
76164,-125,4,2,1,61,0,0
87546,352.941176470588,3,1,1,80,1,0
87546,-125,3,1,1,80,0,0
87722,-125,3,2,1,80,0,0
100251,-125,3,1,1,80,0,0
100428,-125,3,2,1,80,0,0
101310,-125,3,1,1,80,0,0
101487,-125,3,2,1,80,0,0
102369,-125,3,1,1,80,0,0
102546,-125,3,2,1,80,0,0
103340,-125,3,1,1,80,0,0
103604,-125,3,2,1,80,0,0
104487,-100,3,1,1,80,0,0
121428,-100,3,1,1,80,0,1
121516,-100,3,1,1,80,0,0
138369,-100,3,2,1,0,0,0
141898,-100,3,1,1,100,0,0
144016,352.941176470588,4,1,1,80,1,0
144016,-100,4,1,1,80,0,0
163780,352.941176470588,3,1,1,80,1,0
163780,-100,3,1,1,80,0,0
163868,-100,3,2,1,80,0,0
180721,-100,3,1,1,80,0,1
180793,-100,3,1,1,80,0,0
197574,-200,3,1,1,80,0,0

[Colours]
Combo1 : 103,103,199
Combo2 : 160,198,153
Combo3 : 255,88,100

[HitObjects]
248,64,31075,6,2,B|344:96|424:48,1,175,4|0
417,52,31605,2,0,B|464:56|480:80,1,70,2|8
416,152,31958,1,0
344,208,32134,2,2,B|280:248|280:352,2,140,2|0|2
281,327,33193,6,2,B|185:295|105:343,1,175,0|0
110,339,33723,2,0,B|65:335|49:311,1,70,2|8
113,239,34076,1,2
185,183,34252,2,2,B|249:143|249:39,1,140,0|2
336,88,34781,1,2
248,63,34958,1,0
312,328,35311,6,2,B|374:254|493:248,1,175,4|0
465,251,35840,2,0,B|465:219|488:186,1,70,2|8
320,184,36193,1,2
296,104,36370,2,0,B|316:74|315:39,1,70,2|0
320,184,36723,1,0
240,168,36899,2,2,B|204:166|175:187,1,70,0|2
136,336,37428,6,2,B|232:296|328:336,1,175,0|0
307,329,37958,2,0,B|344:344|376:328,1,70,2|8
272,232,38311,1,2
336,144,38487,1,2
272,232,38664,1,0
160,216,38840,1,2
272,232,39017,1,0
307,329,39193,1,8
120,128,39546,6,2,B|136:48|216:40,1,140,4|2
200,128,40076,2,0,B|184:208|104:216,1,140,2|0
24,216,40605,2,2,B|40:136|120:128,1,140,0|8
256,216,41311,1,2
464,184,41664,6,2,B|448:104|368:96,1,140,0|2
296,272,42193,2,0,B|376:256|384:176,1,140,2|2
310,151,42723,2,2,B|232:144|216:64,1,140,2|10
383,177,43252,1,0
369,96,43428,1,2
310,151,43605,1,0
256,208,43781,6,2,B|184:240|168:312,1,140,4|2
152,120,44311,2,0,B|184:192|256:208,1,140,2|0
48,232,44840,2,2,B|104:200|184:216,1,140,0|8
256,344,45546,1,2
439,295,45899,6,2,B|439:215|351:183,1,140,0|2
256,264,46428,2,0,B|336:264|368:176,1,140,2|2
386,59,46958,2,2,B|329:115|369:200,1,140,2|10
272,176,47487,1,2
364,188,47664,1,0
352,280,47840,1,2
256,264,48017,6,0,B|192:304|120:272,1,140,4|2
184,184,48546,2,2,B|200:344,2,140,2|0|2
256,192,49428,2,0,B|240:40,1,140,8|2
256,192,49958,1,0
328,168,50134,6,0,B|400:184|464:144,1,140,0|2
416,288,50664,2,0,B|392:128,2,140,2|0|2
380,65,51546,2,0,B|392:137,2,70,0|0|2
256,192,52252,6,0,B|160:280,1,105,4|0
152,280,52605,2,2,B|101:225,1,70
48,168,52958,2,0,L|160:64,1,140,8|2
256,80,53487,2,0,L|144:184,1,140
280,168,54017,2,0,L|352:104,1,70,10|0
248,200,54370,6,0,B|184:248|208:328,1,140,0|2
206,323,54899,1,2
248,200,55076,2,2,B|184:152|208:72,1,140,8|2
206,76,55605,1,0
248,200,55781,2,0,B|327:188|366:262,1,140,2|8
168,48,56487,6,2,B|88:24|48:104,1,140,4|2
160,176,57017,1,0
160,176,57193,2,0,B|104:48,2,140,8|2|0
360,304,58252,1,10
360,304,58605,6,2,B|288:280|256:184,1,140,0|2
232,136,59134,1,0
312,144,59311,2,0,B|368:96|392:24,2,140,8|2|2
152,304,60370,5,8
152,304,60723,2,0,B|288:304,1,105,4|0
296,304,61076,2,2,B|336:224,1,70
280,152,61428,2,0,B|240:232,1,70,10|0
352,192,61781,2,0,B|416:56,1,140,2|0
128,176,62311,2,0,B|64:312,1,140,8|2
160,96,62840,5,2
256,192,63017,1,4
256,216,63370,1,8
352,96,63723,5,2
352,96,63811,1,0
352,96,63899,1,2
256,240,64076,1,4
256,256,64428,1,8
256,192,64517,12,0,65310
104,152,76252,6,0,B|176:128|216:176,1,112,0|0
256,32,76781,2,0,B|256:152,1,112,0|0
408,152,77310,2,0,B|336:128|296:176,1,112,0|2
256,248,77840,1,0
256,248,78369,2,0,B|200:216|144:256,2,112,2|0|4
256,248,79428,2,0,B|312:280|368:240,2,112,0|2|0
256,56,80487,5,0
256,64,80663,1,2
312,216,81016,1,2
303,215,81193,1,0
200,216,81369,1,2
208,215,81546,1,0
256,296,81722,1,0
160,304,81899,6,0,B|112:256|40:280,1,112,0|0
32,168,82428,2,0,B|80:216|56:288,1,112
136,136,82958,2,2,B|88:184|16:160,2,112,0|4|0
256,56,84016,5,2
256,64,84369,1,2
256,72,84722,2,0,B|304:120|376:96,1,112
384,208,85252,2,0,B|336:160|360:88,1,112
488,240,85781,2,2,B|440:192|364:212,1,112,0|2
456,344,86310,2,0,B|504:296|484:223,1,112,0|0
152,288,86840,2,2,B|256:376|368:280,1,224,4|0
296,248,87722,6,0,B|296:136,1,112
216,136,88251,2,0,B|216:248,1,112,0|2
88,216,88957,2,0,B|48:256,4,56,0|0|0|0|2
424,216,90016,2,0,B|464:256,4,56,0|0|0|0|2
256,104,91075,2,0,B|256:32,4,56,0|0|0|0|6
256,296,92310,5,2
256,312,92840,1,2
256,328,93369,1,2
104,256,93898,6,0,B|56:216|80:144,2,112
152,192,94781,1,2
200,128,94957,2,0,B|248:168|224:240,2,112
152,192,95840,1,2
256,320,96016,6,0,B|296:280|360:296,1,112
456,240,96546,2,0,B|400:248|356:302,1,112,0|2
328,208,97075,2,0,B|304:112,2,84
112,320,98134,2,0,B|152:280|216:296,1,112
112,320,98663,2,0,B|104:256|40:232,1,112,0|2
152,208,99193,1,0
152,208,99546,6,0,B|176:152,4,56,0|2|0|2|0
360,208,100604,2,0,B|336:152,4,56,0|2|0|2|0
256,64,101663,2,0,B|256:144,4,56,0|2|0|2|0
152,216,102722,6,0,B|152:280|208:312,1,112
203,309,103251,1,0
256,224,103428,1,0
296,136,103604,1,0
296,136,103781,2,0,B|347:165|347:229,2,112,4|0|0
56,88,112957,6,0,B|166:68,1,105
182,65,113310,2,2,B|231:121,1,70,2|2
293,192,113663,2,0,B|214:205,1,70
49,235,114016,2,0,B|81:168|181:154,2,140,8|2|0
392,352,115075,6,0,B|448:288|376:224,1,140,0|2
328,176,115604,2,0,B|272:240|344:304,1,140,2|0
270,117,116134,2,0,B|234:111|211:74,1,70,8|0
344,96,116487,2,0,B|349:60|386:37,1,70,2|0
328,176,116840,2,0,B|307:204|316:255,1,70,0|0
96,280,117193,6,0,B|112:208|216:176,1,140,0|2
416,104,117722,2,0,B|400:176|296:208,1,140,2|0
102,235,118251,2,0,B|130:177|225:170,1,140,8|2
409,148,118781,2,0,B|381:206|286:213,1,140
256,80,119310,5,4
248,88,119487,1,0
160,192,119840,1,2
168,200,120016,1,2
344,192,120369,1,4
336,200,120546,1,0
256,344,120898,1,6
384,312,121075,1,2
248,312,121251,1,0
376,280,121428,1,4
376,280,121781,6,0,B|336:160,1,105,0|0
336,144,122134,2,2,B|168:144,1,140,8|2
120,144,122663,1,0
120,144,122840,2,0,B|160:264,1,105
160,280,123193,2,0,B|328:280,1,140,10|0
431,106,123898,6,0,B|367:106|327:154,1,105,0|0
304,112,124251,2,2,B|240:168|160:152,1,140,8|2
175,154,124781,1,0
72,248,124957,2,2,B|136:248|176:200,1,105,0|0
200,240,125310,2,0,B|264:184|344:200,1,140,10|4
200,56,126016,6,0,B|128:41|56:88,1,140,0|10
256,80,126546,1,0
312,56,126722,2,2,B|392:40|456:96,1,140,2|0
256,220,127251,2,0,B|256:60,1,140,2|2
128,248,127781,2,2,B|192:192,1,70,2|0
392,248,128134,2,2,B|328:192,1,70,0|2
264,32,128487,1,8
264,32,128663,1,2
264,32,128840,6,0,B|240:80|168:96,1,105,2|0
152,96,129193,2,0,B|50:99,1,70,0|2
360,96,129546,2,0,B|461:99,1,70,8|2
136,296,129898,6,0,B|256:296,1,105,4|0
288,296,130251,2,2,B|328:208,1,70
184,112,130604,2,0,B|144:200,1,70,8|2
224,232,130957,2,2,B|272:176|288:88,1,140,0|2
264,216,131487,2,0,B|208:272|200:360,1,140,8|0
48,176,132016,6,2,B|96:80,1,105,0|0
96,80,132369,2,0,B|192:72,1,70,2|2
248,168,132722,2,0,B|152:176,1,70,8|2
248,72,133075,2,0,B|376:64,1,105
352,65,133428,2,2,B|328:136,1,70
272,280,133781,6,2,B|148:286,1,105,8|0
136,288,134134,2,2,B|192:232|200:144,1,140,4|2
48,112,134840,2,0,B|48:72|88:40,1,70,8|2
120,144,135193,2,2,B|120:184|80:216,1,70,0|0
152,72,135546,2,0,B|192:72|224:112,1,70,2|0
264,208,135898,2,2,B|224:208|192:168,1,70,8|2
424,64,136251,6,2,B|400:128|344:184,1,140,4|2
448,192,136781,2,0,B|408:232|400:288,1,105,0|0
400,283,137134,2,0,B|360:288|336:320,1,70,2|6
344,184,137487,2,0,B|320:216|279:220,1,70,0|2
232,312,137840,1,0
285,219,138016,1,0
340,314,138193,1,0
286,281,138369,5,4
256,96,141898,5,4
256,104,141987,1,0
256,112,142075,1,0
256,120,142163,1,0
256,128,142251,1,0
256,136,142340,1,0
256,144,142428,1,0
256,152,142516,1,0
256,160,142604,1,10
184,320,142957,5,4
328,320,143310,1,4
256,160,143663,1,10
104,72,144016,5,8
112,80,144193,1,0
408,72,144546,1,0
400,80,144722,1,8
72,232,145075,2,0,B|136:224|176:288,1,105,2|0
164,271,145428,2,0,B|264:272,1,70,2|0
264,344,145781,2,0,B|112:344,2,140,4|4|2
435,345,146840,5,8
408,320,147016,1,0
81,345,147369,1,0
104,320,147546,1,8
184,112,147898,5,2
304,192,148075,1,0
328,112,148251,1,2
208,192,148428,1,0
256,56,148604,1,4
256,64,148957,1,4
256,72,149310,1,2
336,288,149663,6,0,B|400:333|491:293,1,140,4|2
264,296,150193,2,2,B|320:352|416:328,1,140,0|2
232,280,150722,2,0,B|176:224|80:248,1,140,4|2
176,288,151251,2,2,B|111:242|20:282,1,140,0|2
256,48,151781,2,2,B|256:192,1,140,0|2
160,112,152487,5,8
152,112,152663,1,0
352,112,153016,1,0
360,112,153193,1,8
256,344,153546,5,2
304,216,153722,1,0
192,288,153898,1,2
320,288,154075,1,0
208,216,154251,1,4
320,88,154604,2,6,B|256:144|184:80,1,140,4|2
432,192,155310,5,8
424,200,155487,1,0
80,192,155840,1,0
88,200,156016,1,8
256,224,156369,6,0,B|256:96,1,105,2|0
256,96,156722,2,2,B|192:64|104:104,1,140,2|4
256,288,157428,2,0,B|320:320|408:280,1,140,4|2
168,232,158134,6,2,B|200:216|216:168,1,70,8|2
344,232,158487,2,0,B|312:216|296:168,1,70,0|2
256,96,158840,1,10
104,216,159193,6,2,B|168:296,1,70,0|2
192,344,159546,2,0,B|264:312,1,70,2|0
255,315,159898,2,2,B|328:352,1,70,4|0
368,272,160251,2,2,B|419:209,1,70,4|0
144,200,160604,6,2,B|56:80,1,140,2|6
200,144,161134,2,0,B|168:64,1,70
256,88,161487,2,0,B|256:16,1,70,0|2
312,144,161840,2,0,B|344:56,1,70,0|4
368,200,162193,2,2,B|456:80,2,140
256,272,163075,1,2
256,264,163251,1,0
256,256,163428,2,2,B|236:201|264:140|256:104,1,140,2|4
160,96,163956,5,2
72,160,164132,1,2
168,208,164309,1,2
88,272,164485,1,0
184,312,164662,1,2
168,208,164838,2,0,B|328:216,1,140,10|0
400,312,165368,2,0,B|312:312,1,70,0|10
400,216,165721,2,0,B|488:216,1,70,0|4
256,48,166250,5,2
152,96,166427,1,0
200,200,166603,1,0
304,160,166780,1,2
328,80,166956,5,10
184,24,167132,1,8
136,168,167309,1,2
272,232,167485,1,8
232,128,167662,5,4
72,312,168015,2,0,B|64:216,1,70,4|2
152,344,168368,2,0,B|184:184,1,140,0|2
179,206,169074,1,8
288,104,169250,1,10
304,256,169427,1,0
336,168,169603,5,8
224,272,169780,1,0
216,120,169956,1,10
256,192,170132,5,4
256,192,170485,1,2
256,192,170838,1,0
464,312,171191,6,0,B|424:328|376:296,1,70,2|0
432,240,171544,2,0,B|440:200|408:160,1,70,8|10
360,240,171897,2,0,B|320:224|272:256,1,70,0|10
328,320,172250,2,0,B|264:368|184:320,1,140,4|2
120,272,172780,2,2,B|184:224|264:272,1,140,0|2
64,344,173309,2,0,B|16:280|64:200,1,140
57,212,173838,1,2
128,112,174015,1,12
184,216,174191,1,2
308,126,174368,5,0
308,126,174721,1,0
408,136,174897,1,2
400,240,175074,1,0
296,232,175250,1,2
184,128,175427,5,2
85,137,175603,1,8
93,241,175780,1,0
192,232,175956,1,10
248,312,176132,2,0,B|236:263|252:202|248:160,1,140,4|2
248,172,176838,1,0
248,172,177191,1,2
249,49,177897,5,0
248,172,178074,1,0
248,172,178162,1,0
248,172,178250,2,0,B|280:216|328:239,1,105,4|0
327,239,178603,2,0,B|283:270|260:318,1,105
260,319,178956,2,0,B|229:274|181:251,1,105,2|0
180,251,179309,2,0,B|225:219|248:171,1,105
248,172,179662,1,0
180,109,180015,5,2
319,108,180191,1,8
316,246,180368,1,2
179,250,180544,1,8
248,172,180721,5,4
64,304,181074,2,0,B|72:240|24:184,1,105,2|0
80,192,181427,2,2,B|64:152|96:112,1,70,0|2
160,272,181780,2,0,B|184:240|240:264,1,70,10|0
184,152,182132,2,2,B|200:72|288:56,1,140,2|2
280,160,182662,1,8
280,160,182838,6,0,B|320:200|400:192,1,105,0|0
360,240,183191,2,0,B|400:232|432:256,1,70,2|0
376,336,183544,2,2,B|336:344|304:320,1,70,0|2
264,240,183897,2,2,B|200:200|128:232,1,140,10|2
56,296,184427,2,0,B|120:336|192:304,1,140,2|8
328,304,184956,6,0,B|368:256|440:256,1,105,4|0
408,224,185309,2,0,B|448:224|480:176,1,70,2|0
464,112,185662,2,0,B|424:112|400:152,1,70,8|2
332,120,186015,2,0,B|256:136|216:192,1,140,6|0
160,304,186544,6,0,B|112:152,1,140,4|2
344,304,187074,2,0,B|392:152,1,140,6|0
224,96,187603,2,2,B|264:208,1,105,8|0
272,224,187956,2,0,B|200:256,1,70,2|6
160,328,188309,2,0,B|120:216,1,105,0|0
112,200,188662,2,0,B|184:168,1,70,10|0
256,56,189191,5,4
256,56,189544,1,2
256,56,189897,1,8
464,104,190250,6,2,B|424:120|416:168,1,70,0|2
448,264,190603,2,0,B|488:248|496:200,1,70,0|2
336,224,190956,2,0,B|256:240|256:328,1,140,10|0
176,224,191485,2,0,B|256:240|256:328,1,140,2|2
256,323,192015,1,10
136,136,192368,6,2,B|96:56,1,70,2|2
256,112,192721,2,0,B|256:24,1,70,0|2
376,136,193074,2,0,B|416:56,1,70,10|0
120,256,193427,5,6
112,264,193603,1,0
256,328,193956,1,2
256,336,194132,1,10
392,256,194485,1,6
400,264,194662,1,0
256,64,195015,1,2
256,72,195191,1,10
64,136,195544,6,2,B|136:128|168:200,1,105,6|2
176,192,195897,2,0,B|160:272,2,70,0|2|8
256,152,196427,1,2
448,136,196603,2,0,B|376:128|344:200,1,105,6|2
336,192,196956,2,0,B|352:272,2,70,0|2|8
256,152,197485,1,2
256,272,197662,2,4,B|256:352,1,70,6|0
