osu file format v9

[General]
AudioFilename: the outsider[cut].mp3
AudioLeadIn: 0
PreviewTime: 141881
Countdown: 0
SampleSet: Normal
StackLeniency: 0.7
Mode: 0
LetterboxInBreaks: 1

[Editor]
DistanceSpacing: 0.1
BeatDivisor: 4
GridSize: 8

[Metadata]
Title:The Outsider (Resident Renholder mix)
Artist:A Perfect Circle
Creator:La Cataline
Version:Easy
Source:Resident Evil: Apocalypse
Tags:afterlife prison break

[Difficulty]
HPDrainRate:3
CircleSize:4
OverallDifficulty:3
ApproachRate:3
SliderMultiplier:0.8
SliderTickRate:1

[Events]
//Background and Video events
0,0,"resident-evil-afterlife-024.jpg"
//Break Periods
2,65510,74812
2,104686,111517
2,138569,141164
//Storyboard Layer 0 (Background)
//Storyboard Layer 1 (Fail)
//Storyboard Layer 2 (Pass)
//Storyboard Layer 3 (Foreground)
//Storyboard Sound Samples
//Background Colour Transformations
3,100,0,0,0

[TimingPoints]
31076,352.941176470588,3,1,1,80,1,0
64958,352.941176470588,4,1,1,80,1,0
65310,-125,4,2,1,0,0,0
65487,-125,4,2,1,61,0,0
87546,352.941176470588,3,2,1,80,1,0
87546,-125,3,2,1,80,0,0
100251,-125,3,1,1,80,0,0
100428,-125,3,2,1,80,0,0
102369,-125,3,1,1,80,0,0
102546,-125,3,2,1,80,0,0
104487,-125,3,1,1,80,0,0
112957,-100,3,1,1,80,0,0
121428,-100,3,1,1,80,0,1
121516,-100,3,1,1,80,0,0
138369,-100,3,2,1,0,0,0
141898,-100,3,1,1,80,0,0
144016,352.941176470588,4,1,1,80,1,0
144016,-100,4,1,1,80,0,0
163780,352.941176470588,3,1,1,80,1,0
163780,-100,3,1,1,80,0,0
163868,-100,3,2,1,80,0,0
180721,-100,3,1,1,80,0,1
180809,-100,3,1,1,80,0,0
197309,-100,3,2,1,0,0,0

[Colours]
Combo1 : 103,103,199
Combo2 : 160,198,153
Combo3 : 255,88,100

[HitObjects]
132,180,31075,2,2,B|188:64|324:64|388:184,1,320,0|10
256,272,33193,2,2,B|256:104,1,160,0|2
120,80,35311,6,2,B|160:0|264:16,1,160,4|2
256,96,36370,2,2,B|256:184,2,80,2|8|2
256,16,37428,2,2,B|350:2|390:82,1,160,0|2
400,280,39546,6,2,B|312:288|256:216,1,160,4|2
368,104,40958,1,8
368,104,41664,2,2,B|316:35|228:43,1,160,0|2
152,56,42723,1,0
104,120,43076,1,0
104,200,43428,1,8
152,264,43781,6,2,B|204:332|292:324,1,160,4|2
368,288,44840,2,2,B|440:336,2,80,2|8|2
392,208,45899,2,2,B|402:122|335:66,1,160,0|2
256,44,46958,1,0
264,124,47311,1,0
212,184,47664,1,8
136,192,48017,6,2,B|112:112|24:80,2,160,0|2|10
200,240,49781,1,8
272,280,50134,2,2,B|342:324|430:291,2,160,0|2|0
200,240,51899,1,8
264,200,52252,6,2,B|352:184|360:88,1,160,0|2
440,104,53311,2,2,B|488:32,2,80,2|8|10
472,176,54370,2,2,B|384:192|364:283,2,160,0|2|8
384,40,56487,6,2,B|304:85|231:23,1,160
160,64,57546,1,0
80,64,57899,1,8
120,137,58252,1,8
41,137,58605,2,2,B|-19:206|26:285,1,160
88,328,59664,1,0
157,360,60017,1,0
237,360,60370,1,8
312,336,60723,6,2,B|233:290|245:188,1,160
320,200,61781,2,2,B|330:110|251:65,1,160,2|10
256,192,62840,8,0,65310
112,296,76252,6,0,B|24:184|96:48,1,256
216,72,78369,1,2
264,192,79075,2,0,B|152:280|16:208,1,256
264,194,81899,6,0,B|376:282|512:210,1,256
503,85,84016,1,2
374,85,84722,2,0,B|286:197|358:333,1,256,0|2
353,324,86840,1,4
344,200,87546,6,0,B|256:248|160:200,1,192,0|2
16,80,89663,2,2,B|104:32|200:80,1,192,0|2
312,240,91781,6,0,B|407:287|495:239,2,192,4|2|0
256,320,96016,6,0,B|144:360|88:248,1,192,0|2
264,168,98134,2,2,B|376:128|432:240,1,192,0|2
232,256,100251,6,0,B|176:352|56:320,1,192,0|2
192,176,102369,2,0,B|248:80|368:112,2,192,0|2|0
176,120,112957,6,0,B|248:64|328:120,1,160,0|8
384,176,114016,2,2,B|432:176|456:128,2,80,2|0|2
304,200,115075,2,0,B|264:272|312:352,1,160,0|8
368,296,116134,2,2,B|296:256|216:304,1,160
152,336,117193,6,0,B|88:344|40:296,1,120,4|0
24,200,118251,2,2,B|16:136|64:88,1,120,10|2
160,24,119310,2,0,B|168:88|120:136,1,120
128,256,120369,2,0,B|192:248|240:296,1,120,4|0
280,184,121428,5,4
344,128,121781,1,0
416,88,122134,1,8
416,168,122487,2,2,B|352:248|416:328,1,160,0|2
464,264,123546,2,2,B|384:200|304:264,1,160,0|10
272,320,124604,2,2,B|212:346|164:290,2,120,0|4|6
152,216,126369,5,10
152,216,126722,1,4
256,96,127428,1,10
256,96,127781,1,4
360,216,128487,1,10
360,216,128840,2,2,B|440:216,2,80,0|2|0
280,232,129898,5,6
200,216,130251,1,0
120,216,130604,1,10
160,144,130957,2,2,B|200:64|296:96,1,160
248,160,132016,2,2,B|343:191|383:111,1,160,0|8
383,111,133075,2,2,B|512:112,2,120,2|4|2
392,264,134840,5,8
472,256,135193,2,0,B|456:360|344:336,1,160,4|2
328,264,136251,2,2,B|304:240|296:176,2,80,6|0|10
280,328,137310,2,2,B|192:288|120:328,1,160
56,368,138369,1,4
256,56,142604,5,2
216,128,142957,1,4
296,128,143310,1,4
256,200,143663,1,2
176,200,144016,6,2,B|160:296|48:296,1,160,0|2
88,208,145074,2,2,B|40:144,2,80,2|0|2
144,264,146133,2,2,B|152:304|200:328,1,80,4|2
192,324,146839,2,2,B|360:328,1,160,0|2
352,248,147898,2,2,B|296:192,2,80,2|0|2
416,296,148957,2,2,B|464:280|472:224,1,80,4|2
424,176,149663,6,2,B|368:136|304:176,1,120,4|2
208,232,150721,2,2,B|152:272|88:232,1,120,4|2
184,152,151780,2,2,B|256:96|336:152,1,160,2|6
416,280,153192,5,2
352,328,153545,1,0
272,344,153898,1,2
272,344,154251,1,4
192,328,154604,1,4
128,280,154957,1,6
200,240,155310,6,0,B|272:192|352:240,1,160,2|2
432,256,156368,2,2,B|512:256,2,80,2|0|2
368,304,157427,2,2,B|336:376,1,80,4|2
336,377,158133,6,2,B|256:356|168:376,1,160,0|2
80,328,159192,2,2,B|8:368,2,80,2|0|2
144,248,160251,2,2,B|112:160|176:88,1,160,0|6
256,192,161310,8,0,163074
184,88,163780,5,4
104,104,164132,1,2
88,184,164485,1,0
160,160,164838,2,0,B|216:232|312:200,1,160,8|0
376,240,165897,1,4
384,160,166250,2,0,B|456:96,1,80,2|0
443,106,166956,2,0,B|400:32|288:56,1,160,8|2
224,56,168015,6,0,B|224:16,2,40,4|0|0
176,120,168721,2,0,B|160:152|104:160,1,80,2|8
48,208,169427,2,8,B|48:256,2,40,0|0|8
120,232,170132,2,0,B|200:280|288:248,1,160,4|2
344,288,171191,2,0,B|384:368,2,80,0|8|0
344,208,172250,6,0,B|408:160,2,80,4|2|0
272,168,173309,2,0,B|240:96,2,80,8|2|4
344,136,174368,2,0,B|400:200|360:288,1,160,0|2
304,336,175427,2,0,B|240:368|144:344,1,160,8|4
88,296,176485,6,0,B|16:328,2,80,0|0|2
80,216,177544,2,8,B|80:120|168:72,1,160,8|4
216,136,178603,2,0,B|232:184|288:184,1,80,0|8
288,104,179309,2,0,B|288:62|336:46,1,80,2|8
368,120,180015,2,0,B|416:128,4,40,0|8|0|8|4
400,112,182838,6,2,B|336:120|280:72,1,120,2|2
216,176,183897,2,2,B|168:134|104:142,1,120,2|2
152,248,184956,6,2,B|224:248|256:304,1,120,0|2
355,247,186015,2,2,B|283:247|251:303,1,120
152,248,187074,6,0,B|96:328,2,80,4|2|0
200,184,188132,2,2,B|248:232|328:208,1,120,2|6
392,120,189191,5,4
336,56,189544,1,2
256,40,189897,1,2
176,64,190250,2,0,B|128:64|104:112,2,80
176,144,191309,2,0,B|144:200|72:192,1,120,2|2
176,144,192368,2,0,B|208:88|280:96,1,120,2|2
392,144,193427,6,2,B|416:208|384:264,1,120,6|2
264,256,194485,2,2,B|240:192|272:136,1,120,6|2
336,40,195544,2,0,B|392:8|440:0,2,100
296,48,196603,2,2,B|240:24|176:48,1,120,4|4
136,144,197662,2,2,B|176:160|224:144,1,80
