osu file format v12

[General]
AudioFilename: Faith.mp3
AudioLeadIn: 0
PreviewTime: 140847
Countdown: 0
SampleSet: Normal
StackLeniency: 0.7
Mode: 0
LetterboxInBreaks: 0

[Editor]
Bookmarks: 10247,32047
DistanceSpacing: 1
BeatDivisor: 4
GridSize: 4

[Metadata]
Title:Have Faith in Me
TitleUnicode:Have Faith in Me
Artist:A Day to Remember
ArtistUnicode:A Day to Remember
Creator:Magicphoenix
Version:Faith
Source:
Tags:Eureka 7 Seven Renton Thurston Pocket ga Niji de Ippai Good Night Sleep Tight Young Lovers AMV Homesick MMzz MittenMasterzz
BeatmapID:166237
BeatmapSetID:54704

[Difficulty]
HPDrainRate:7
CircleSize:4
OverallDifficulty:8
ApproachRate:8
SliderMultiplier:1.8
SliderTickRate:1

[Events]
//Background and Video events
Video,-150,"Amv - Faith 720p_x264.avi"
0,0,"Konachan.com - 25327 eureka eureka_seven renton_thurston.jpeg",0,0
//Break Periods
//Storyboard Layer 0 (Background)
//Storyboard Layer 1 (Fail)
//Storyboard Layer 2 (Pass)
//Storyboard Layer 3 (Foreground)
//Storyboard Sound Samples
//Background Colour Transformations
3,100,163,162,255

[TimingPoints]
132,400,4,1,1,50,1,0
32132,-100,4,1,1,80,0,1
32232,-100,4,1,1,70,0,0
44932,-100,4,1,1,80,0,1
57732,-100,4,1,1,70,0,0
83332,-100,4,1,1,80,0,1
96032,-100,4,1,1,80,0,0
96132,-100,4,1,1,80,0,1
108932,-100,4,1,1,70,0,0
134532,-100,4,1,1,50,0,0
144132,-100,4,1,1,70,0,0
146732,-200,4,1,1,40,0,0
147132,-200,4,1,1,70,0,0
147332,-100,4,1,1,80,0,1
160032,-100,4,1,1,80,0,0
160132,-100,4,1,1,80,0,1
172932,-100,4,1,1,80,0,0
184532,-100,4,1,1,50,0,0

[Colours]
Combo1 : 244,140,0
Combo2 : 128,255,191
Combo3 : 193,37,245
Combo4 : 194,18,18
Combo5 : 89,98,60

[HitObjects]
8,48,6532,6,0,B|104:48,1,90,2|0,0:0|0:0,0:0:0:0:
131,131,6932,2,0,B|235:131,1,90
270,206,7332,2,8,B|366:207,1,90,8|0,0:0|0:0,0:0:0:0:
397,289,7732,2,0,B|487:289,1,90
504,48,8132,6,0,B|408:48,1,90,2|0,0:0|0:0,0:0:0:0:
381,131,8532,2,0,B|277:131,1,90
242,206,8932,2,0,B|146:207,1,90,8|0,0:0|0:0,0:0:0:0:
121,291,9332,2,0,B|25:292,1,90,8|0,0:0|0:0,0:0:0:0:
25,199,9732,5,2,0:0:0:0:
99,148,9932,2,0,B|128:112|120:64,1,90
242,205,10332,1,0,0:0:0:0:
168,256,10532,2,0,B|139:292|147:340,1,90,8|0,0:0|0:0,0:0:0:0:
338,342,10932,2,0,B|346:293|317:257,1,90,8|0,0:0|0:0,0:0:0:0:
242,206,11332,5,2,0:0:0:0:
365,64,11532,2,0,B|356:112|385:148,1,90
458,90,11932,1,0,0:0:0:0:
385,148,12132,2,0,B|411:187|464:179,1,90,2|0,0:0|0:0,0:0:0:0:
366,64,12532,2,0,B|311:74|304:129,1,90
256,199,12932,5,2,0:0:0:0:
256,199,13132,1,0,0:0:0:0:
170,227,13332,2,0,B|121:233|91:191,1,90
256,200,13732,2,0,B|274:154|325:149,1,90,8|0,0:0|0:0,0:0:0:0:
244,292,14132,2,0,B|274:330|252:377,1,90,8|0,0:0|0:0,0:0:0:0:
196,131,14532,5,8,0:0:0:0:
196,131,14732,1,2,0:0:0:0:
111,162,14932,2,0,B|48:176|24:144,1,90,2|0,0:0|0:0,0:0:0:0:
248,56,15332,1,8,0:0:0:0:
290,135,15532,1,0,0:0:0:0:
184,252,15732,2,0,B|144:284|140:336,1,90,8|0,0:0|0:0,0:0:0:0:
268,233,16132,6,0,B|286:278|349:284,1,90,2|2,0:0|0:0,0:0:0:0:
290,135,16532,1,0,0:0:0:0:
339,59,16732,1,0,0:0:0:0:
201,165,16932,2,0,B|182:110|121:105,1,90,8|0,0:0|0:0,0:0:0:0:
60,154,17332,1,0,0:0:0:0:
105,231,17532,2,0,B|80:279|122:331,1,90,0|2,0:0|0:0,0:0:0:0:
256,332,17932,5,2,0:0:0:0:
298,252,18132,1,0,0:0:0:0:
234,188,18332,2,0,B|179:177|168:116,1,90,0|2,0:0|0:0,0:0:0:0:
171,40,18732,1,2,0:0:0:0:
256,68,18932,1,0,0:0:0:0:
340,40,19132,1,0,0:0:0:0:
298,252,19332,6,0,B|192:252,1,90,2|2,0:0|0:0,0:0:0:0:
208,136,19732,2,0,B|298:136,1,90
361,72,20132,2,0,B|472:72,1,90,8|0,0:0|0:0,0:0:0:0:
451,312,20532,2,0,B|361:312,1,90,8|0,0:0|0:0,0:0:0:0:
312,192,20932,5,2,0:0:0:0:
312,192,21132,1,2,0:0:0:0:
236,142,21332,2,8,B|188:178|146:150|114:120|60:152,1,180,8|8,0:0|0:0,0:0:0:0:
16,230,21932,1,0,0:0:0:0:
64,150,22132,2,0,B|52:98|88:59,1,90,8|0,0:0|0:0,0:0:0:0:
117,231,22532,2,0,B|163:221|212:242|237:291|222:346,1,180,2|8,0:0|0:0,0:0:0:0:
138,319,23132,5,0,0:0:0:0:
256,192,23332,1,8,0:0:0:0:
256,102,23532,1,0,0:0:0:0:
256,102,23632,1,0,0:0:0:0:
256,102,23732,1,8,0:0:0:0:
256,192,23932,1,0,0:0:0:0:
336,144,24132,1,2,0:0:0:0:
374,319,24332,1,0,0:0:0:0:
176,144,24532,1,8,0:0:0:0:
256,192,24732,1,0,0:0:0:0:
256,282,24932,6,0,B|229:331|164:320,1,90,10|0,0:0|0:0,0:0:0:0:
181,231,25332,2,0,B|129:234|101:186,1,90,8|0,0:0|0:0,0:0:0:0:
256,192,25732,1,2,0:0:0:0:
176,144,25932,2,0,B|160:100|188:56,2,90
336,144,26532,2,0,B|352:100|324:56,1,90,8|0,0:0|0:0,0:0:0:0:
256,192,26932,2,0,B|264:236|296:272|348:280|400:260,1,180
410,132,27532,6,0,B|356:140|342:199,1,90,2|10,0:0|0:0,0:0:0:0:
396,261,27932,1,0,0:0:0:0:
486,152,28132,2,8,B|498:108|468:50|424:35|348:69,2,180,8|0|2,0:0|0:0|0:0,0:0:0:0:
480,292,29132,1,2,0:0:0:0:
396,261,29332,1,8,0:0:0:0:
311,290,29532,1,0,0:0:0:0:
311,290,29632,1,0,0:0:0:0:
311,290,29732,1,0,0:0:0:0:
226,260,29932,2,0,P|178:259|122:231,1,90
241,118,30332,5,0,0:0:0:0:
278,92,30432,1,0,0:0:0:0:
287,48,30532,1,10,0:0:0:0:
374,28,30732,2,0,B|424:23|464:72,1,90,0|8,0:0|0:0,0:0:0:0:
426,146,31132,1,0,0:0:0:0:
409,188,31232,1,0,0:0:0:0:
424,230,31332,1,10,0:0:0:0:
500,276,31532,1,0,0:0:0:0:
360,293,31732,6,0,B|324:328|268:320,1,90
277,62,32132,2,0,B|324:56|360:91,1,90,4|0,0:0|0:0,0:0:0:0:
240,192,32532,2,0,B|132:192,1,90,8|0,0:0|0:0,0:0:0:0:
71,148,32932,5,0,0:0:0:0:
71,238,33132,1,0,0:0:0:0:
147,112,33332,2,0,B|196:109|222:56,1,90,8|0,0:0|0:0,0:0:0:0:
378,137,33732,2,0,B|416:97|462:130|449:192|433:217|350:244|330:156|257:137|179:236,1,360,4|0,0:0|0:0,0:0:0:0:
150,300,34732,1,0,0:0:0:0:
222,356,34932,2,0,B|272:372|336:344,1,90,8|0,0:0|0:0,0:0:0:0:
256,128,35332,5,6,0:0:0:0:
192,64,35532,1,2,0:0:0:0:
153,216,35732,2,0,B|99:215|73:256,1,90,8|0,0:0|0:0,0:0:0:0:
148,306,36132,2,0,B|232:364,1,90
310,339,36532,2,0,B|372:320|392:292|424:256|496:256,1,180,8|6,0:0|0:0,0:0:0:0:
423,180,37132,1,2,0:0:0:0:
423,180,37232,1,0,0:0:0:0:
423,180,37332,2,0,B|409:136|440:88,1,90,8|0,0:0|0:0,0:0:0:0:
349,69,37732,5,6,0:0:0:0:
340,200,37932,1,2,0:0:0:0:
254,227,38132,1,8,0:0:0:0:
277,140,38332,1,0,0:0:0:0:
324,288,38532,2,0,B|227:321,1,90,6|2,0:0|0:0,0:0:0:0:
158,275,38932,1,8,0:0:0:0:
81,227,39132,6,0,B|116:192|100:128,1,90
167,79,39532,1,0,0:0:0:0:
206,57,39632,1,0,0:0:0:0:
251,57,39732,1,8,0:0:0:0:
259,145,39932,1,0,0:0:0:0:
348,159,40132,2,0,B|386:251,1,90,0|6,0:0|0:0,0:0:0:0:
274,242,40532,2,0,B|242:350,1,90,8|0,0:0|0:0,0:0:0:0:
157,263,40932,2,0,B|73:319,1,90
256,192,41332,12,8,42932,0:0:0:0:
245,114,43332,5,6,0:0:0:0:
323,158,43532,1,0,0:0:0:0:
219,271,43732,1,2,0:0:0:0:
172,184,43932,1,0,0:0:0:0:
253,195,44132,1,14,0:0:0:0:
312,256,44332,1,2,0:0:0:0:
389,218,44532,1,8,0:0:0:0:
323,159,44732,1,0,0:0:0:0:
173,185,44932,5,4,0:0:0:0:
49,124,45132,1,4,0:0:0:0:
30,83,45232,1,0,0:0:0:0:
53,44,45332,1,0,0:0:0:0:
128,92,45532,1,0,0:0:0:0:
100,177,45732,2,0,B|66:218|-3:184,1,90,8|0,0:0|0:0,0:0:0:0:
50,286,46132,5,0,0:0:0:0:
153,316,46332,1,0,0:0:0:0:
258,294,46532,1,0,0:0:0:0:
339,225,46732,1,0,0:0:0:0:
316,121,46932,2,0,B|281:178|235:187|180:168|149:136,1,180,0|8,0:0|0:0,0:0:0:0:
231,76,47532,5,0,0:0:0:0:
231,76,47632,1,0,0:0:0:0:
231,76,47732,1,0,0:0:0:0:
162,148,47932,2,0,B|149:199|189:239,1,90,0|4,0:0|0:0,0:0:0:0:
276,265,48332,5,0,0:0:0:0:
299,359,48532,1,0,0:0:0:0:
356,192,48732,1,0,0:0:0:0:
379,230,48832,1,0,0:0:0:0:
422,242,48932,2,0,B|464:216|462:162,1,90,0|0,0:0|0:0,0:0:0:0:
398,102,49332,1,0,0:0:0:0:
248,184,49532,5,0,0:0:0:0:
298,358,49732,1,0,0:0:0:0:
136,310,49932,1,0,0:0:0:0:
248,184,50133,2,0,B|298:204|327:162,1,90,4|0,0:0|0:0,0:0:0:0:
334,40,50532,1,12,0:0:0:0:
286,54,50632,1,0,0:0:0:0:
250,89,50732,1,0,0:0:0:0:
236,136,50832,1,0,0:0:0:0:
248,183,50932,1,8,0:0:0:0:
136,310,51132,5,0,0:0:0:0:
79,162,51332,1,4,0:0:0:0:
248,184,51532,1,0,0:0:0:0:
161,218,51732,1,0,0:0:0:0:
67,250,51932,5,0,0:0:0:0:
180,128,52132,1,8,0:0:0:0:
241,275,52332,1,0,0:0:0:0:
161,218,52532,5,0,0:0:0:0:
180,128,52732,1,0,0:0:0:0:
250,57,52932,1,0,0:0:0:0:
346,36,53132,1,0,0:0:0:0:
443,53,53332,2,0,B|488:64|516:104|514:160|484:200,1,180,0|12,0:0|0:0,0:0:0:0:
402,139,53932,1,0,0:0:0:0:
402,139,54032,1,0,0:0:0:0:
402,139,54132,1,0,0:0:0:0:
288,220,54332,6,0,B|312:312,1,90,0|4,0:0|0:0,0:0:0:0:
247,138,54732,2,0,B|222:29,1,90
195,226,55132,2,0,B|219:318,1,90,0|8,0:0|0:0,0:0:0:0:
156,143,55532,1,0,0:0:0:0:
62,249,55732,2,0,B|88:344,1,90
87,339,56032,1,8,0:0:0:0:
88,343,56132,2,0,B|187:372,1,90,12|0,0:0|0:0,0:0:0:0:
178,370,56432,1,8,0:0:0:0:
182,370,56532,2,0,B|286:322,1,90,8|0,0:0|0:0,0:0:0:0:
267,330,56832,1,8,0:0:0:0:
271,328,56932,1,12,0:0:0:0:
207,234,57132,5,8,0:0:0:0:
223,187,57232,1,0,0:0:0:0:
258,151,57332,1,8,0:0:0:0:
303,132,57432,1,0,0:0:0:0:
352,132,57532,1,8,0:0:0:0:
398,149,57632,1,0,0:0:0:0:
433,184,57732,5,12,0:0:0:0:
416,272,57932,1,0,0:0:0:0:
341,322,58132,1,8,0:0:0:0:
253,321,58332,1,0,0:0:0:0:
196,238,58532,6,0,B|137:253|84:199,1,90
176,158,58932,2,0,B|210:212|200:286|140:312|108:315,1,180,8|8,0:0|0:0,0:0:0:0:
109,221,59532,1,0,0:0:0:0:
175,158,59732,2,0,B|235:133|283:185,1,90,8|0,0:0|0:0,0:0:0:0:
292,249,60132,1,0,0:0:0:0:
233,315,60332,1,0,0:0:0:0:
204,238,60532,2,0,B|207:155|247:107|303:87,1,180,8|4,0:0|0:0,0:0:0:0:
379,74,61132,5,2,0:0:0:0:
379,74,61232,1,0,0:0:0:0:
379,74,61332,1,8,0:0:0:0:
460,200,61532,1,0,0:0:0:0:
396,263,61732,2,0,B|308:312,2,90,0|0|8,0:0|0:0|0:0,0:0:0:0:
372,176,62332,1,0,0:0:0:0:
460,200,62532,2,0,B|512:280,1,90
466,109,62932,1,8,0:0:0:0:
380,73,63132,1,0,0:0:0:0:
297,108,63332,6,0,B|248:129|240:184,1,90
269,259,63732,2,0,B|280:315|230:349,1,90,8|0,0:0|0:0,0:0:0:0:
177,276,64132,2,0,B|137:257|137:198,1,90,8|0,0:0|0:0,0:0:0:0:
248,48,64532,2,0,B|290:70|288:126,1,90,12|0,0:0|0:0,0:0:0:0:
196,123,64932,1,0,0:0:0:0:
109,146,65132,1,0,0:0:0:0:
109,146,65232,1,0,0:0:0:0:
109,146,65332,6,0,B|54:151|26:101|28:51|76:12,2,180,8|0|8,0:0|0:0|0:0,0:0:0:0:
197,123,66332,2,0,B|225:180|213:248|173:300|120:328|65:324,1,270,0|8,0:0|0:0,0:0:0:0:
31,242,67132,1,0,0:0:0:0:
112,204,67332,1,0,0:0:0:0:
112,113,67532,1,0,0:0:0:0:
196,82,67732,1,8,0:0:0:0:
132,20,67932,2,0,B|97:73|101:121|141:193|229:180|271:117,1,270,0|8,0:0|0:0,0:0:0:0:
327,64,68732,6,0,B|363:100|335:180,2,90
120,163,69332,1,8,0:0:0:0:
298,205,69532,1,0,0:0:0:0:
298,205,69632,1,0,0:0:0:0:
298,205,69732,1,8,0:0:0:0:
199,236,69932,1,0,0:0:0:0:
215,142,70132,2,0,B|242:102|226:50,1,90,8|0,0:0|0:0,0:0:0:0:
140,78,70532,5,4,0:0:0:0:
372,78,70932,1,0,0:0:0:0:
297,242,71332,2,0,B|270:282|286:334,1,90,8|0,0:0|0:0,0:0:0:0:
367,291,71732,2,0,B|376:345|431:357,1,90
450,269,72132,2,0,B|496:255|521:204|512:151|484:99,2,180,4|0|8,0:0|0:0|0:0,0:0:0:0:
424,182,73132,1,0,0:0:0:0:
424,182,73232,1,0,0:0:0:0:
424,182,73332,6,0,B|416:127|364:122,1,90
333,206,73732,2,0,B|278:202|250:253,1,90,4|0,0:0|0:0,0:0:0:0:
330,293,74132,2,0,B|336:353|410:394|489:339,2,180,0|8|0,0:0|0:0|0:0,0:0:0:0:
411,253,75132,1,0,0:0:0:0:
411,253,75232,1,0,0:0:0:0:
411,253,75332,2,0,B|400:208|424:208|408:152,1,90,4|0,0:0|0:0,0:0:0:0:
323,185,75732,2,0,B|312:140|336:140|320:84,1,90
240,41,76132,6,0,B|253:86|229:86|240:131,1,90,12|0,0:0|0:0,0:0:0:0:
152,84,76532,2,0,B|163:129|139:129|155:185,1,90
151,263,76932,1,4,0:0:0:0:
151,263,77032,1,0,0:0:0:0:
151,263,77132,1,0,0:0:0:0:
64,147,77332,2,0,B|75:192|51:192|67:248,1,90,0|0,0:0|0:0,0:0:0:0:
150,263,77732,6,0,B|144:323|70:364|-9:309,2,180,8|0|0,0:0|0:0|0:0,0:0:0:0:
256,216,78732,1,6,0:0:0:0:
351,268,78932,1,6,0:0:0:0:
256,104,79332,1,8,0:0:0:0:
161,268,79732,1,0,0:0:0:0:
352,268,80132,1,4,0:0:0:0:
383,88,80532,5,0,0:0:0:0:
304,132,80732,1,0,0:0:0:0:
223,91,80932,2,0,B|204:135|228:184,1,90,8|0,0:0|0:0,0:0:0:0:
148,52,81332,2,0,B|110:140|158:238,1,180,0|6,0:0|0:0,0:0:0:0:
228,178,81932,5,0,0:0:0:0:
215,134,82032,1,0,0:0:0:0:
223,90,82132,1,0,0:0:0:0:
304,132,82332,1,0,0:0:0:0:
236,272,82532,5,4,0:0:0:0:
311,321,82732,1,0,0:0:0:0:
228,178,82932,1,8,0:0:0:0:
152,226,83132,1,0,0:0:0:0:
304,132,83332,5,4,0:0:0:0:
311,321,83532,1,0,0:0:0:0:
152,226,83732,1,0,0:0:0:0:
63,242,83932,1,0,0:0:0:0:
16,318,84132,2,0,B|46:358|102:358|118:318|166:318|198:358,1,180,8|0,0:0|0:0,0:0:0:0:
256,288,84732,1,0,0:0:0:0:
256,288,84932,2,0,B|256:192,1,90
494,320,85332,2,0,B|466:358|410:358|394:318|346:318|328:343,1,180,0|12,0:0|0:0,0:0:0:0:
256,288,85932,5,0,0:0:0:0:
256,288,86032,1,0,0:0:0:0:
256,288,86132,2,0,B|256:192,1,90,8|0,0:0|0:0,0:0:0:0:
289,114,86532,1,4,0:0:0:0:
168,240,86732,1,0,0:0:0:0:
212,120,86932,2,0,B|163:94|164:40,1,90
319,188,87332,2,0,B|303:240|247:267|187:256|159:232,1,180,8|0,0:0|0:0,0:0:0:0:
289,114,87932,6,0,B|294:67|352:44,1,90,0|0,0:0|0:0,0:0:0:0:
421,92,88332,1,0,0:0:0:0:
320,188,88532,2,0,B|268:208|224:184|196:141|212:79,2,180,8|4|8,0:0|0:0|0:0,0:0:0:0:
421,92,89532,1,0,0:0:0:0:
430,135,89632,1,0,0:0:0:0:
440,178,89732,5,12,0:0:0:0:
422,266,89932,2,0,B|399:319|344:316,1,90
208,295,90332,1,8,0:0:0:0:
171,270,90432,1,0,0:0:0:0:
164,226,90532,1,0,0:0:0:0:
156,100,90732,2,0,B|174:45|248:48,1,90
287,112,91132,5,0,0:0:0:0:
363,188,91332,1,0,0:0:0:0:
333,310,91532,1,0,0:0:0:0:
196,354,91732,2,0,B|96:352,1,90
64,272,92132,1,12,0:0:0:0:
168,192,92332,2,0,B|272:196,1,90
341,161,92732,1,0,0:0:0:0:
192,96,92932,6,0,B|137:115|96:52,1,90,4|0,0:0|0:0,0:0:0:0:
257,151,93332,2,0,B|268:198|229:239,1,90
272,72,93732,2,0,B|287:32|355:21,1,90,8|0,0:0|0:0,0:0:0:0:
446,50,94132,1,0,0:0:0:0:
405,216,94332,1,8,0:0:0:0:
405,261,94432,1,8,0:0:0:0:
373,292,94532,2,0,B|328:310|288:344,1,90,8|0,0:0|0:0,0:0:0:0:
205,337,94932,1,0,0:0:0:0:
80,308,95132,2,0,B|124:289|165:256,1,90,8|8,0:0|0:0,0:0:0:0:
124,180,95532,5,0,0:0:0:0:
159,97,95732,1,0,0:0:0:0:
249,97,95932,1,0,0:0:0:0:
276,182,96132,5,4,0:0:0:0:
199,228,96332,1,0,0:0:0:0:
159,97,96532,1,0,0:0:0:0:
277,181,96732,1,0,0:0:0:0:
124,180,96932,1,8,0:0:0:0:
249,97,97132,1,0,0:0:0:0:
198,229,97332,6,0,B|214:282|257:293,1,90
388,156,97732,2,0,B|413:113|380:60,1,90
471,20,98132,2,0,B|526:106|476:192,1,180,0|12,0:0|0:0,0:0:0:0:
412,254,98732,5,0,0:0:0:0:
367,254,98832,1,0,0:0:0:0:
335,223,98932,1,0,0:0:0:0:
204,264,99132,2,0,B|223:319|176:376,1,90,0|4,0:0|0:0,0:0:0:0:
148,192,99532,2,0,B|90:180|65:111,1,90
240,180,99932,2,0,B|278:136|350:148,2,90,0|8|0,0:0|0:0|0:0,0:0:0:0:
368,44,100532,5,0,0:0:0:0:
416,228,100732,1,0,0:0:0:0:
458,148,100932,1,0,0:0:0:0:
456,320,101132,1,0,0:0:0:0:
320,224,101332,2,0,B|264:224|232:184,1,90,8|0,0:0|0:0,0:0:0:0:
278,110,101732,2,0,B|288:180|248:236|168:248,1,180,8|4,0:0|0:0,0:0:0:0:
216,52,102332,5,0,0:0:0:0:
257,33,102432,1,0,0:0:0:0:
302,33,102532,1,4,0:0:0:0:
365,96,102732,1,0,0:0:0:0:
296,232,102932,1,0,0:0:0:0:
313,319,103132,1,0,0:0:0:0:
370,182,103332,1,8,0:0:0:0:
288,144,103532,1,0,0:0:0:0:
212,192,103732,5,0,0:0:0:0:
313,319,103932,1,0,0:0:0:0:
370,182,104132,1,0,0:0:0:0:
296,233,104332,1,0,0:0:0:0:
217,276,104532,2,0,B|160:268|124:308|64:308|24:276,1,180,0|12,0:0|0:0,0:0:0:0:
16,200,105132,5,0,0:0:0:0:
16,200,105232,1,0,0:0:0:0:
16,200,105332,1,0,0:0:0:0:
79,136,105532,1,0,0:0:0:0:
188,192,105732,2,0,B|200:288,1,90,4|0,0:0|0:0,0:0:0:0:
168,104,106132,1,0,0:0:0:0:
272,200,106332,2,0,B|288:300,1,90,0|8,0:0|0:0,0:0:0:0:
256,96,106732,1,0,0:0:0:0:
352,188,106932,6,0,B|388:364,1,180,0|8,0:0|0:0,0:0:0:0:
468,323,107532,1,8,0:0:0:0:
297,343,107732,1,8,0:0:0:0:
352,188,107932,1,8,0:0:0:0:
256,96,108132,2,0,B|232:8,1,90,8|8,0:0|0:0,0:0:0:0:
272,240,108532,1,8,0:0:0:0:
180,132,108732,2,8,B|156:36,1,90,8|4,0:0|0:0,0:0:0:0:
120,300,109532,6,0,B|143:341|200:336,1,90,0|8,0:0|0:0,0:0:0:0:
189,244,109932,1,0,0:0:0:0:
120,300,110132,2,0,B|116:354|175:378,1,90
254,185,110532,2,0,B|274:125|274:85|258:53|222:17,2,180,0|0|8,0:0|0:0|0:0,0:0:0:0:
189,244,111532,1,0,0:0:0:0:
146,229,111632,1,0,0:0:0:0:
126,188,111732,1,0,0:0:0:0:
160,104,111932,2,0,B|204:77|283:94|312:148|324:192,1,180
280,340,112532,1,0,0:0:0:0:
343,276,112732,6,0,B|395:291|425:251,1,90,0|8,0:0|0:0,0:0:0:0:
280,340,113132,1,0,0:0:0:0:
366,199,113332,2,0,B|388:160|362:107,1,90
289,162,113732,2,0,B|268:112|220:112,1,90
280,340,114132,1,0,0:0:0:0:
216,276,114332,1,0,0:0:0:0:
128,255,114532,6,0,B|77:257|48:312,1,90,8|0,0:0|0:0,0:0:0:0:
32,192,114932,1,0,0:0:0:0:
113,154,115132,2,0,B|176:168|224:144|264:100|264:64,1,180
396,212,115732,1,0,0:0:0:0:
364,243,115832,1,0,0:0:0:0:
355,287,115932,1,0,0:0:0:0:
314,171,116132,2,0,B|276:204|274:263,1,90,8|0,0:0|0:0,0:0:0:0:
355,287,116532,5,0,0:0:0:0:
314,171,116732,1,0,0:0:0:0:
208,107,116932,2,0,B|184:144|176:192|200:240|248:264,1,180
355,287,117532,1,0,0:0:0:0:
437,193,117732,2,0,B|416:152|452:152|428:100,2,90,8|0|0,0:0|0:0|0:0,0:0:0:0:
495,58,118332,2,0,B|462:25|412:20|368:30|352:98,1,180
308,172,118932,6,0,B|284:228|216:232,1,90
223,139,119332,1,8,0:0:0:0:
161,209,119532,2,0,B|156:261|194:289,1,90
223,139,119932,1,0,0:0:0:0:
84,203,120132,2,0,B|91:141|153:131,1,90
223,139,120532,2,0,B|216:201|154:211,1,90
180,60,120932,5,8,0:0:0:0:
314,166,121132,1,0,0:0:0:0:
234,311,121332,1,8,0:0:0:0:
84,289,121532,1,0,0:0:0:0:
48,144,121732,1,4,0:0:0:0:
48,144,122132,5,0,0:0:0:0:
136,161,122332,1,0,0:0:0:0:
136,161,122432,1,0,0:0:0:0:
136,161,122532,2,8,B|180:160|168:184|220:192,1,90
301,227,122932,2,0,B|336:244|400:236,1,90,0|0,0:0|0:0,0:0:0:0:
218,192,123332,2,0,B|158:200|122:264|126:320|134:352,2,180,4|0|8,0:0|0:0|0:0,0:0:0:0:
256,112,124332,1,0,0:0:0:0:
296,192,124532,1,0,0:0:0:0:
341,114,124732,6,0,B|384:136|400:184|392:240|344:280,1,180
222,235,125332,2,0,B|248:192|304:192,1,90
320,52,125732,2,0,B|298:107|232:116,1,90,8|0,0:0|0:0,0:0:0:0:
176,160,126132,1,0,0:0:0:0:
76,246,126332,2,0,B|76:292|121:322,1,90
164,242,126732,1,0,0:0:0:0:
164,242,126832,1,0,0:0:0:0:
164,242,126932,5,0,0:0:0:0:
256,112,127132,1,0,0:0:0:0:
100,108,127332,2,0,B|120:148|117:193|77:204|76:240|96:296,1,180,8|0,0:0|0:0,0:0:0:0:
164,242,127932,2,0,B|120:220|68:220|52:260|0:256|-20:216,1,180
100,108,128532,5,0,0:0:0:0:
181,146,128732,1,0,0:0:0:0:
269,128,128932,2,0,B|312:104|320:56,1,90,8|0,0:0|0:0,0:0:0:0:
376,264,129332,1,0,0:0:0:0:
287,282,129532,1,0,0:0:0:0:
223,345,129732,2,0,B|176:360|128:352|88:336|60:300,1,180
40,192,130332,5,0,0:0:0:0:
40,192,130432,1,0,0:0:0:0:
40,192,130532,1,8,0:0:0:0:
121,153,130732,2,0,B|171:137|180:72,1,90
120,232,131132,2,0,B|168:260|224:248|255:221|280:172,1,180
53,277,131732,2,0,B|64:329|107:369|190:378|253:379|294:359|340:319|376:267,1,360
378,209,132732,5,0,0:0:0:0:
314,145,132932,2,0,B|280:176|284:232,1,90,8|0,0:0|0:0,0:0:0:0:
220,116,133332,2,0,B|254:85|250:29,1,90,8|0,0:0|0:0,0:0:0:0:
165,195,133732,2,0,B|131:226|135:282,1,90,2|0,0:0|0:0,0:0:0:0:
106,126,134132,2,0,B|140:95|136:39,1,90,2|0,0:0|0:0,0:0:0:0:
44,38,134532,5,4,0:0:0:0:
22,125,134732,1,8,0:0:0:0:
22,125,134832,1,8,0:0:0:0:
22,125,134932,1,8,0:0:0:0:
22,125,135032,1,8,0:0:0:0:
22,125,135132,1,8,0:0:0:0:
22,125,135232,1,8,0:0:0:0:
22,125,135332,2,0,B|32:172|13:174|24:224,1,90,8|0,0:0|0:0,0:0:0:0:
107,186,135732,2,0,B|117:233|98:235|109:285,1,90
199,318,136132,6,0,B|209:270|190:268|201:219,1,90,2|0,0:0|0:0,0:0:0:0:
283,259,136532,2,0,B|293:211|274:209|285:160,1,90,0|8,0:0|0:0,0:0:0:0:
327,157,136832,1,8,0:0:0:0:
370,173,136932,1,8,0:0:0:0:
360,82,137132,1,0,0:0:0:0:
272,104,137332,2,0,B|168:104,1,90
146,186,137732,6,0,B|54:186,1,90,2|0,0:0|0:0,0:0:0:0:
240,188,138132,1,8,0:0:0:0:
223,229,138232,1,0,0:0:0:0:
192,264,138332,1,8,0:0:0:0:
147,264,138432,1,8,0:0:0:0:
102,264,138532,1,8,0:0:0:0:
102,354,138732,2,0,B|194:354,1,90
286,353,139132,1,0,0:0:0:0:
367,324,139332,6,0,P|400:280|396:224,1,90,2|0,0:0|0:0,0:0:0:0:
360,168,139732,2,0,P|347:119|367:67,1,90
390,46,140032,1,0,0:3:0:0:
432,31,140132,1,2,0:0:0:0:
467,113,140332,2,0,L|469:215,1,90
319,290,140732,1,0,0:0:0:0:
228,284,140932,5,2,0:0:0:0:
152,168,141132,2,0,P|136:112|144:56,1,90
256,47,141532,1,0,0:0:0:0:
256,92,141632,1,0,0:0:0:0:
256,137,141732,6,0,B|256:225,1,90,8|0,0:0|0:0,0:0:0:0:
320,290,142132,1,0,0:0:0:0:
244,340,142332,1,0,0:0:0:0:
244,340,142432,1,0,0:0:0:0:
244,340,142532,2,0,B|186:379|104:357|80:304,1,180
104,221,143132,1,8,0:0:0:0:
64,198,143232,1,8,0:0:0:0:
19,198,143332,2,0,B|8:152|32:112,1,90,8|0,0:0|0:0,0:0:0:0:
114,73,143732,2,0,B|163:51|211:71,1,90
286,97,144132,5,12,0:0:0:0:
356,212,144332,1,12,0:0:0:0:
256,248,146732,5,0,0:0:0:0:
256,248,146932,5,0,0:0:0:0:
256,248,147132,5,0,0:0:0:0:
256,248,147332,5,4,0:0:0:0:
296,96,147532,1,0,0:0:0:0:
333,177,147732,1,0,0:0:0:0:
176,185,147932,1,0,0:0:0:0:
200,96,148132,2,0,B|216:48|200:8,1,90,8|0,0:0|0:0,0:0:0:0:
123,56,148532,1,0,0:0:0:0:
176,185,148732,2,0,B|151:233|161:281,1,90
223,335,149132,5,0,0:0:0:0:
176,185,149332,2,0,B|212:230|282:233|318:200|355:152,1,180,0|12,0:0|0:0,0:0:0:0:
368,93,149932,1,0,0:0:0:0:
368,93,150032,1,0,0:0:0:0:
368,93,150132,1,0,0:0:0:0:
418,167,150332,1,0,0:0:0:0:
354,230,150532,5,4,0:0:0:0:
273,193,150732,1,0,0:0:0:0:
368,93,150932,2,0,B|416:64|456:64,1,90
272,104,151332,2,0,B|224:96|184:64,1,90,8|0,0:0|0:0,0:0:0:0:
126,132,151732,2,0,B|78:161|38:161,1,90
279,239,152132,6,0,B|368:232,2,90
40,344,152732,1,8,0:0:0:0:
128,336,152932,2,0,B|217:327,1,90,8|0,0:0|0:0,0:0:0:0:
329,106,153332,2,0,B|248:144,1,90,8|0,0:0|0:0,0:0:0:0:
393,42,153732,5,4,0:0:0:0:
352,192,153932,1,0,0:0:0:0:
268,225,154132,1,0,0:0:0:0:
360,104,154332,1,0,0:0:0:0:
429,240,154532,2,0,B|453:288|439:327,1,90,8|0,0:0|0:0,0:0:0:0:
264,336,154932,5,0,0:0:0:0:
432,160,155132,1,0,0:0:0:0:
352,192,155332,1,0,0:0:0:0:
288,128,155532,1,0,0:0:0:0:
160,305,155732,1,0,0:0:0:0:
248,288,155932,6,0,B|248:344|192:400,2,90,0|8|0,0:0|0:0|0:0,0:0:0:0:
160,176,156532,1,8,0:0:0:0:
97,265,156732,2,0,B|68:308|9:295,1,90,0|4,0:0|0:0,0:0:0:0:
48,144,157132,1,0,0:0:0:0:
86,120,157232,1,0,0:0:0:0:
96,76,157332,1,0,0:0:0:0:
180,105,157532,5,0,0:0:0:0:
243,41,157732,1,8,0:0:0:0:
216,184,157932,1,0,0:0:0:0:
96,76,158132,1,0,0:0:0:0:
180,105,158332,1,0,0:0:0:0:
124,182,158532,5,0,0:0:0:0:
288,131,158732,1,0,0:0:0:0:
153,19,158932,1,0,0:0:0:0:
216,184,159132,5,8,0:0:0:0:
216,229,159232,1,8,0:0:0:0:
239,267,159332,1,8,0:0:0:0:
277,290,159432,1,8,0:0:0:0:
329,307,159532,1,8,0:0:0:0:
372,294,159632,1,8,0:0:0:0:
410,270,159732,1,8,0:0:0:0:
432,231,159832,1,8,0:0:0:0:
432,186,159932,1,8,0:0:0:0:
447,143,160032,1,8,0:0:0:0:
486,120,160132,1,4,0:0:0:0:
358,38,160332,6,0,B|304:27|277:70,1,90
216,180,160732,1,0,0:0:0:0:
345,132,160932,2,0,B|336:74|286:36|237:36|184:50,1,180,4|8,0:0|0:0,0:0:0:0:
146,108,161532,1,0,0:0:0:0:
146,108,161632,1,0,0:0:0:0:
146,108,161732,1,8,0:0:0:0:
216,272,161932,5,0,0:0:0:0:
344,132,162132,1,0,0:0:0:0:
407,72,162332,1,0,0:0:0:0:
492,44,162532,1,4,0:0:0:0:
320,48,162732,2,0,B|280:64|224:40,1,90,0|8,0:0|0:0,0:0:0:0:
224,136,163132,5,0,0:0:0:0:
366,72,163332,1,0,0:0:0:0:
328,224,163532,1,0,0:0:0:0:
184,256,163732,1,0,0:0:0:0:
224,136,163932,1,0,0:0:0:0:
280,336,164132,1,12,0:0:0:0:
328,224,164332,2,0,B|424:200,1,90
488,168,164732,1,0,0:0:0:0:
488,168,164832,1,0,0:0:0:0:
488,168,164932,1,8,0:0:0:0:
415,112,165132,5,0,0:0:0:0:
415,220,165332,1,12,0:0:0:0:
328,56,165532,1,0,0:0:0:0:
328,272,165732,1,12,0:0:0:0:
240,110,165932,1,8,0:0:0:0:
240,216,166132,1,8,0:0:0:0:
328,160,166332,1,8,0:0:0:0:
415,112,166532,5,4,0:0:0:0:
328,272,166732,1,0,0:0:0:0:
241,110,166932,1,0,0:0:0:0:
416,219,167132,1,0,0:0:0:0:
416,264,167232,1,0,0:0:0:0:
436,303,167332,2,0,B|472:339|464:387,1,90,8|0,0:0|0:0,0:0:0:0:
378,356,167732,5,0,0:0:0:0:
303,212,167932,1,0,0:0:0:0:
157,165,168132,1,0,0:0:0:0:
25,242,168332,1,0,0:0:0:0:
57,92,168532,2,0,B|92:52|144:54,1,90
226,53,168932,5,8,0:0:0:0:
328,85,169132,1,0,0:0:0:0:
391,194,169332,1,0,0:0:0:0:
346,331,169532,1,0,0:0:0:0:
346,331,169632,1,0,0:0:0:0:
346,331,169732,1,4,0:0:0:0:
258,310,169932,5,0,0:0:0:0:
174,342,170132,1,8,0:0:0:0:
328,256,170332,1,0,0:0:0:0:
301,169,170532,2,0,B|336:80,1,90,0|0,0:0|0:0,0:0:0:0:
240,228,170932,2,0,B|144:228,1,90
328,256,171332,2,0,B|384:328,2,90,8|0|0,0:0|0:0|0:0,0:0:0:0:
383,326,171932,5,8,0:0:0:0:
224,344,172132,1,0,0:0:0:0:
143,224,172332,1,0,0:0:0:0:
177,85,172532,1,8,0:0:0:0:
344,72,172732,1,0,0:0:0:0:
295,235,172932,5,4,0:0:0:0:
219,283,173132,1,0,0:0:0:0:
222,195,173332,1,0,0:0:0:0:
296,328,173532,1,0,0:0:0:0:
214,367,173732,2,8,B|158:359|144:312,1,90
222,195,174132,2,8,B|256:150|304:161,1,90
403,264,174532,2,8,B|424:316|390:352,1,90
296,328,174932,5,8,0:0:0:0:
360,168,175132,1,8,0:0:0:0:
360,168,175232,1,8,0:0:0:0:
360,168,175332,1,8,0:0:0:0:
296,104,175532,1,8,0:0:0:0:
196,240,175732,2,8,B|172:280|108:280,1,90
72,136,176132,1,8,0:0:0:0:
135,72,176332,2,8,B|190:68|209:125,1,90
296,104,176732,5,8,0:0:0:0:
430,226,176932,1,8,0:0:0:0:
268,298,177132,1,8,0:0:0:0:
321,209,177332,1,8,0:0:0:0:
296,105,177532,5,8,0:0:0:0:
296,105,177632,1,8,0:0:0:0:
296,105,177732,2,8,B|240:105|216:57,1,90
360,57,178132,2,8,B|384:97|376:145|351:195|268:181,1,180
296,105,178732,2,8,B|308:48|376:57,1,90
443,91,179132,1,8,0:0:0:0:
305,247,179332,6,8,B|257:223|265:167,1,90
346,177,179732,1,8,0:0:0:0:
346,177,179932,1,8,0:0:0:0:
181,157,180132,2,8,B|173:162|163:215|182:277|244:313,1,180
346,177,180732,1,8,0:0:0:0:
346,177,180932,1,8,0:0:0:0:
346,177,181132,1,8,0:0:0:0:
140,316,181332,2,0,P|100:220|112:112,1,180
143,65,181932,5,0,0:0:0:0:
229,38,182132,1,0,0:0:0:0:
292,101,182332,1,0,0:0:0:0:
416,180,182532,5,0,0:0:0:0:
384,268,182732,1,0,0:0:0:0:
309,318,182932,1,0,0:0:0:0:
219,318,183132,2,0,P|168:284|144:228,1,90
118,176,183532,1,0,0:0:0:0:
35,219,183732,5,0,0:0:0:0:
125,318,183932,1,0,0:0:0:0:
256,352,184132,1,0,0:0:0:0:
387,318,184332,1,0,0:0:0:0:
477,219,184532,1,8,0:0:0:0:
