osu file format v12

[General]
AudioFilename: Faith.mp3
AudioLeadIn: 0
PreviewTime: 140847
Countdown: 0
SampleSet: Normal
StackLeniency: 0.7
Mode: 0
LetterboxInBreaks: 0

[Editor]
Bookmarks: 10247,32047
DistanceSpacing: 1
BeatDivisor: 4
GridSize: 8

[Metadata]
Title:Have Faith in Me
TitleUnicode:Have Faith in Me
Artist:A Day to Remember
ArtistUnicode:A Day to Remember
Creator:Magicphoenix
Version:Distrust
Source:
Tags:Eureka 7 Seven Renton Thurston Pocket ga Niji de Ippai Good Night Sleep Tight Young Lovers AMV Homesick MMzz MittenMasterzz
BeatmapID:166718
BeatmapSetID:54704

[Difficulty]
HPDrainRate:4
CircleSize:3
OverallDifficulty:4
ApproachRate:5
SliderMultiplier:1
SliderTickRate:1

[Events]
//Background and Video events
0,0,"Konachan.com - 25327 eureka eureka_seven renton_thurston.jpeg",0,0
Video,-150,"Amv - Faith 720p_x264.avi"
//Break Periods
2,134740,140532
//Storyboard Layer 0 (Background)
//Storyboard Layer 1 (Fail)
//Storyboard Layer 2 (Pass)
//Storyboard Layer 3 (Foreground)
//Storyboard Sound Samples
//Background Colour Transformations
3,100,163,162,255

[TimingPoints]
132,400,4,1,1,50,1,0
32132,-100,4,1,1,80,0,1
32232,-100,4,1,1,70,0,0
44932,-100,4,1,1,80,0,1
57732,-100,4,1,1,70,0,0
83332,-100,4,1,1,80,0,1
96032,-100,4,1,1,80,0,0
96132,-100,4,1,1,80,0,1
108932,-100,4,1,1,70,0,0
134532,-100,4,1,1,50,0,0
144132,-100,4,1,1,70,0,0
147332,-100,4,1,1,80,0,1
160032,-100,4,1,1,80,0,0
160132,-100,4,1,1,80,0,1
172932,-100,4,1,1,80,0,0
184532,-100,4,1,1,50,0,0

[Colours]
Combo1 : 244,140,0
Combo2 : 128,255,191
Combo3 : 193,37,245
Combo4 : 194,18,18
Combo5 : 89,98,60

[HitObjects]
24,163,6532,2,0,B|244:163,1,200,4|8,0:0|0:0,0:0:0:0:
310,212,7732,2,0,B|338:244|334:282|312:315|312:315,2,100,8|2|8,0:0|0:0|0:0,0:0:0:0:
212,235,8932,2,0,B|0:235,1,200,8|2,0:0|0:0,0:0:0:0:
56,139,10132,6,0,B|47:81|100:43,1,100,0|8,0:0|0:0,0:0:0:0:
178,98,10932,1,8,0:0:0:0:
328,228,11732,2,0,B|330:287|296:319,1,100,8|8,0:0|0:0,0:0:0:0:
191,342,12532,1,0,0:0:0:0:
92,323,12932,6,0,B|60:282|76:222,2,100,10|0|8,0:0|0:0|0:0,0:0:0:0:
162,252,14132,2,0,B|188:194|144:106|48:138,1,200,8|0,0:0|0:0,0:0:0:0:
48,36,15332,2,0,B|76:80|80:120|40:148|32:192|64:228,1,200,8|2,0:0|0:0,0:0:0:0:
147,279,16532,5,0,0:0:0:0:
244,256,16932,1,8,0:0:0:0:
268,159,17332,1,0,0:0:0:0:
436,276,18132,1,0,0:0:0:0:
342,308,18532,2,0,B|276:321|240:261|140:281,1,200,8|2,0:0|0:0,0:0:0:0:
54,224,19732,1,0,0:0:0:0:
85,129,20132,5,8,0:0:0:0:
171,78,20532,2,0,B|212:48|264:40|320:52|360:80,2,200
220,165,22532,2,0,B|244:216|220:285,2,100,2|0|8,0:0|0:0|0:0,0:0:0:0:
121,146,23732,1,8,0:0:0:0:
308,77,24532,1,8,0:0:0:0:
308,77,24932,6,0,B|363:96|368:168,1,100,8|0,0:0|0:0,0:0:0:0:
334,247,25732,2,0,B|279:228|274:156,2,100,2|0|8,0:0|0:0|0:0,0:0:0:0:
428,214,26932,2,0,B|435:269|414:328|362:345|290:331,1,200,8|0,0:0|0:0,0:0:0:0:
208,320,28132,2,0,B|112:304|64:256|64:192|64:128|112:80|208:64,1,400,8|8,0:0|0:0,0:0:0:0:
256,240,30532,6,0,B|280:192|256:140,1,100
172,192,31332,1,8,0:0:0:0:
172,192,31732,1,8,0:0:0:0:
81,149,32132,6,0,B|9:65,2,100,4|8|0,0:0|0:0|0:0,0:0:0:0:
163,92,33332,1,8,0:0:0:0:
173,193,33732,2,0,B|182:252|150:289,1,100,4|8,0:0|0:0,0:0:0:0:
80,358,34532,2,0,B|153:281|281:309,1,200,0|4,0:0|0:0,0:0:0:0:
361,280,35732,5,8,0:0:0:0:
304,193,36132,1,0,0:0:0:0:
359,109,36532,2,0,B|261:67|261:139|161:95,1,200,8|8,0:0|0:0,0:0:0:0:
93,25,37732,5,0,0:0:0:0:
65,121,38132,2,0,B|30:166|26:222|70:238|70:286|38:322,1,200,8|4,0:0|0:2,0:0:0:0:
137,352,39332,1,0,0:0:0:0:
186,264,39732,2,0,B|285:289,2,100,8|0|8,0:0|0:0|0:0,0:0:0:0:
140,174,40932,1,0,0:0:0:0:
256,192,41332,12,8,43332,0:0:0:0:
256,48,44132,5,0,0:0:0:0:
256,248,44932,6,0,B|256:352,2,100,4|0|8,0:0|0:0|0:0,0:0:0:0:
185,177,46132,2,0,B|120:160,1,50
86,164,46532,2,0,B|32:192|16:248|40:308|84:328,1,200,0|8,0:0|0:0,0:0:0:0:
145,249,47732,6,0,B|213:233|257:265,1,100,8|4,0:0|0:0,0:0:0:0:
298,338,48532,1,0,0:0:0:0:
396,318,48932,2,0,B|440:280|452:216|444:168|400:132,1,200,8|0,0:0|0:0,0:0:0:0:
311,165,50132,1,0,0:0:0:0:
240,94,50532,2,0,B|184:68,2,50,8|0|2,0:0|0:0|0:0,0:0:0:0:
184,176,51332,6,0,B|216:236|204:316|144:364,2,200,4|8|0,0:0|0:0|0:0,0:0:0:0:
101,117,53332,2,0,B|48:108|24:56,2,100,0|8|0,0:0|0:0|0:0,0:0:0:0:
171,46,54532,5,4,0:0:0:0:
256,100,54932,1,0,0:0:0:0:
341,46,55332,1,8,0:0:0:0:
341,146,55732,1,0,0:0:0:0:
257,200,56132,5,8,0:0:0:0:
257,350,56732,2,0,L|256:282,1,50
257,200,57332,1,0,0:0:0:0:
341,146,57732,1,4,0:0:0:0:
155,51,58532,6,0,B|132:115,1,50
149,146,58932,2,0,B|136:187|136:187|136:219|136:219|124:255,1,100,8|0,0:0|0:0,0:0:0:0:
177,329,59732,2,0,B|138:362|98:369|51:346|25:302|39:251,2,200,8|8|8,0:0|0:0|0:0,0:0:0:0:
247,258,61732,6,0,B|273:193,1,50
194,140,62332,2,0,B|108:160|33:93,1,150,0|8,0:0|0:0,0:0:0:0:
5,197,63332,2,0,B|-14:251|19:306,1,100,0|8,0:0|0:0,0:0:0:0:
112,317,64132,6,0,B|131:263|98:208,2,100,4|8|0,0:0|0:0|0:0,0:0:0:0:
20,286,65332,2,0,B|114:342|234:294,1,200,8|0,0:0|0:0,0:0:0:0:
246,260,66332,2,0,B|324:235|422:285|325:353|362:219|473:209|473:225,1,250
408,139,67732,1,8,0:0:0:0:
408,139,67932,2,0,B|361:148|291:101|374:92|309:162|263:162,1,150
78,110,69332,6,0,B|104:42,2,50
114,203,70132,1,8,0:0:0:0:
145,297,70532,5,4,0:0:0:0:
234,253,70932,2,0,B|259:244|292:224,1,50
293,183,71332,1,0,0:0:0:0:
298,88,71732,2,0,B|276:48|224:28|200:32,2,100,0|4|0,0:0|0:0|0:0,0:0:0:0:
211,138,72932,1,8,0:0:0:0:
144,209,73332,6,0,B|180:245|240:253|251:219|297:205|333:238,1,200
427,225,74532,1,8,0:0:0:0:
331,237,74932,2,0,B|338:291|374:335|458:335|498:299,1,200
426,224,76132,6,0,B|406:176,1,50,8|0,0:0|0:0,0:0:0:0:
371,142,76532,2,0,B|314:169|237:176|177:121|177:121,1,200
97,70,77732,5,8,0:0:0:0:
26,146,78132,1,0,0:0:0:0:
46,243,78532,1,0,0:0:0:0:
20,339,78932,1,0,0:0:0:0:
117,314,79332,1,8,0:0:0:0:
256,192,79732,12,0,80932,0:0:0:0:
256,252,81732,1,0,0:0:0:0:
256,152,82132,2,0,B|256:48,2,100
256,252,83332,5,4,0:0:0:0:
159,225,83732,1,0,0:0:0:0:
206,137,84132,2,0,B|319:137,2,100,8|0|0,0:0|0:0|0:0,0:0:0:0:
118,88,85332,2,0,B|5:88,1,100,0|8,0:0|0:0,0:0:0:0:
45,184,86132,5,0,0:0:0:0:
91,272,86532,2,0,B|87:342|137:378|208:360|232:328,1,200,4|8,0:0|0:0,0:0:0:0:
258,235,87732,1,0,0:0:0:0:
187,164,88132,2,0,B|220:110|290:124,1,100
356,173,88932,2,0,B|375:229|342:278,2,100,8|8|4,0:0|0:0|0:0,0:0:0:0:
356,72,90132,5,0,0:0:0:0:
263,109,90532,2,0,B|216:144|168:128,1,100,8|0,0:0|0:0,0:0:0:0:
98,57,91332,2,0,B|29:136|80:236|120:240,1,200,0|8,0:0|0:0,0:0:0:0:
206,235,92532,1,0,0:0:0:0:
249,325,92932,6,0,B|300:332|355:272|448:268,2,200,4|8|8,0:0|0:0|0:0,0:0:0:0:
107,183,95332,2,0,B|190:179|245:119|296:126,1,200,8|4,0:0|0:0,0:0:0:0:
391,157,96532,5,0,0:0:0:0:
391,157,96732,1,0,0:0:0:0:
391,157,96932,2,0,B|356:264,1,100,8|0,0:0|0:0,0:0:0:0:
268,292,97732,2,0,B|188:336|113:297|96:216,2,200,0|8|4,0:0|0:0|0:0,0:0:0:0:
268,192,99732,6,0,B|256:120,1,50
232,101,100132,2,0,B|196:81|148:87|120:121,1,100,8|0,0:0|0:0,0:0:0:0:
167,200,100932,1,0,0:0:0:0:
268,192,101332,1,0,0:0:0:0:
320,276,101732,2,0,B|351:328|412:320,1,100,8|8,0:0|0:0,0:0:0:0:
403,220,102532,5,4,0:0:0:0:
311,180,102932,2,0,B|252:192,1,50
236,233,103332,2,0,B|137:204,1,100,8|0,0:0|0:0,0:0:0:0:
119,106,104132,2,0,B|214:134,1,100
309,99,104932,1,8,0:0:0:0:
287,196,105332,1,0,0:0:0:0:
357,266,105732,6,0,B|407:302|468:260,2,100,4|0|8,0:0|0:0|0:0,0:0:0:0:
260,291,106932,2,0,B|210:255|149:297,1,100
59,180,107932,1,0,0:0:0:0:
59,180,108132,2,0,B|123:207|206:176|240:108,1,200,0|4,0:0|0:0,0:0:0:0:
455,203,109732,6,0,B|374:261,1,100,8|0,0:0|0:0,0:0:0:0:
286,308,110532,2,0,B|260:324|216:324|180:280|128:284|76:328,2,200,0|8|4,0:0|0:0|0:0,0:0:0:0:
263,210,112532,2,0,B|234:167|247:113,1,100,0|8,0:0|0:0,0:0:0:0:
334,66,113332,2,0,B|363:109|350:163,1,100
264,208,114132,1,0,0:0:0:0:
264,208,114532,2,0,B|282:231|316:226|345:202|383:200|413:218,2,150,8|0|0,0:0|0:0|0:0,0:0:0:0:
212,123,116132,5,8,0:0:0:0:
141,52,116532,2,0,B|96:88|112:148,1,100
280,247,117732,1,8,0:0:0:0:
280,247,117932,2,0,B|267:346|181:346|181:346,1,150,0|4,0:0|0:0,0:0:0:0:
184,245,118932,2,0,B|182:190|239:152,1,100,0|8,0:0|0:0,0:0:0:0:
369,110,119932,6,0,B|432:84,1,50
415,191,120532,2,0,B|308:232,2,100,0|8|8,0:0|0:0|0:0,0:0:0:0:
485,261,121732,2,0,B|284:336,1,200,4|8,0:0|0:0,0:0:0:0:
200,307,122932,5,0,0:0:0:0:
102,329,123332,1,0,0:0:0:0:
48,248,123732,2,0,B|43:202|59:170|91:146|123:138|139:90|139:74,1,200,0|0,0:0|0:0,0:0:0:0:
42,80,124932,2,0,B|41:92|57:140|89:148|121:172|137:204|132:250,1,200,4|8,0:0|0:0,0:0:0:0:
131,50,126532,5,0,0:0:0:0:
131,50,126932,1,0,0:0:0:0:
229,43,127332,2,0,B|225:94|312:176|311:83|227:167|236:228,1,200,8|4,0:0|0:0,0:0:0:0:
264,309,128532,2,0,B|296:348|360:336,1,100,0|8,0:0|0:0,0:0:0:0:
326,240,129332,2,0,B|294:201|230:213,1,100
398,97,130532,5,8,0:0:0:0:
372,140,130732,2,0,P|302:139|283:117,1,100
262,76,131332,2,0,P|218:41|126:45,1,150,4|0,0:0|0:0,0:0:0:0:
127,44,132132,2,0,P|156:116|144:192,1,150,8|0,0:0|0:0,0:0:0:0:
119,229,132932,2,0,L|208:280,2,100,8|8|2,0:0|0:0|0:0,0:0:0:0:
33,176,134132,2,0,P|45:131|18:62,1,100,8|4,0:0|0:0,0:0:0:0:
256,44,141732,5,8,0:0:0:0:
256,144,142132,2,0,B|208:240|304:240|256:348,2,200,0|2|0,0:0|0:0|0:0,0:0:0:0:
256,44,144132,5,4,0:0:0:0:
256,44,144332,1,8,0:0:0:0:
180,192,147332,6,0,B|192:144|256:112|320:144|332:192,2,200,4|0|0,0:0|0:0|0:0,0:0:0:0:
208,296,149332,2,0,B|256:320|304:296,2,100,0|8|0,0:0|0:0|0:0,0:0:0:0:
256,208,150532,6,0,B|256:96,1,100,4|0,0:0|0:0,0:0:0:0:
344,61,151332,2,0,B|344:272,1,200,8|0,0:0|0:0,0:0:0:0:
433,305,152532,1,0,0:0:0:0:
349,360,152932,1,8,0:0:0:0:
259,314,153332,1,0,0:0:0:0:
259,314,153732,6,0,B|202:332|138:316|114:243|122:203,1,200,4|8,0:0|0:0,0:0:0:0:
191,144,154932,2,0,B|240:104|240:48,1,100
334,90,155732,1,0,0:0:0:0:
428,124,156132,1,8,0:0:0:0:
477,317,156932,6,0,B|384:368,1,100,4|0,0:0|0:0,0:0:0:0:
298,321,157732,2,0,B|256:320|240:288|184:288,1,100,8|0,0:0|0:0,0:0:0:0:
112,248,158532,2,0,B|90:179|107:112|170:59,2,200,0|8|4,0:0|0:0|0:0,0:0:0:0:
168,330,160532,6,0,B|214:342|214:310|270:334,1,100,0|4,0:0|0:0,0:0:0:0:
361,361,161332,2,0,P|403:339|440:296,1,100
460,202,162132,1,0,0:0:0:0:
406,117,162532,1,12,0:0:0:0:
321,62,162932,6,0,B|267:103,1,50,0|8,0:0|0:0,0:0:0:0:
251,132,163332,2,0,B|148:159,1,100,0|0,0:0|0:0,0:0:0:0:
120,252,164132,2,0,B|107:143|8:84,1,200,12|0,0:0|0:0,0:0:0:0:
107,47,165332,1,4,0:0:0:0:
107,47,165732,2,0,B|144:72|176:136,1,100,12|0,0:0|0:0,0:0:0:0:
195,220,166532,6,0,B|216:312|304:328|360:296,1,200,4|8,0:0|0:0,0:0:0:0:
436,255,167732,2,0,B|480:216|464:152,1,100
422,74,168532,2,0,B|391:28|320:40,2,100,0|8|0,0:0|0:0|0:0,0:0:0:0:
351,144,169732,5,4,0:0:0:0:
260,187,170132,1,0,0:0:0:0:
164,216,170532,1,8,0:0:0:0:
65,234,170932,1,0,0:0:0:0:
102,141,171332,6,0,B|170:107|192:16,1,150,0|8,0:0|0:0,0:0:0:0:
235,46,172132,2,0,B|271:131|383:123|415:107,1,200,0|4,0:0|0:0,0:0:0:0:
488,167,173332,5,0,0:0:0:0:
428,242,173732,2,0,B|376:295|301:304|235:254,1,200,8|0,0:0|0:0,0:0:0:0:
316,190,174932,2,0,B|256:176|233:238|225:302|154:298|154:298,1,200
69,249,176132,5,0,0:0:0:0:
82,154,176532,2,0,B|102:85,1,50
138,78,176932,1,0,0:0:0:0:
228,120,177332,2,0,B|281:142|344:116,1,100
412,73,178132,1,0,0:0:0:0:
488,134,178532,1,0,0:0:0:0:
397,177,178932,6,0,B|380:236|404:284,1,100
308,315,179732,2,0,B|200:344,1,100
118,303,180532,2,0,B|69:263|68:182|116:128|144:128,2,200
209,262,182532,6,0,B|229:308|293:308,1,100
379,259,183332,2,0,B|429:225|424:156,1,100
387,81,184132,1,0,0:0:0:0:
351,45,184332,1,0,0:0:0:0:
301,36,184532,1,8,0:0:0:0:
