osu file format v9

[General]
AudioFilename: A Channel -Humming Girl- [-Sekai-].mp3
AudioLeadIn: 1000
PreviewTime: 44660
Countdown: 0
SampleSet: Soft
StackLeniency: 0.7
Mode: 0
LetterboxInBreaks: 0

[Editor]
DistanceSpacing: 0.8
BeatDivisor: 3
GridSize: 8

[Metadata]
Title:Humming Girl (TV Size)
Artist:A Channel Cast
Creator:-Sekai-
Version:Normal
Source:A Channel
Tags:Nyquill Byakugan249 ending Miya bossandy

[Difficulty]
HPDrainRate:4
CircleSize:4
OverallDifficulty:3
ApproachRate:4
SliderMultiplier:1.6
SliderTickRate:1

[Events]
//Background and Video events
Video,0,"A Channel -Humming Girl-~.avi"
0,0,"503018 copy.jpg"
//Break Periods
//Storyboard Layer 0 (Background)
//Storyboard Layer 1 (Fail)
//Storyboard Layer 2 (Pass)
//Storyboard Layer 3 (Foreground)
//Storyboard Sound Samples
//Background Colour Transformations
3,100,163,162,255

[TimingPoints]
1024,454.545454545455,4,2,1,60,1,0
9092,-100,4,1,2,60,0,0
9887,-100,4,2,1,60,0,0
16024,-100,4,2,1,60,0,0
28069,-100,4,2,2,60,0,0
29887,-100,4,2,0,60,0,0
30796,-100,4,1,2,60,0,0
31705,-100,4,2,1,60,0,0
32728,-100,4,1,2,60,0,0
33524,-100,4,2,1,60,0,0
36251,-100,4,1,1,60,0,0
36705,-100,4,1,2,60,0,0
37160,-100,4,2,1,60,0,0
37614,-100,4,1,1,60,0,0
38069,-100,4,1,2,60,0,0
38978,-100,4,2,1,60,0,0
39887,-100,4,1,2,60,0,0
40796,-100,4,2,1,60,0,0
44660,-100,4,2,1,50,0,1
44811,-100,4,2,1,60,0,1
46478,-149.253731343284,4,1,2,60,0,1
47387,-149.253731343284,4,1,1,60,0,1
47842,-100,4,1,1,60,0,1
48145,-100,4,1,0,40,0,1
48448,-100,4,1,2,60,0,1
50114,-100,4,1,2,60,0,1
51024,-100,4,1,1,60,0,1
51478,-100,4,1,2,40,0,1
51781,-100,4,1,0,60,0,1
52046,-100,4,1,1,60,0,1
54887,-100,4,2,1,60,0,1
55342,-100,4,2,1,60,0,1
57387,-100,4,2,1,60,0,0
58599,-100,4,2,1,50,0,0
59205,-100,4,2,1,60,0,1
61251,-100,4,1,2,60,0,1
61933,-100,4,1,1,60,0,1
62387,-100,4,1,2,60,0,1
62614,-100,4,2,1,60,0,1
64660,-149.253731343284,4,1,2,60,0,1
65114,-149.253731343284,4,1,1,60,0,1
65569,-149.253731343284,4,1,1,60,0,1
66175,-100,4,2,1,60,0,1
66327,-100,4,2,0,60,0,1
66630,-100,4,2,1,60,0,1
73751,-100,4,2,0,60,0,0

[Colours]
Combo1 : 255,85,85
Combo2 : 238,150,245
Combo3 : 89,108,238
Combo4 : 244,249,60
SliderBorder : 255,255,255

[HitObjects]
136,72,1024,1,2
136,72,1478,2,0,B|224:136|176:240,2,160,8|2|8
64,176,2842,1,2
88,304,3296,1,8
88,304,3751,2,0,B|152:328|192:288|192:288|256:280,2,160,2|8|2
80,176,5114,5,8
80,48,5569,1,2
184,112,6024,2,0,B|216:144|256:112|256:112|296:144|328:112,2,160,10|2|10
184,240,7387,1,2
296,304,7842,2,0,B|352:296|352:192|296:176,2,160,8|2|8
168,320,9205,1,2
168,192,9660,1,8
264,112,10114,6,0,B|244:67|308:51|308:51|356:107,1,160,0|8
408,224,11024,2,0,B|454:278|454:278|518:262|498:218,1,160,2|8
480,88,11933,1,2
368,144,12387,1,8
368,272,12842,1,0
368,272,13296,2,0,B|312:312|256:256|192:288,2,160,8|0|8
288,168,14660,1,0
368,64,15114,2,0,B|312:24|256:80|192:48,2,160,8|4|8
360,192,16478,5,0
304,304,16933,1,8
176,304,17387,1,0
184,176,17842,2,0,B|178:122|237:95|280:134|277:174,1,160,8|0
400,208,18751,2,0,B|394:261|453:288|496:249|493:209,2,160,8|0|8
392,80,20114,5,0
272,32,20569,1,8
144,56,21024,2,0,B|168:128|128:160|128:160|128:224,1,160,0|8
232,288,21933,2,0,B|272:320|336:272|400:312,2,160,0|8|0
248,160,23296,1,8
256,32,23751,5,0
248,160,24205,1,8
128,144,24660,2,0,B|72:176|96:248|96:248|56:272,1,160,0|8
176,208,25569,1,0
176,208,26024,1,8
256,192,26478,12,0,27842
256,184,28296,5,2
328,328,28751,1,2
168,328,29205,1,2
168,328,29660,2,0,B|120:312|168:216|96:184,1,160,8|4
184,72,30569,5,2
264,104,30872,2,0,B|320:144,1,53.3333333333333
368,248,31478,1,2
256,304,31933,6,0,B|160:352|80:296,1,160,0|0
120,224,32690,1,0
112,96,33145,1,2
112,96,33296,1,4
224,136,33751,2,0,B|224:72|328:72|328:152,2,160,0|8|0
256,264,35114,5,0
384,280,35569,1,8
384,152,36024,1,0
288,64,36478,2,0,B|208:64|208:128|128:128,1,160,8|2
104,248,37387,5,8
96,336,37690,2,0,B|120:368|176:352,1,53.3333333333333
184,280,38145,2,0,B|184:208|216:176|272:168,1,160,0|2
336,320,39205,5,8
416,344,39508,2,0,B|416:272|384:240|328:232,1,160,0|2
256,128,40417,1,2
192,344,41024,5,0
192,216,41478,1,8
64,216,41933,1,0
80,88,42387,2,0,B|144:40|232:48,1,160,8|0
352,80,43296,2,0,B|312:152|200:152,2,160,8|0|8
472,24,44660,5,4
488,152,45114,1,8
456,272,45569,1,2
336,224,46024,1,8
240,168,46478,2,0,B|193:167|131:173|97:201|108:275|221:286|238:213|210:162|108:167,1,321.600011501313,0|8
200,72,48296,5,4
328,96,48751,1,8
432,176,49205,1,0
440,264,49508,2,0,B|456:288|440:328,1,53.3333333333333,0|8
312,320,50114,2,0,B|312:240|160:208|144:152|136:40|256:8|376:40|368:152|352:208|200:240|200:320,1,640,0|4
88,256,52387,5,8
56,128,52842,1,0
184,160,53296,1,8
184,32,53751,1,0
288,104,54205,2,0,B|288:168|344:176|344:176|344:248,1,160,8|0
368,104,55114,1,8
424,216,55569,5,0
368,328,56024,1,8
240,328,56478,1,0
112,328,56933,1,8
120,200,57387,2,0,B|88:144|168:112|120:32,2,160,0|8|0
248,192,58751,1,8
336,280,59205,5,4
352,152,59660,1,8
248,192,60114,1,0
176,296,60569,1,8
80,192,61024,2,0,B|40:152|48:64|136:32|216:40|256:120|256:120|296:40|376:32|464:64|472:152|432:192,1,640,0|0
368,328,63296,5,8
304,216,63751,1,0
240,104,64205,1,8
304,216,64660,2,0,B|352:296|288:374|152:358|128:256|192:192,1,321.600011501313,0|8
176,96,66478,5,4
240,208,66933,1,8
312,104,67387,1,0
376,216,67842,1,8
456,112,68296,2,0,B|424:32|328:24,2,160,0|8|0
456,240,69660,6,0,B|424:320|328:328,2,160,8|4|8
352,168,71024,2,0,B|304:96|208:96,1,160,0|8
176,216,71933,1,4
384,64,72842,1,4
384,320,73751,1,0
256,312,74205,6,0,B|256:144,1,160,2|0
144,216,75114,2,0,B|136:112|232:80,2,160,2|0|2
152,344,76478,1,0
280,344,76933,1,0
408,336,77387,6,0,B|464:280|448:176,2,160,2|0|2
328,232,78751,1,0
328,104,79205,1,2
224,176,79660,1,0
232,48,80114,2,0,B|192:96|192:96|128:112|144:200,1,160,2|0
136,296,81024,2,0,B|176:248|176:248|240:232|224:144,2,160,2|0|2
264,336,82387,5,0
392,336,82842,1,2
328,224,83296,1,0
448,176,83751,2,0,B|448:104|448:104|400:80|400:16,2,160,2|0|2
328,120,85114,2,0,B|328:192|328:192|280:216|280:280,2,160,0|2|0
184,104,86478,5,2
184,232,86933,1,0
184,232,87236,2,0,B|240:200,1,53.3333333333333
288,96,87842,2,0,B|344:104|360:168,1,106.666666666667,4|4
