osu file format v14

[General]
AudioFilename: With You With Me.mp3
AudioLeadIn: 0
PreviewTime: 60924
Countdown: 0
SampleSet: Soft
StackLeniency: 0.7
Mode: 0
LetterboxInBreaks: 0
WidescreenStoryboard: 0

[Editor]
DistanceSpacing: 1.1
BeatDivisor: 4
GridSize: 4
TimelineZoom: 1

[Metadata]
Title:With You / With Me
TitleUnicode:With You / With Me
Artist:9nine
ArtistUnicode:9nine
Creator:Modem
Version:Easy
Source:マギ The kingdom of magic
Tags:Tasuku 佐武宇綺 西脇彩華 吉井香奈恵 川島海荷 村田寛奈 Satake Uki Nishiwaki Sayaka Yoshii Kanae Kawashima Umika Murata Hirona Hinsvar Xinely Giralda second season ending
BeatmapID:675568
BeatmapSetID:301246

[Difficulty]
HPDrainRate:2
CircleSize:3
OverallDifficulty:2
ApproachRate:2
SliderMultiplier:0.8
SliderTickRate:1

[Events]
//Background and Video events
0,0,"bg3.jpg",0,0
//Break Periods
2,45331,47364
2,179839,191364
2,206638,211935
//Storyboard Layer 0 (Background)
//Storyboard Layer 1 (Fail)
//Storyboard Layer 2 (Pass)
//Storyboard Layer 3 (Foreground)
//Storyboard Sound Samples

[TimingPoints]
5898,454.545454545455,4,2,2,40,1,0
34988,451.127819548872,4,2,3,50,1,0
35439,-100,4,2,8,50,0,0
35890,-100,4,2,3,50,0,0
36792,448.598130841121,4,2,3,50,1,0
38586,445.269016697588,4,2,3,50,1,0
39031,-100,4,2,8,50,0,0
39476,-100,4,2,3,50,0,0
40367,439.56043956044,4,2,3,50,1,0
40806,-100,4,2,8,50,0,0
41246,438.756855575868,4,2,3,50,1,0
42123,431.654676258993,4,2,3,50,1,0
42554,-100,4,2,8,50,0,0
42770,-100,4,2,1,50,0,0
42986,430.10752688172,4,2,1,50,1,0
43416,-100,4,2,3,50,0,0
43846,428.571428571429,4,2,3,50,1,0
44274,-100,4,2,8,50,0,0
44488,-100,4,2,1,50,0,0
45131,474.214582098399,4,2,3,50,1,0
48924,428.571428571429,4,2,1,60,1,0
52781,-100,4,2,6,60,0,0
53209,-100,4,2,1,60,0,0
54495,-100,4,2,6,60,0,0
54924,-100,4,2,1,60,0,0
56209,-100,4,2,6,60,0,0
56638,-100,4,2,1,60,0,0
57924,-100,4,2,6,60,0,0
58352,-100,4,2,1,60,0,0
59209,-100,4,2,1,15,0,0
60924,-100,4,2,1,60,0,0
62638,-100,4,2,1,85,0,1
63066,-100,4,2,7,75,0,1
63495,-100,4,2,1,85,0,1
64781,-100,4,2,7,75,0,1
65209,-100,4,2,1,85,0,1
66495,-100,4,2,7,75,0,1
66924,-100,4,2,1,85,0,1
67352,-100,4,2,7,75,0,1
67781,-100,4,2,1,55,0,1
68209,-100,4,2,1,85,0,1
69924,-100,4,2,7,75,0,1
70352,-100,4,2,1,85,0,1
71638,-100,4,2,7,75,0,1
72066,-100,4,2,1,85,0,1
73352,-100,4,2,7,75,0,1
73566,-100,4,2,1,85,0,1
73781,-100,4,2,6,65,0,1
74209,-100,4,2,1,85,0,1
75066,-100,4,2,7,75,0,1
75281,-100,4,2,1,85,0,1
75495,-100,4,2,6,65,0,1
75924,-100,4,2,1,85,0,0
76352,-100,4,2,1,65,0,1
76781,-100,4,2,1,85,0,1
78495,-100,4,2,7,75,0,1
78924,-100,4,2,1,85,0,1
83638,-100,4,2,7,75,0,1
84066,-100,4,2,1,85,0,1
85352,-100,4,2,7,75,0,1
85781,-100,4,2,1,85,0,1
86209,-100,4,2,7,75,0,1
86638,-100,4,2,1,85,0,1
90066,-100,4,2,2,55,0,0
93495,-100,4,2,2,15,0,0
96924,-100,4,2,1,60,0,0
100781,-100,4,2,6,50,0,0
101209,-100,4,2,1,60,0,0
102495,-100,4,2,6,50,0,0
102924,-100,4,2,1,60,0,0
104209,-100,4,2,6,50,0,0
104638,-100,4,2,1,60,0,0
108495,-100,4,2,6,50,0,0
109781,-100,4,2,1,60,0,0
111066,-100,4,2,6,50,0,0
111924,-100,4,2,1,60,0,0
112781,-100,4,2,6,50,0,0
113638,-100,4,2,1,60,0,0
114495,-100,4,2,6,50,0,0
114709,-100,4,2,1,60,0,0
114924,-100,4,2,6,50,0,0
115352,-100,4,2,1,60,0,0
117495,-100,4,2,5,70,0,0
117924,-100,4,2,9,70,0,0
118352,-100,4,2,5,70,0,0
122209,-100,4,2,9,60,0,0
122638,-100,4,2,6,60,0,0
123066,-100,4,2,9,60,0,0
123495,-100,4,2,5,70,0,0
124781,-100,4,2,9,60,0,0
124995,-100,4,2,5,70,0,0
125209,-100,4,2,6,60,0,0
125638,-100,4,2,5,70,0,0
126495,-100,4,2,9,60,0,0
126709,-100,4,2,5,70,0,0
126924,-100,4,2,6,60,0,0
127352,-100,4,2,5,70,0,0
127781,-100,4,2,1,55,0,0
128209,-100,4,2,9,60,0,0
128638,-100,4,2,1,55,0,0
129066,-100,4,2,5,70,0,0
129495,-100,4,2,1,55,0,0
129924,-100,4,2,9,60,0,0
130138,-100,4,2,5,70,0,0
131209,-100,4,2,5,75,0,0
135066,-100,4,2,9,60,0,0
135495,-100,4,2,5,75,0,0
138495,-100,4,2,9,60,0,0
138924,-100,4,2,5,75,0,0
139781,-100,4,2,5,65,0,0
140209,-100,4,2,9,60,0,0
140638,-100,4,2,5,75,0,0
141495,-100,4,2,1,15,0,0
143209,-100,4,2,5,75,0,0
144924,-100,4,2,1,85,0,1
145352,-100,4,2,7,75,0,1
145781,-100,4,2,1,85,0,1
147066,-100,4,2,7,75,0,1
147495,-100,4,2,1,85,0,1
148781,-100,4,2,7,75,0,1
149209,-100,4,2,1,85,0,1
149638,-100,4,2,7,75,0,1
150066,-100,4,2,1,55,0,1
150495,-100,4,2,1,85,0,1
152209,-100,4,2,7,75,0,1
152638,-100,4,2,1,85,0,1
153924,-100,4,2,7,75,0,1
154352,-100,4,2,1,85,0,1
155638,-100,4,2,7,75,0,1
155852,-100,4,2,1,85,0,1
156066,-100,4,2,6,65,0,1
156495,-100,4,2,1,85,0,1
157352,-100,4,2,7,75,0,1
157566,-100,4,2,1,85,0,1
157781,-100,4,2,6,85,0,1
158209,-100,4,2,1,85,0,0
158638,-100,4,2,1,85,0,1
160781,-100,4,2,7,75,0,1
161209,-100,4,2,1,85,0,1
165924,-100,4,2,7,75,0,1
166352,-100,4,2,1,85,0,1
167638,-100,4,2,7,75,0,1
168066,-100,4,2,1,85,0,1
168495,-100,4,2,7,75,0,1
168924,-100,4,2,1,85,0,1
171495,-100,4,2,1,85,0,0
172352,-100,4,2,1,85,0,1
172781,-100,4,2,7,75,0,1
173209,-100,4,2,1,85,0,1
174495,-100,4,2,7,75,0,1
174924,-100,4,2,1,85,0,1
176209,-100,4,2,7,75,0,1
176638,-100,4,2,1,85,0,1
177495,-100,4,2,1,85,0,0
193352,-100,4,2,7,70,0,0
193781,-100,4,2,6,60,0,0
194209,-100,4,2,1,85,0,0
195066,-100,4,2,7,70,0,0
195495,-100,4,2,6,60,0,0
195924,-100,4,2,1,85,0,0
196781,-100,4,2,7,70,0,0
197209,-100,4,2,6,60,0,0
197638,-100,4,2,1,85,0,0
198495,-100,4,2,7,70,0,0
198924,-100,4,2,6,60,0,0
199352,-100,4,2,1,85,0,0
200209,-100,4,2,7,70,0,0
200638,-100,4,2,6,60,0,0
201066,-100,4,2,1,85,0,0
201924,-100,4,2,7,70,0,0
202352,-100,4,2,6,60,0,0
202781,-100,4,2,1,65,0,0
203209,-100,4,2,1,15,0,0
213495,-100,4,2,4,45,0,0
215209,-100,4,2,4,50,0,0
216924,-100,4,2,4,15,0,0
218638,-100,4,2,4,20,0,0
222066,-100,4,2,1,85,0,1
222495,-100,4,2,7,75,0,1
222924,-100,4,2,1,85,0,1
224209,-100,4,2,7,75,0,1
224638,-100,4,2,1,85,0,1
225924,-100,4,2,7,75,0,1
226352,-100,4,2,1,85,0,1
226781,-100,4,2,7,75,0,1
227209,-100,4,2,1,55,0,1
227638,-100,4,2,1,85,0,1
228066,-100,4,2,6,65,0,1
228495,-100,4,2,1,85,0,1
229352,-100,4,2,7,75,0,1
229781,-100,4,2,1,85,0,1
231066,-100,4,2,7,75,0,1
231495,-100,4,2,1,85,0,1
232781,-100,4,2,7,75,0,1
232995,-100,4,2,1,85,0,1
233209,-100,4,2,6,65,0,1
233638,-100,4,2,1,85,0,1
234495,-100,4,2,7,75,0,1
234709,-100,4,2,1,85,0,1
234924,-100,4,2,6,65,0,1
235352,-100,4,2,1,85,0,0
235781,-100,4,2,1,85,0,1
237924,-100,4,2,7,75,0,1
238352,-100,4,2,1,85,0,1
241352,-100,4,2,7,75,0,1
241781,-100,4,2,1,85,0,1
243066,-100,4,2,7,75,0,1
243495,-100,4,2,1,85,0,1
244781,-100,4,2,7,75,0,1
245209,-100,4,2,1,85,0,1
245638,-100,4,2,7,75,0,1
246066,-100,4,2,1,85,0,1
248638,-100,4,2,1,85,0,0
249495,-100,4,2,1,65,0,1
249924,-100,4,2,7,75,0,1
250352,-100,4,2,1,85,0,1
251638,-100,4,2,7,75,0,1
252066,-100,4,2,1,85,0,1
253352,-100,4,2,7,75,0,1
253781,-100,4,2,1,85,0,1
255066,-100,4,2,7,75,0,1
255495,-100,4,2,1,85,0,1
255924,-100,4,2,1,85,0,0
256352,-100,4,2,1,65,0,1
256781,-100,4,2,1,85,0,1
259781,-100,4,2,1,75,0,1
260209,-100,4,2,7,75,0,1
260638,-100,4,2,6,65,0,1
261066,-100,4,2,7,75,0,1
261495,-100,4,2,1,85,0,1
262352,-100,4,2,6,65,0,1
262781,-100,4,2,1,85,0,1
263209,-100,4,2,2,50,0,0
266638,-100,4,2,1,65,0,0

[Colours]
Combo1 : 255,133,74
Combo2 : 255,128,192
Combo3 : 255,0,128
Combo4 : 255,255,106
Combo5 : 125,190,255
SliderBorder : 0,242,242

[HitObjects]
72,168,5898,6,0,B|96:212|144:212|144:212|128:256|128:304|176:340|208:336,1,240,4|0,0:0|0:0,0:0:0:0:
220,252,7716,2,0,B|240:196|224:144|176:128|148:128|148:128|148:52,1,240,4|0,0:0|0:0,0:0:0:0:
236,64,9534,2,0,B|284:92|304:132|316:176|316:176|352:144|392:148|424:152,1,240,4|0,0:0|0:0,0:0:0:0:
452,228,11352,2,0,P|420:296|268:328,1,240,4|0,0:0|0:0,0:0:0:0:
188,296,13170,6,0,P|132:256|128:192,2,120,4|2|0,0:0|0:0|0:0,0:0:0:0:
208,212,14988,2,0,P|193:155|143:124,2,120,4|2|0,0:0|0:0|0:0,0:0:0:0:
296,212,16807,2,0,P|310:155|368:124,2,120,4|2|0,0:0|0:0|0:0,0:0:0:0:
380,208,18625,2,0,P|365:264|315:295,2,120,4|2|0,0:0|0:0|0:0,0:0:0:0:
380,120,20443,6,0,P|332:56|244:68,1,160,4|2,0:0|0:0,0:0:0:0:
296,136,21807,2,0,L|228:200,1,80,0|2,0:0|0:0,0:0:0:0:
148,196,22716,2,0,B|160:236|148:276|148:276|184:268|228:284,1,160
308,316,24079,2,0,L|388:260,1,80,4|0,0:0|0:0,0:0:0:0:
296,228,24988,2,0,B|348:192|348:192|388:188|388:188|452:148,2,160,2|2|2,0:0|0:0|0:0,0:0:0:0:
148,324,27716,5,4,0:0:0:0:
88,260,28170,2,0,P|64:228|64:172,1,80,0|2,0:0|0:0,0:0:0:0:
116,124,29079,2,0,P|139:155|144:194,1,80,0|2,0:0|0:0,0:0:0:0:
212,252,29988,1,0,0:0:0:0:
276,192,30443,2,0,B|304:148|304:148|344:168|384:160|416:136,1,160,2|4,0:0|0:0,0:0:0:0:
456,216,31807,6,0,L|408:300,1,80,0|2,0:0|0:0,0:0:0:0:
352,348,32716,1,0,0:0:0:0:
280,296,33170,2,0,P|260:328|204:340,1,80,4|0,0:0|0:0,0:0:0:0:
140,304,34079,2,0,P|160:272|216:260,1,80,0|2,0:0|0:0,0:0:0:0:
212,172,34988,6,0,P|284:156|316:68,1,160,2|2,0:0|0:0,0:0:0:0:
232,88,36341,1,8,0:0:0:0:
160,36,36792,2,0,L|76:76,1,80,2|8,0:0|0:0,0:0:0:0:
124,152,37689,2,0,L|40:192,1,80,2|8,0:0|0:0,0:0:0:0:
60,276,38586,6,0,P|100:320|204:304,1,160,2|2,0:0|0:0,0:0:0:0:
140,244,39921,1,8,0:0:0:0:
228,236,40367,2,0,B|264:248|284:284|280:324|280:324|316:336|340:344,1,160,2|2,0:0|0:0,0:0:0:0:
412,320,41684,1,8,0:0:0:0:
444,236,42123,6,0,P|476:188|460:116,2,120,2|2|8,0:0|0:0|0:0,0:0:0:0:
392,168,43846,2,0,P|384:109|416:60,2,120,2|2|4,0:0|0:0|0:0,0:0:0:0:
60,52,48924,6,0,P|52:96|68:136,1,80,6|2,0:0|1:2,0:0:0:0:
144,164,49781,2,0,P|152:120|136:80,1,80,2|2,0:0|1:2,0:0:0:0:
224,56,50638,2,0,L|316:56,1,80,2|2,0:0|1:2,0:0:0:0:
348,132,51495,2,0,L|440:132,1,80,2|2,0:0|1:2,0:0:0:0:
472,208,52352,6,0,P|452:276|356:296,1,160,2|2,0:0|0:0,0:0:0:0:
384,212,53638,1,2,1:2:0:0:
304,244,54066,2,0,B|232:280|232:280|152:240,1,160,2|2,0:0|0:0,0:0:0:0:
72,256,55352,1,2,1:2:0:0:
28,180,55781,6,0,P|56:132|44:28,1,160,6|10,0:0|0:3,0:0:0:0:
220,32,57495,2,0,P|204:109|237:180,1,160,6|10,0:0|0:3,0:0:0:0:
256,192,59209,12,2,60924,0:0:0:0:
256,192,62638,6,0,P|244:248|308:320,1,160,6|2,0:0|0:0,0:0:0:0:
332,236,63924,1,8,0:0:0:0:
408,280,64352,2,0,P|420:224|356:152,1,160,10|10,0:1|0:1,0:0:0:0:
348,64,65638,1,8,0:0:0:0:
260,72,66066,2,0,B|220:84|180:72|180:72|188:108|172:152,2,160,4|2|2,0:1|0:1|0:1,0:0:0:0:
260,160,68209,6,0,L|312:224,1,80,8|2,0:0|0:0,0:0:0:0:
376,284,69066,1,8,0:0:0:0:
296,324,69495,2,0,P|192:336|140:296,1,160,10|2,0:3|0:0,0:0:0:0:
80,256,70781,1,8,0:0:0:0:
156,208,71209,6,0,B|140:176|104:156|52:168|52:168|12:132,1,160,10|10,0:3|0:3,0:0:0:0:
72,68,72495,1,8,0:0:0:0:
160,64,72924,2,0,P|220:48|276:76,2,120,10|2|8,0:1|0:1|0:0,0:0:0:0:
212,136,74638,2,0,P|272:160|328:136,2,120,10|2|8,0:1|0:1|0:0,0:0:0:0:
140,188,76352,6,0,L|176:272,1,80,6|8,0:0|0:0,0:0:0:0:
84,260,77209,2,0,L|120:344,1,80,10|8,0:1|0:0,0:0:0:0:
204,344,78066,2,0,P|280:336|320:252,1,160,2|2,0:0|0:0,0:0:0:0:
232,260,79352,1,8,0:0:0:0:
284,188,79781,6,0,L|244:104,2,80,10|8|10,0:1|0:0|0:1,0:0:0:0:
232,260,81066,1,8,0:0:0:0:
152,224,81495,2,0,P|120:192|84:184,1,80,2|8,0:0|0:0,0:0:0:0:
76,272,82352,2,0,P|108:304|144:312,1,80,2|8,0:0|0:0,0:0:0:0:
224,336,83209,6,0,P|304:336|356:272,1,160,10|2,0:3|0:0,0:0:0:0:
416,216,84495,1,8,0:0:0:0:
412,128,84924,2,0,B|364:136|344:160|332:192|332:192|272:192,2,160,10|10|10,0:3|0:3|0:3,0:0:0:0:
380,48,87066,2,0,P|328:68|300:92,1,80,8|2,0:0|0:0,0:0:0:0:
228,120,87924,1,8,0:0:0:0:
148,84,88352,6,0,P|115:61|77:49,1,80,2|8,0:1|0:0,0:0:0:0:
16,112,89209,2,0,P|28:149|50:182,1,80,2|8,0:1|0:0,0:0:0:0:
116,244,90066,2,0,B|148:264|172:296|172:296|212:276|252:296|252:296|272:260|316:240,1,240,4|0,0:0|0:0,0:0:0:0:
236,196,91781,2,0,B|264:168|316:160|316:160|264:120|272:84|264:52|288:12,1,240,4|0,0:0|0:0,0:0:0:0:
256,192,93495,12,0,95209,0:0:0:0:
56,256,96924,6,0,B|56:296|56:296|80:340,1,80,10|2,0:1|0:0,0:0:0:0:
144,276,97781,2,0,B|144:236|144:236|120:192,1,80,2|2,0:0|0:0,0:0:0:0:
172,124,98638,2,0,B|212:124|212:124|256:100,1,80,10|2,0:1|0:0,0:0:0:0:
192,36,99495,2,0,B|152:36|152:36|108:60,1,80,2|2,0:0|0:0,0:0:0:0:
80,136,100352,6,0,P|72:208|128:280,1,160,10|2,0:1|0:0,0:0:0:0:
192,328,101638,1,2,0:0:0:0:
264,276,102066,2,0,P|311:213|305:135,1,160,10|2,0:1|0:0,0:0:0:0:
332,52,103352,1,2,0:0:0:0:
244,68,103781,6,0,B|172:96|172:96|80:64,1,160,10|10,0:1|0:1,0:0:0:0:
40,140,105066,2,0,L|120:168,1,80,2|10,0:0|0:1,0:0:0:0:
148,248,105924,1,2,0:0:0:0:
60,248,106352,2,0,P|76:300|108:324,1,80,10|2,0:1|0:0,0:0:0:0:
180,332,107209,2,0,P|224:296|236:260,1,80,10|0,0:1|0:0,0:0:0:0:
236,188,108066,2,0,B|308:220|312:156|348:148|392:160|392:160|388:120|372:80|452:88|412:0,1,320,10|10,0:1|0:1,0:0:0:0:
244,24,110638,6,0,B|172:28|156:88|156:88|88:60|32:120,1,240,10|2,0:1|0:0,0:0:0:0:
116,160,112352,2,0,B|156:184|192:172|228:148|236:108|236:108|324:108,1,240,10|2,0:1|0:0,0:0:0:0:
288,188,114066,2,0,P|248:228|176:252,2,120,10|2|2,0:1|0:1|0:0,0:0:0:0:
356,244,115781,2,0,L|416:308,1,80,10|2,0:1|0:0,0:0:0:0:
456,228,116638,2,0,L|401:169,1,80,2|10,0:0|0:1,0:0:0:0:
472,116,117495,6,0,B|412:64|412:64|328:64,1,160,6|2,0:0|0:0,0:0:0:0:
244,52,118781,1,8,0:0:0:0:
164,88,119209,2,0,P|124:76|80:96,1,80,2|8,0:0|0:0,0:0:0:0:
52,168,120066,2,0,P|89:180|126:168,1,80,2|8,0:0|0:0,0:0:0:0:
204,212,120924,6,0,L|268:276,1,80,2|8,0:0|0:0,0:0:0:0:
348,276,121781,2,0,B|356:216|396:184|452:176|452:176|428:136|428:136|464:76|424:20,1,320,2|2,0:0|0:0,0:0:0:0:
356,80,123924,1,8,0:0:0:0:
276,104,124352,2,0,P|196:100|148:124,2,120,2|0|8,0:0|0:0|0:0,0:0:0:0:
236,184,126066,2,0,P|184:204|156:268,2,120,2|0|8,0:0|0:0|0:0,0:0:0:0:
244,272,127781,6,0,P|296:304|404:276,1,160,6|6,0:1|0:1,0:0:0:0:
464,240,129066,1,8,0:0:0:0:
444,152,129495,2,0,B|432:92|432:92|380:60,1,120,6|4,0:1|0:0,0:0:0:0:
252,80,130781,1,2,0:0:0:0:
172,112,131209,6,0,P|128:120|100:156,1,80,4|8,0:0|0:0,0:0:0:0:
104,232,132066,2,0,P|148:224|176:188,1,80,8|8,0:0|0:0,0:0:0:0:
256,224,132924,2,0,L|316:292,1,80,8|8,0:0|0:0,0:0:0:0:
356,212,133781,2,0,L|303:152,1,80,8|8,0:0|0:0,0:0:0:0:
376,100,134638,6,0,P|456:108|512:44,1,160,8|8,0:0|0:0,0:0:0:0:
424,24,135924,1,8,0:0:0:0:
336,24,136352,2,0,L|260:72,1,80,8|8,0:0|0:0,0:0:0:0:
180,68,137209,2,0,L|112:25,1,80,8|8,0:0|0:0,0:0:0:0:
96,112,138066,6,0,B|80:152|40:168|40:168|80:192|88:244,1,160,12|14,0:0|0:1,0:0:0:0:
260,228,139781,2,0,B|265:190|305:166|305:166|265:150|249:110,1,160,12|14,0:0|0:1,0:0:0:0:
256,192,141495,12,2,143209,0:0:0:0:
256,192,144924,6,0,B|276:116|276:116|356:76,1,160,6|2,0:0|0:0,0:0:0:0:
436,84,146209,1,8,0:0:0:0:
460,168,146638,2,0,B|440:244|440:244|360:284,1,160,10|10,0:1|0:1,0:0:0:0:
276,280,147924,1,8,0:0:0:0:
232,356,148352,2,0,B|200:332|188:308|192:264|192:264|120:264,2,160,4|2|2,0:1|0:1|0:1,0:0:0:0:
276,280,150495,6,0,L|360:280,1,80,8|2,0:0|0:0,0:0:0:0:
440,308,151352,1,8,0:0:0:0:
456,220,151781,2,0,P|476:148|452:56,1,160,10|2,0:3|0:0,0:0:0:0:
380,28,153066,1,8,0:0:0:0:
304,72,153495,6,0,B|260:72|236:92|224:104|212:128|212:128|160:100,1,160,10|10,0:3|0:3,0:0:0:0:
88,136,154781,1,8,0:0:0:0:
156,192,155209,2,0,P|212:212|276:184,2,120,10|2|8,0:1|0:1|0:0,0:0:0:0:
72,224,156924,2,0,P|88:296|132:332,2,120,10|2|8,0:1|0:1|0:0,0:0:0:0:
88,136,158638,6,0,P|104:100|144:76,1,80,6|8,0:0|0:0,0:0:0:0:
224,100,159495,2,0,P|207:136|175:158,1,80,10|8,0:1|0:0,0:0:0:0:
208,240,160352,2,0,B|244:264|256:300|256:300|292:280|340:288,1,160,2|2,0:0|0:0,0:0:0:0:
408,336,161638,1,8,0:0:0:0:
420,248,162066,6,0,L|472:172,2,80,10|8|10,0:1|0:0|0:1,0:0:0:0:
336,280,163352,1,8,0:0:0:0:
264,232,163781,2,0,P|236:196|236:148,1,80,2|8,0:0|0:0,0:0:0:0:
320,164,164638,2,0,L|372:88,1,80,2|8,0:0|0:0,0:0:0:0:
296,44,165495,6,0,P|220:24|132:48,1,160,10|2,0:3|0:0,0:0:0:0:
56,60,166781,1,8,0:0:0:0:
76,144,167209,2,0,B|96:188|96:188|156:212|156:212|192:264,2,160,10|10|10,0:3|0:3|0:3,0:0:0:0:
16,208,169352,6,0,B|32:244|32:244|76:272,1,80,8|2,0:0|0:0,0:0:0:0:
132,324,170209,1,8,0:0:0:0:
200,268,170638,2,0,L|276:224,1,80,2|8,0:1|0:0,0:0:0:0:
336,284,171495,2,0,L|412:240,1,80,2|8,0:0|0:0,0:0:0:0:
464,176,172352,6,0,P|464:76|416:32,1,160,6|2,0:0|0:0,0:0:0:0:
348,84,173638,1,8,0:0:0:0:
264,52,174066,2,0,P|204:84|116:52,1,160,10|2,0:1|0:0,0:0:0:0:
36,84,175352,1,8,0:0:0:0:
48,172,175781,6,0,B|68:224|112:232|148:224|148:224|192:248,1,160,6|10,0:0|0:1,0:0:0:0:
344,184,177495,1,10,0:1:0:0:
320,100,177924,2,0,P|392:112|392:256,1,240
328,308,179639,5,4,0:0:0:0:
44,276,192924,6,0,B|52:320|116:348|172:316|172:316|204:352|252:348,1,240,6|8,0:0|0:0,0:0:0:0:
236,260,194638,2,0,B|212:232|172:212|132:240|120:244|120:244|136:184|84:124,1,240,10|8,0:3|0:0,0:0:0:0:
8,120,196352,6,0,B|20:76|48:52|92:44|128:56|128:56|152:32|152:32|216:32,1,240,10|8,0:3|0:0,0:0:0:0:
284,68,198066,2,0,B|304:128|372:128|372:128|336:192|396:256,1,240,10|8,0:3|0:0,0:0:0:0:
420,324,199781,6,0,B|464:304|480:260|468:220|468:220|488:192|488:192|472:164|472:164|472:108,1,240,10|8,0:3|0:0,0:0:0:0:
384,100,201495,2,0,B|364:56|320:40|280:52|280:52|252:32|252:32|224:48|224:48|168:48,1,240,10|8,0:3|0:0,0:0:0:0:
256,192,203209,12,0,204924,0:0:0:0:
336,316,213495,6,0,P|380:308|408:272,1,80,8|8,0:0|0:0,0:0:0:0:
404,196,214352,2,0,P|360:204|332:240,1,80,8|8,0:0|0:0,0:0:0:0:
260,272,215209,2,0,L|184:320,1,80,8|8,0:0|0:0,0:0:0:0:
172,228,216066,2,0,L|239:185,1,80,8|8,0:0|0:0,0:0:0:0:
256,192,216924,12,0,220352,0:0:0:0:
420,164,222066,6,0,P|332:196|308:260,1,160,6|2,0:0|0:0,0:0:0:0:
256,324,223352,1,8,0:0:0:0:
203,252,223781,2,0,P|167:183|92:164,1,160,10|10,0:1|0:1,0:0:0:0:
52,84,225066,1,8,0:0:0:0:
136,52,225495,2,0,B|184:36|184:36|244:48|244:48|308:32,2,160,4|2|2,0:1|0:1|0:1,0:0:0:0:
192,120,227638,6,0,B|248:132|248:132|352:104,1,160,8|8,0:0|0:0,0:0:0:0:
380,24,228924,2,0,P|432:88|412:160,1,160,10|2,0:3|0:0,0:0:0:0:
347,105,230209,1,8,0:0:0:0:
332,192,230638,6,0,B|300:264|300:264|216:288,1,160,10|10,0:3|0:3,0:0:0:0:
136,280,231924,1,8,0:0:0:0:
88,208,232352,2,0,P|60:160|60:92,2,120,10|2|8,0:1|0:1|0:0,0:0:0:0:
140,136,234066,2,0,P|164:64|204:40,2,120,10|2|8,0:1|0:1|0:0,0:0:0:0:
228,124,235781,6,0,P|264:132|312:120,1,80,6|8,0:0|0:0,0:0:0:0:
344,44,236638,2,0,P|384:76|392:116,1,80,10|8,0:1|0:0,0:0:0:0:
476,80,237495,2,0,P|452:168|388:188,1,160,2|2,0:0|0:0,0:0:0:0:
304,184,238781,1,8,0:0:0:0:
248,252,239209,6,0,L|192:320,1,80,10|8,0:1|0:0,0:0:0:0:
148,240,240066,2,0,L|198:178,1,80,10|8,0:1|0:0,0:0:0:0:
168,96,240924,2,0,B|211:84|247:104|247:104|260:64|300:48,1,160,2|2,0:0|0:0,0:0:0:0:
332,128,242209,1,8,0:0:0:0:
400,184,242638,6,0,P|420:268|396:340,1,160,10|2,0:3|0:0,0:0:0:0:
312,356,243924,1,8,0:0:0:0:
228,328,244352,2,0,B|192:288|192:288|152:284|120:264|104:212,2,160,10|10|10,0:3|0:3|0:3,0:0:0:0:
312,356,246495,5,8,0:0:0:0:
376,296,246924,2,0,L|448:248,1,80,2|8,0:0|0:0,0:0:0:0:
488,176,247781,2,0,P|496:140|476:84,1,80,10|8,0:1|0:0,0:0:0:0:
400,76,248638,2,0,B|360:64|360:64|308:80,1,80,2|8,0:0|0:0,0:0:0:0:
252,128,249495,6,0,P|196:88|96:100,1,160,6|2,0:0|0:0,0:0:0:0:
28,128,250781,1,8,0:0:0:0:
52,212,251209,2,0,L|136:352,1,160,10|2,0:1|0:0,0:0:0:0:
224,356,252495,1,8,0:0:0:0:
268,280,252924,6,0,P|312:212|312:132,1,160,10|10,0:1|0:1,0:0:0:0:
144,88,254638,2,0,P|100:156|100:236,1,160,10|10,0:1|0:1,0:0:0:0:
244,332,256352,6,0,B|276:312|276:312|292:264,1,80,6|8,0:0|0:0,0:0:0:0:
360,324,257209,2,0,B|373:283|373:283|405:263,1,80,2|8,0:0|0:0,0:0:0:0:
336,208,258066,2,0,B|368:188|368:188|384:140,1,80,6|8,0:0|0:0,0:0:0:0:
344,68,258924,2,0,B|312:88|312:88|296:136,1,80,2|8,0:0|0:0,0:0:0:0:
232,68,259781,2,0,B|204:112|208:168|256:208|256:208|240:252|240:252|296:276|300:348,1,320,6|2,0:0|0:0,0:0:0:0:
212,332,261924,2,0,P|136:312|96:228,1,160,8|8,0:0|0:0,0:0:0:0:
12,216,263209,6,0,B|28:168|92:152|92:152|168:180|224:120,1,240,4|0,0:0|0:0,0:0:0:0:
172,52,264924,2,0,P|284:72|280:192,1,240,4|0,0:0|0:0,0:0:0:0:
360,236,266638,6,0,L|440:236,2,80,10|2|2,0:1|0:0|0:0,0:0:0:0:
308,304,267924,1,2,0:0:0:0:
228,336,268352,2,0,L|148:336,2,80,10|2|2,0:1|0:0|0:0,0:0:0:0:
308,304,269638,1,2,0:0:0:0:
360,236,270066,6,0,P|404:228|432:192,1,80,10|2,0:1|0:0,0:0:0:0:
428,116,270923,2,0,P|384:124|356:160,1,80,2|2,0:0|0:0,0:0:0:0:
272,148,271781,2,0,L|212:96,1,80,10|2,0:1|0:0,0:0:0:0:
128,128,272638,2,0,L|68:76,1,80,2|8,0:0|0:0,0:0:0:0:
