osu file format v11

[General]
AudioFilename: whitrewisgh.mp3
AudioLeadIn: 0
PreviewTime: 37707
Countdown: 0
SampleSet: Normal
StackLeniency: 0.7
Mode: 1
LetterboxInBreaks: 0

[Editor]
DistanceSpacing: 0.1
BeatDivisor: 6
GridSize: 4

[Metadata]
Title:White Wishes (TV Size)
TitleUnicode:White Wishes (TV Size)
Artist:9nine
ArtistUnicode:9nine
Creator:NoHitter
Version:Taiko Muzukashii
Source:Tonari no Kaibutsu-kun
Tags:ED ending mintong89 MMzz christmas
BeatmapID:201517
BeatmapSetID:69992

[Difficulty]
HPDrainRate:5
CircleSize:4
OverallDifficulty:5
ApproachRate:5
SliderMultiplier:1.4
SliderTickRate:3

[Events]
//Background and Video events
0,0,"taikobg.png"
//Break Periods
//Storyboard Layer 0 (Background)
//Storyboard Layer 1 (Fail)
//Storyboard Layer 2 (Pass)
//Storyboard Layer 3 (Foreground)
//Storyboard Sound Samples
//Background Colour Transformations
3,100,163,162,255

[TimingPoints]
392,444.444444444444,4,1,1,45,1,0
37725,-100,4,1,1,45,0,1
51948,-100,4,1,1,45,0,0
59059,-100,4,1,1,45,0,1
73281,-100,4,1,1,45,0,0
86614,-100,4,1,1,25,0,0

[Colours]
Combo1 : 46,152,216
Combo2 : 164,92,21
Combo3 : 29,130,252
Combo4 : 146,96,29

[HitObjects]
256,192,5725,1,4,0:0:0
256,192,6466,1,0,0:0:0
256,192,6614,5,8,0:0:0
244,188,7058,1,8,0:0:0
256,192,7354,5,0,0:0:0
256,192,7503,5,8,0:0:0
256,192,7947,5,0,0:0:0
256,192,8243,5,8,0:0:0
256,192,8391,5,0,0:0:0
256,192,8836,5,8,0:0:0
256,192,9280,5,4,0:0:0
240,172,10021,1,0,0:0:0
220,52,10169,5,8,0:0:0
224,191,10614,5,0,0:0:0
152,172,10910,1,0,0:0:0
152,172,11058,5,8,0:0:0
364,208,11503,1,8,0:0:0
360,208,11799,1,8,0:0:0
364,208,12391,1,8,0:0:0
364,208,12836,5,4,0:0:0
336,48,13577,1,0,0:0:0
336,48,13725,5,8,0:0:0
320,44,14614,5,0,0:0:0
320,44,15058,5,8,0:0:0
320,44,15503,5,0,0:0:0
320,44,15947,5,8,0:0:0
320,44,16391,5,4,0:0:0
320,44,16836,5,8,0:0:0
320,44,17132,5,0,0:0:0
320,44,17280,1,0,0:0:0
320,44,17725,5,8,0:0:0
312,56,18169,1,12,0:0:0
312,56,18910,1,12,0:0:0
308,68,19354,5,0,0:0:0
308,72,19503,5,8,0:0:0
320,80,19947,5,4,0:0:0
324,92,20392,5,8,0:0:0
328,104,20836,5,0,0:0:0
332,116,21280,5,8,0:0:0
332,124,21577,1,12,0:0:0
328,136,22021,5,0,0:0:0
328,140,22169,5,8,0:0:0
324,148,22466,5,0,0:0:0
324,152,22614,1,0,0:0:0
320,160,22910,5,8,0:0:0
320,164,23058,5,0,0:0:0
308,168,23503,1,4,0:0:0
296,160,23947,5,8,0:0:0
284,160,24392,5,0,0:0:0
272,160,24836,5,8,0:0:0
264,172,25280,5,4,0:0:0
252,176,25725,5,8,0:0:0
240,180,26169,5,0,0:0:0
228,184,26614,5,8,0:0:0
216,176,27058,5,4,0:0:0
204,168,27503,5,8,0:0:0
192,160,27947,5,0,0:0:0
184,156,28243,1,0,0:0:0
180,156,28392,5,8,0:0:0
176,164,28688,1,12,0:0:0
168,176,29132,5,0,0:0:0
168,180,29280,5,8,0:0:0
176,188,29577,5,0,0:0:0
180,192,29725,5,8,0:0:0
192,200,30021,5,0,0:0:0
180,212,30614,1,0,0:0:0
168,220,31058,5,12,0:0:0
168,220,31947,1,12,0:0:0
168,220,32392,5,0,0:0:0
180,224,32836,1,0,0:0:0
192,220,33132,5,12,0:0:0
204,216,33725,5,0,0:0:0
256,192,34169,12,0,35503,0:0:0
228,120,35947,21,4,0:0:0
256,192,36392,1,4,0:0:0
256,192,36836,1,4,0:0:0
256,192,37280,5,8,0:0:0
256,204,37725,5,4,0:0:0
256,212,38021,1,0,0:0:0
252,216,38169,5,8,0:0:0
244,224,38466,1,8,0:0:0
240,228,38614,5,0,0:0:0
232,236,38910,1,0,0:0:0
228,240,39058,5,8,0:0:0
216,244,39503,5,4,0:0:0
208,232,39947,5,8,0:0:0
200,220,40392,5,0,0:0:0
192,208,40836,5,8,0:0:0
184,196,41280,5,0,0:0:0
188,188,41577,1,0,0:0:0
192,184,41725,5,8,0:0:0
188,176,42021,1,8,0:0:0
188,172,42169,5,0,0:0:0
180,164,42466,1,0,0:0:0
176,160,42614,5,8,0:0:0
164,160,43058,5,4,0:0:0
172,148,43503,5,12,0:0:0
180,136,43947,5,4,0:0:0
192,132,44391,5,12,0:0:0
256,204,44836,5,4,0:0:0
256,212,45132,1,0,0:0:0
252,216,45280,5,8,0:0:0
244,224,45577,1,8,0:0:0
240,228,45725,5,0,0:0:0
232,236,46021,1,0,0:0:0
228,240,46169,5,8,0:0:0
216,244,46614,5,4,0:0:0
208,232,47058,5,8,0:0:0
200,220,47503,5,0,0:0:0
192,208,47947,5,8,0:0:0
184,196,48391,5,0,0:0:0
192,192,48688,1,0,0:0:0
196,188,48836,5,8,0:0:0
200,180,49132,1,8,0:0:0
200,176,49280,5,0,0:0:0
200,168,49577,1,0,0:0:0
200,164,49725,5,8,0:0:0
212,160,50169,5,4,0:0:0
224,164,50614,5,12,0:0:0
236,168,51058,5,4,0:0:0
248,168,51503,5,12,0:0:0
252,156,51947,5,4,0:0:0
256,148,52243,1,0,0:0:0
256,144,52391,5,8,0:0:0
248,144,52688,1,8,0:0:0
236,136,53132,5,0,0:0:0
232,136,53280,5,8,0:0:0
220,132,53725,5,0,0:0:0
200,148,54021,1,0,0:0:0
196,152,54169,5,8,0:0:0
188,152,54466,5,4,0:0:0
220,160,54910,1,0,0:0:0
224,160,55058,5,8,0:0:0
232,168,55354,5,0,0:0:0
228,168,55503,5,8,0:0:0
208,136,55947,1,8,0:0:0
196,136,56391,1,8,0:0:0
228,120,56688,5,0,0:0:0
184,136,56836,5,8,0:0:0
228,120,57280,5,4,0:0:0
256,192,57725,1,4,0:0:0
256,192,58169,1,4,0:0:0
256,192,58614,5,8,0:0:0
244,188,59058,5,4,0:0:0
228,188,59354,5,8,0:0:0
232,188,59503,5,0,0:0:0
224,184,59799,1,0,0:0:0
220,184,59947,5,8,0:0:0
212,180,60243,1,8,0:0:0
208,180,60391,5,0,0:0:0
196,188,60836,1,4,0:0:0
208,184,61280,5,8,0:0:0
220,184,61725,5,0,0:0:0
232,184,62169,5,8,0:0:0
236,172,62614,5,0,0:0:0
240,164,62910,1,0,0:0:0
240,160,63058,5,8,0:0:0
244,152,63354,5,0,0:0:0
244,148,63503,1,0,0:0:0
248,140,63799,5,8,0:0:0
252,136,63947,5,0,0:0:0
260,148,64391,1,4,0:0:0
248,156,64836,5,12,0:0:0
236,164,65280,5,4,0:0:0
224,172,65725,5,12,0:0:0
244,188,66169,5,4,0:0:0
252,184,66466,5,8,0:0:0
232,188,66614,5,0,0:0:0
224,184,66910,1,0,0:0:0
220,184,67058,5,8,0:0:0
212,180,67354,1,8,0:0:0
208,180,67503,5,0,0:0:0
196,188,67947,1,4,0:0:0
208,184,68391,5,8,0:0:0
220,184,68836,5,0,0:0:0
232,184,69132,5,8,0:0:0
220,184,69280,5,0,0:0:0
236,172,69725,1,4,0:0:0
240,164,70021,1,0,0:0:0
240,160,70169,5,8,0:0:0
252,164,70614,5,0,0:0:0
216,164,70910,5,0,0:0:0
212,164,71058,5,8,0:0:0
200,156,71503,5,4,0:0:0
188,148,71947,5,12,0:0:0
176,152,72391,5,4,0:0:0
164,160,72836,5,12,0:0:0
156,164,73280,5,4,0:0:0
168,172,73725,5,8,0:0:0
184,188,74466,5,0,0:0:0
188,192,74614,5,8,0:0:0
200,200,75058,5,0,0:0:0
200,200,75503,5,8,0:0:0
200,200,76243,1,8,0:0:0
200,200,76391,5,0,0:0:0
212,196,76836,1,4,0:0:0
224,192,77577,1,12,0:0:0
204,180,78021,5,0,0:0:0
200,176,78169,5,8,0:0:0
204,164,78614,1,12,0:0:0
204,152,79058,1,8,0:0:0
208,140,79503,5,0,0:0:0
208,128,79947,5,8,0:0:0
220,120,80391,5,0,0:0:0
224,124,80836,5,12,0:0:0
224,124,81725,1,12,0:0:0
220,120,82169,5,0,0:0:0
224,124,82614,1,0,0:0:0
220,136,83058,5,8,0:0:0
216,144,83354,1,8,0:0:0
256,192,83799,12,0,85280,0:0:0
256,192,85725,5,4,0:0:0
172,296,86614,5,8,0:0:0
172,296,87354,1,8,0:0:0
