osu file format v11

[General]
AudioFilename: whitrewisgh.mp3
AudioLeadIn: 0
PreviewTime: 37707
Countdown: 0
SampleSet: Soft
StackLeniency: 0.7
Mode: 0
LetterboxInBreaks: 0

[Editor]
DistanceSpacing: 0.8
BeatDivisor: 3
GridSize: 4

[Metadata]
Title:White Wishes (TV Size)
TitleUnicode:White Wishes (TV Size)
Artist:9nine
ArtistUnicode:9nine
Creator:NoHitter
Version:Normal
Source:Tonari no Kaibutsu-kun
Tags:ED ending mintong89 MMzz christmas
BeatmapID:201465
BeatmapSetID:69992

[Difficulty]
HPDrainRate:4
CircleSize:3
OverallDifficulty:5
ApproachRate:5
SliderMultiplier:1.22
SliderTickRate:3

[Events]
//Background and Video events
0,0,"bg.png"
Video,0,"videoo.avi"
//Break Periods
//Storyboard Layer 0 (Background)
//Storyboard Layer 1 (Fail)
//Storyboard Layer 2 (Pass)
//Storyboard Layer 3 (Foreground)
//Storyboard Sound Samples
//Background Colour Transformations
3,100,163,162,255

[TimingPoints]
392,444.444444444444,4,2,1,40,1,0
30614,-133.333333333333,4,2,1,40,0,0
31058,-100,4,2,1,40,0,0
35948,-100,4,1,1,30,0,0
37725,-100,4,2,1,40,0,1
51948,-100,4,2,1,40,0,0
57281,-100,4,1,1,30,0,0
58169,-100,4,1,2,30,0,0
59059,-100,4,2,1,40,0,1
73281,-100,4,2,1,40,0,0
86170,-200,4,2,1,20,0,0

[Colours]
Combo1 : 219,175,26
Combo2 : 65,132,53
Combo3 : 29,130,252

[HitObjects]
145,94,5725,2,0,P|256:50|366:94,1,244,4|8,0:0|0:0,0:0:0
400,192,7058,1,2,0:0:0
366,290,7503,2,0,P|256:334|145:290,1,244,4|8,0:0|0:0,0:0:0
208,216,8836,1,2,0:0:0
272,144,9280,6,0,P|388:128|476:244,1,244,4|8,0:0|0:0,0:0:0
400,280,10614,1,2,0:0:0
300,312,11058,2,0,P|184:328|96:212,1,244,4|2,0:0|0:0,0:0:0
24,180,12391,1,8,0:0:0
84,104,12836,6,0,P|152:56|212:100|212:100|232:232,1,244,4|8,0:0|0:0,0:0:0
344,48,14614,2,0,P|359:152|359:152|419:196|487:148,1,244,4|8,0:0|0:0,0:0:0
492,248,15947,1,2,0:0:0
496,344,16391,6,0,P|368:312,1,122,4|2,0:0|0:0,0:0:0
296,260,17280,2,0,P|140:260,1,122,8|2,0:0|0:0,0:0:0
92,312,18169,2,0,P|32:228|84:112,1,203.333333333333,12|12,0:0|0:0,0:0:0
264,44,19947,6,0,P|400:44,2,122,4|2|8,0:0|0:0|0:0,0:0:0
200,116,21280,2,0,P|80:116,1,81.3333333333333,2|4,0:0|0:0,0:0:0
68,236,22169,5,0,0:0:0
124,316,22614,1,2,0:0:0
220,324,23058,1,2,0:0:0
300,256,23503,6,0,P|416:212,1,122,4|2,0:0|0:0,0:0:0
488,276,24392,2,0,P|373:319,1,122,4|2,0:0|0:0,0:0:0
280,292,25280,5,4,0:0:0
208,224,25725,1,2,0:0:0
260,144,26169,1,8,0:0:0
188,76,26614,1,2,0:0:0
100,36,27058,6,0,P|20:64|16:208,1,244,4|8,0:0|0:0,0:0:0
72,284,28392,1,2,0:0:0
144,352,28836,2,0,P|224:324|228:180,1,244,4|8,0:0|0:0,0:0:0
184,96,30169,1,2,0:0:0
280,68,30614,5,8,0:0:0
376,84,31058,1,4,0:0:0
436,272,31947,1,4,0:0:0
350,318,32392,2,0,P|210:322,2,122,4|2|8,0:0|0:0|0:0,0:0:0
437,273,33725,1,2,0:0:0
256,192,34169,12,0,36836,0:0:0
472,36,37725,6,4,P|500:88|480:168,1,122,4|8,0:0|0:0,0:0:0
444,232,38614,2,0,P|436:292|464:344,1,122,2|8,0:0|0:0,0:0:0
368,368,39503,6,0,P|220:356,1,122,4|8,0:0|0:0,0:0:0
156,324,40392,2,0,P|34:333,1,122,2|8,0:0|0:0,0:0:0
40,236,41280,6,0,P|68:164|52:116,1,122,4|8,0:0|0:0,0:0:0
120,52,42169,1,2,0:0:0
216,32,42614,1,8,0:0:0
304,76,43058,6,0,P|444:88,1,122,4|8,0:0|0:0,0:0:0
464,176,43947,2,0,P|320:164,1,122,2|8,0:0|0:0,0:0:0
256,212,44836,5,4,0:0:0
192,284,45280,1,8,0:0:0
256,356,45725,1,2,0:0:0
320,284,46169,1,8,0:0:0
376,204,46614,6,0,P|416:156|416:156|412:84,1,122,4|8,0:0|0:0,0:0:0
356,16,47503,2,0,P|316:64|316:64|320:136,1,122,2|8,0:0|0:0,0:0:0
228,84,48391,6,0,P|148:76|92:112,1,122,4|8,0:0|0:0,0:0:0
44,160,49280,1,2,0:0:0
52,256,49725,1,8,0:0:0
140,300,50169,6,0,P|271:282,1,122,4|8,0:0|0:0,0:0:0
356,264,51058,2,0,P|395:319|353:390,2,122,2|8|4,0:0|0:0|0:0,0:0:0
404,180,52391,6,0,P|436:88|308:68,1,244,8|8,0:0|0:0,0:0:0
256,128,53725,1,4,0:0:0
190,55,54169,2,0,P|76:88|108:180,1,244,8|8,0:0|0:0,0:0:0
168,256,55503,6,0,P|208:372,1,122,4|8,0:0|0:0,0:0:0
305,371,56391,2,0,P|345:255,1,122,2|8,0:0|0:0,0:0:0
420,168,57280,6,0,P|258:95|96:168,1,366,0|8,0:0|0:0,0:0:0
128,260,59058,6,0,P|140:312|84:368,1,122,4|8,0:0|0:0,0:0:0
0,340,59947,2,0,P|-12:288|44:232,1,122,4|8,0:0|0:0,0:0:0
96,172,60836,5,4,0:0:0
176,116,61280,1,8,0:0:0
272,116,61725,1,2,0:0:0
348,176,62169,1,8,0:0:0
356,272,62614,6,0,P|372:328|372:328|440:356,1,122,4|8,0:0|0:0,0:0:0
512,296,63503,2,0,P|496:240|496:240|428:212,1,122,2|8,0:0|0:0,0:0:0
348,176,64391,5,4,0:0:0
432,124,64836,1,8,0:0:0
344,76,65280,2,0,P|285:63|218:90,1,122,2|8,0:0|0:0,0:0:0
136,56,66169,6,0,P|8:96,1,122,4|8,0:0|0:0,0:0:0
8,188,67058,1,2,0:0:0
36,280,67503,1,8,0:0:0
116,336,67947,6,0,P|192:328|260:336,1,122,4|8,0:0|0:0,0:0:0
332,356,68836,2,0,P|377:359|453:351,1,122,2|8,0:0|0:0,0:0:0
480,256,69725,5,4,0:0:0
472,160,70169,2,0,P|460:28,1,122,8|2,0:0|0:0,0:0:0
368,16,71058,1,8,0:0:0
280,56,71503,6,0,P|292:188,1,122,4|12,0:0|0:0,0:0:0
360,248,72391,1,6,0:0:0
304,328,72836,1,12,0:0:0
208,332,73280,6,0,P|144:340|72:316,1,122,4|8,0:0|0:0,0:0:0
28,252,74169,2,0,P|20:188|44:116,1,122,2|8,0:0|0:0,0:0:0
108,68,75058,5,4,0:0:0
192,116,75503,1,8,0:0:0
268,52,75947,1,2,0:0:0
352,100,76391,1,8,0:0:0
436,152,76836,6,0,P|484:200|468:268,1,122,4|8,0:0|0:0,0:0:0
428,332,77725,2,0,P|380:284|396:216,1,122,2|8,0:0|0:0,0:0:0
316,164,78614,5,4,0:0:0
256,88,79058,1,8,0:0:0
196,164,79503,1,2,0:0:0
256,240,79947,1,8,0:0:0
196,324,80391,6,0,P|80:284|60:168,1,244,4|4,0:0|0:0,0:0:0
124,104,81725,1,8,0:0:0
208,152,82169,2,0,P|330:164|397:68,1,244,4|4,0:0|0:0,0:0:0
488,44,83503,1,8,0:0:0
256,192,83947,12,4,85725,0:0:0
208,144,86614,6,2,P|256:130|304:144,1,101.666666666667,2|2,0:0|0:0,0:0:0
