osu file format v11

[General]
AudioFilename: whitrewisgh.mp3
AudioLeadIn: 0
PreviewTime: 37707
Countdown: 0
SampleSet: Soft
StackLeniency: 0.7
Mode: 0
LetterboxInBreaks: 0

[Editor]
DistanceSpacing: 1
BeatDivisor: 6
GridSize: 4

[Metadata]
Title:White Wishes (TV Size)
TitleUnicode:White Wishes (TV Size)
Artist:9nine
ArtistUnicode:9nine
Creator:NoHitter
Version:Insane
Source:Tonari no Kaibutsu-kun
Tags:ED ending mintong89 MMzz christmas
BeatmapID:201464
BeatmapSetID:69992

[Difficulty]
HPDrainRate:7
CircleSize:4
OverallDifficulty:8
ApproachRate:8
SliderMultiplier:2.12
SliderTickRate:3

[Events]
//Background and Video events
0,0,"bg.png"
Video,0,"videoo.avi"
//Break Periods
//Storyboard Layer 0 (Background)
//Storyboard Layer 1 (Fail)
//Storyboard Layer 2 (Pass)
//Storyboard Layer 3 (Foreground)
//Storyboard Sound Samples
//Background Colour Transformations
3,100,163,162,255

[TimingPoints]
392,444.444444444444,4,2,1,40,1,0
30614,-133.333333333333,4,2,1,40,0,0
31058,-100,4,2,1,40,0,0
35948,-100,4,1,1,30,0,0
37725,-100,4,2,1,40,0,1
51948,-100,4,2,1,40,0,0
57281,-100,4,1,1,30,0,0
58243,-100,4,1,2,30,0,0
59059,-100,4,2,1,40,0,1
73281,-100,4,2,1,40,0,0
86169,-200,4,2,2,20,0,0

[Colours]
Combo1 : 219,175,26
Combo2 : 65,132,53
Combo3 : 29,130,252

[HitObjects]
196,64,5725,2,0,P|256:32|316:64,1,141.333333333333,4|0,0:0|0:0,0:0:0
256,104,6169,1,2,0:0:0
112,280,6466,1,0,0:0:0
72,340,6614,2,0,P|40:280|72:220,1,141.333333333333,8|0,0:0|0:0,0:0:0
112,280,7058,1,2,0:0:0
272,352,7354,5,0,0:0:0
272,352,7503,2,0,P|452:332,1,141.333333333333,8|0,0:0|0:0,0:0:0
484,328,7947,1,2,0:0:0
396,208,8243,1,0,0:0:0
396,208,8391,2,0,P|216:228,1,141.333333333333,8|0,0:0|0:0,0:0:0
184,232,8836,1,2,0:0:0
60,112,9132,5,0,0:0:0
60,112,9280,2,0,P|108:52|200:68,1,141.333333333333,12|0,0:0|0:0,0:0:0
193,118,9725,2,0,P|264:145|336:86,1,141.333333333333,2|0,0:0|0:0,0:0:0
343,48,10169,2,0,P|404:52|452:112,1,141.333333333333,8|0,0:0|0:0,0:0:0
460,184,10614,1,2,0:0:0
324,304,10910,6,0,P|368:360,1,70.6666666666667,0|12,0:0|0:0,0:0:0
256,268,11354,1,0,0:0:0
256,268,11503,1,10,0:0:0
144,360,11799,2,0,P|188:304,1,70.6666666666667,2|8,0:0|0:0,0:0:0
256,56,12243,1,0,0:0:0
256,56,12392,2,0,P|256:292,1,212,12|4,0:0|0:0,0:0:0
116,32,13132,5,0,0:0:0
116,32,13280,2,0,P|60:64|60:144,1,141.333333333333,2|0,0:0|0:0,0:0:0
120,104,13725,1,8,0:0:0
194,224,14021,1,0,0:0:0
194,224,14169,2,0,P|265:251|337:192,1,141.333333333333,2|0,0:0|0:0,0:0:0
372,272,14614,5,4,0:0:0
256,40,14910,1,0,0:0:0
256,40,15058,1,10,0:0:0
140,272,15354,1,0,0:0:0
140,272,15503,1,4,0:0:0
256,40,15799,1,0,0:0:0
217,107,15947,1,10,0:0:0
295,107,16095,1,0,0:0:0
256,172,16243,5,0,0:0:0
256,172,16392,2,0,P|220:220|256:273|294:324|256:376,1,212,12|10,0:0|0:0,0:0:0
120,300,17132,5,0,0:0:0
120,300,17280,2,0,P|56:240|60:144,1,141.333333333333,8|0,0:0|0:0,0:0:0
52,112,17725,1,10,0:0:0
392,228,18021,5,0,0:0:0
392,228,18169,2,0,P|456:168|452:72,1,141.333333333333,4|0,0:0|0:0,0:0:0
460,40,18614,1,2,0:0:0
320,108,18910,1,4,0:0:0
294,180,19058,1,2,0:0:0
218,180,19206,1,0,0:0:0
192,108,19354,1,4,0:0:0
256,64,19503,1,10,0:0:0
256,332,19799,5,0,0:0:0
256,332,19947,2,0,P|96:344,1,141.333333333333,4|0,0:0|0:0,0:0:0
88,272,20392,2,0,P|248:260,1,141.333333333333,10|0,0:0|0:0,0:0:0
316,192,20836,2,0,P|476:204,1,141.333333333333,2|0,0:0|0:0,0:0:0
488,132,21280,2,0,P|336:120,1,141.333333333333,8|2,0:0|0:0,0:0:0
128,36,22021,5,0,0:0:0
128,36,22169,1,2,0:0:0
28,132,22614,1,2,0:0:0
180,164,23058,1,2,0:0:0
68,296,23354,5,0,0:0:0
68,296,23503,2,0,P|116:344|184:328,1,141.333333333333,12|0,0:0|0:0,0:0:0
136,276,23947,1,2,0:0:0
444,200,24243,1,0,0:0:0
444,200,24391,2,0,P|396:248|328:232,1,141.333333333333,12|0,0:0|0:0,0:0:0
376,180,24836,1,2,0:0:0
72,76,25132,5,0,0:0:0
72,76,25280,2,0,P|120:124|188:108,1,141.333333333333,12|0,0:0|0:0,0:0:0
140,56,25725,1,12,0:0:0
448,40,26021,1,0,0:0:0
372,20,26169,1,8,0:0:0
352,96,26317,1,0,0:0:0
428,116,26466,1,0,0:0:0
448,40,26614,1,10,0:0:0
368,176,26910,5,0,0:0:0
368,176,27058,2,0,P|380:244|460:272,1,141.333333333333,4|0,0:0|0:0,0:0:0
440,200,27503,2,0,P|304:300,1,141.333333333333,10|0,0:0|0:0,0:0:0
324,360,27947,2,0,P|256:372|184:360,1,141.333333333333,8|2,0:0|0:0,0:0:0
185,283,28391,2,0,P|72:200,1,141.333333333333,10|4,0:0|0:0,0:0:0
294,29,29132,5,0,0:0:0
218,29,29280,1,10,0:0:0
160,144,29577,1,0,0:0:0
136,70,29725,1,8,0:0:0
376,70,30021,1,0,0:0:0
352,142,30169,1,10,0:0:0
176,340,30466,5,0,0:0:0
176,340,30614,2,0,P|268:348|348:336,1,159.000006065369,8|4,0:0|0:0,0:0:0
325,183,31354,1,0,0:0:0
325,183,31503,2,0,P|257:171|185:183,1,141.333333333333,8|0,0:0|0:0,0:0:0
144,116,31947,1,4,0:0:0
399,46,32243,5,0,0:0:0
399,46,32391,2,0,P|448:188,1,141.333333333333,4|0,0:0|0:0,0:0:0
468,252,32836,1,10,0:0:0
336,300,33132,1,4,0:0:0
268,340,33280,1,8,0:0:0
188,344,33429,1,0,0:0:0
112,324,33577,1,0,0:0:0
60,268,33725,1,8,0:0:0
256,192,34169,12,2,35503,0:0:0
256,40,35947,5,0,0:0:0
192,84,36095,1,0,0:0:0
218,156,36243,1,0,0:0:0
294,156,36391,1,0,0:0:0
320,228,36540,1,0,0:0:0
256,272,36688,1,0,0:0:0
192,224,36836,2,0,P|172:296|252:344,1,141.333333333333
300,340,37280,1,8,0:0:0
424,76,37725,6,0,P|463:15,2,70.6666666666667,4|0|0,0:0|0:0|0:0,0:0:0
350,107,38169,2,0,P|278:102,2,70.6666666666667,8|0|0,0:0|0:0|0:0,0:0:0
413,154,38614,2,0,P|445:218,1,70.6666666666667,12|0,0:0|0:0,0:0:0
492,284,38910,1,0,0:0:0
452,352,39058,2,0,P|364:352,1,70.6666666666667,10|0,0:0|0:0,0:0:0
308,324,39354,1,0,0:0:0
236,352,39503,6,0,P|168:356|120:304,1,141.333333333333,4|0,0:0|0:0,0:0:0
68,364,39947,2,0,P|42:301|75:238,1,141.333333333333,12|0,0:0|0:0,0:0:0
152,232,40391,1,10,0:0:0
218,191,40540,1,0,0:0:0
294,191,40688,1,0,0:0:0
360,232,40836,1,8,0:0:0
464,80,41132,5,0,0:0:0
464,80,41280,2,0,P|416:76|416:76|384:48|384:48|268:40,1,141.333333333333,12|0,0:0|0:0,0:0:0
256,36,41725,1,8,0:0:0
48,180,42021,1,0,0:0:0
48,180,42169,2,0,P|96:184|96:184|128:212|128:212|244:220,1,141.333333333333,10|0,0:0|0:0,0:0:0
256,224,42614,1,8,0:0:0
428,324,42910,5,0,0:0:0
428,324,43058,1,12,0:0:0
352,332,43206,1,0,0:0:0
276,340,43354,1,0,0:0:0
88,280,43503,1,8,0:0:0
164,272,43651,1,0,0:0:0
240,264,43799,1,8,0:0:0
420,172,43947,5,8,0:0:0
344,180,44095,1,8,0:0:0
268,188,44243,1,8,0:0:0
68,136,44391,1,8,0:0:0
144,128,44540,1,8,0:0:0
220,120,44688,1,8,0:0:0
264,44,44836,6,0,P|356:36,2,70.6666666666667,4|0|0,0:0|0:0|0:0,0:0:0
188,28,45280,2,0,P|96:36,2,70.6666666666667,8|0|0,0:0|0:0|0:0,0:0:0
264,44,45725,2,0,P|360:36,1,70.6666666666667,12|0,0:0|0:0,0:0:0
412,28,46021,1,0,0:0:0
484,56,46169,2,0,P|504:128|488:224,1,141.333333333333,8|0,0:0|0:0,0:0:0
488,272,46614,5,12,0:0:0
348,340,46910,1,2,0:0:0
348,340,47058,1,8,0:0:0
360,184,47354,1,2,0:0:0
360,184,47503,1,8,0:0:0
296,138,47651,1,0,0:0:0
216,138,47799,1,0,0:0:0
152,184,47947,1,8,0:0:0
55,336,48243,5,0,0:0:0
55,336,48391,2,0,P|116:301|192:320,1,141.333333333333,12|0,0:0|0:0,0:0:0
256,284,48836,1,8,0:0:0
456,228,49132,1,0,0:0:0
456,228,49280,2,0,P|395:193|319:212,1,141.333333333333,12|0,0:0|0:0,0:0:0
255,176,49725,1,8,0:0:0
56,104,50021,5,0,0:0:0
56,104,50169,1,12,0:0:0
112,52,50317,1,0,0:0:0
132,128,50466,1,0,0:0:0
328,88,50614,1,10,0:0:0
381,146,50762,1,0,0:0:0
402,70,50910,1,8,0:0:0
132,232,51058,5,8,0:0:0
148,308,51206,1,8,0:0:0
205,253,51354,1,8,0:0:0
392,240,51503,1,8,0:0:0
368,314,51651,1,8,0:0:0
444,295,51799,1,8,0:0:0
420,372,51947,6,0,P|496:352|524:296,1,141.333333333333,4|0,0:0|0:0,0:0:0
488,232,52391,1,8,0:0:0
344,76,52688,1,0,0:0:0
272,40,52836,2,0,P|196:60|168:116,1,141.333333333333,12|0,0:0|0:0,0:0:0
96,92,53280,1,8,0:0:0
40,236,53577,5,0,0:0:0
60,312,53725,1,12,0:0:0
128,348,53873,1,0,0:0:0
204,348,54021,2,0,P|328:344,1,70.6666666666667,0|8,0:0|0:0,0:0:0
420,292,54466,1,2,0:0:0
488,252,54614,1,12,0:0:0
512,176,54762,1,0,0:0:0
480,104,54910,2,0,P|476:24,1,70.6666666666667,0|8,0:0|0:0,0:0:0
256,32,55354,5,12,0:0:0
256,32,55503,2,0,P|180:36|108:80,1,141.333333333333,2|0,0:0|0:0,0:0:0
84,136,55947,1,8,0:0:0
228,192,56243,1,0,0:0:0
216,268,56391,2,0,P|208:340,2,70.6666666666667,8|0|0,0:0|0:0|0:0,0:0:0
228,192,56836,2,0,P|240:104,2,70.6666666666667,12|0|0,0:0|0:0|0:0,0:0:0
332,228,57280,5,0,0:0:0
392,276,57429,1,0,0:0:0
468,256,57577,1,0,0:0:0
484,180,57725,1,0,0:0:0
420,132,57873,1,0,0:0:0
344,148,58021,1,0,0:0:0
272,180,58169,2,0,P|232:148|148:168,1,141.333333333333
76,192,58614,1,8,0:0:0
224,340,59058,6,0,P|144:340,2,70.6666666666667,4|0|0,0:0|0:0|0:0,0:0:0
288,296,59503,2,0,P|380:296,2,70.6666666666667,10|0|0,0:0|0:0|0:0,0:0:0
220,256,59947,2,0,P|124:256,1,70.6666666666667,12|0,0:0|0:0,0:0:0
84,212,60243,1,0,0:0:0
20,168,60391,2,0,P|68:112,2,70.6666666666667,10|0|0,0:0|0:0|0:0,0:0:0
84,212,60836,6,0,P|132:160|132:160|224:136,1,141.333333333333,12|0,0:0|0:0,0:0:0
188,64,61280,2,0,P|256:48|256:48|328:64,1,141.333333333333,10|0,0:0|0:0,0:0:0
311,142,61725,2,0,P|380:160|380:160|428:212,1,141.333333333333,12|0,0:0|0:0,0:0:0
480,272,62169,1,8,0:0:0
404,284,62317,1,0,0:0:0
348,232,62466,1,0,0:0:0
256,312,62614,6,0,P|100:344,1,141.333333333333,4|0,0:0|0:0,0:0:0
40,356,63058,1,8,0:0:0
224,212,63354,1,0,0:0:0
224,212,63503,2,0,P|380:180,1,141.333333333333,10|0,0:0|0:0,0:0:0
440,164,63947,1,8,0:0:0
214,115,64243,5,0,0:0:0
214,115,64391,1,12,0:0:0
150,71,64540,1,0,0:0:0
74,87,64688,1,0,0:0:0
302,154,64836,1,8,0:0:0
287,77,64984,1,0,0:0:0
222,35,65132,1,8,0:0:0
372,242,65280,5,8,0:0:0
397,168,65429,1,8,0:0:0
362,99,65577,1,8,0:0:0
355,335,65725,1,8,0:0:0
425,300,65873,1,8,0:0:0
450,227,66021,1,8,0:0:0
126,339,66169,6,0,P|33:352,2,70.6666666666667,4|0|0,0:0|0:0|0:0,0:0:0
145,263,66614,2,0,P|238:276,2,70.6666666666667,8|0|0,0:0|0:0|0:0,0:0:0
107,194,67058,2,0,P|14:207,2,70.6666666666667,12|0|0,0:0|0:0|0:0,0:0:0
152,128,67503,2,0,P|236:140,1,70.6666666666667,8|0,0:0|0:0,0:0:0
296,112,67799,1,2,0:0:0
372,92,67947,6,0,P|440:84|484:136,1,141.333333333333,12|0,0:0|0:0,0:0:0
415,151,68391,1,8,0:0:0
316,328,68688,1,0,0:0:0
316,328,68836,2,8,P|256:360|196:328,1,141.333333333333,10|0,0:0|0:0,0:0:0
256,288,69280,1,8,0:0:0
124,200,69577,5,0,0:0:0
124,200,69725,2,0,P|88:164|88:164|100:116|100:116|52:64,1,141.333333333333,4|0,0:0|0:0,0:0:0
20,28,70169,1,8,0:0:0
388,200,70466,1,0,0:0:0
388,200,70614,2,0,P|424:164|424:164|412:116|412:116|460:64,1,141.333333333333,4|0,0:0|0:0,0:0:0
492,28,71058,1,8,0:0:0
324,72,71354,5,0,0:0:0
324,72,71503,1,4,0:0:0
256,36,71651,1,0,0:0:0
188,72,71799,1,0,0:0:0
188,312,71947,1,12,0:0:0
256,348,72095,1,0,0:0:0
324,312,72243,1,8,0:0:0
384,124,72391,5,12,0:0:0
420,192,72540,1,8,0:0:0
384,260,72688,1,8,0:0:0
128,260,72836,1,12,0:0:0
92,192,72984,1,8,0:0:0
128,124,73132,1,8,0:0:0
300,192,73280,6,0,P|344:140|304:72,1,141.333333333333,4|0,0:0|0:0,0:0:0
256,32,73725,1,8,0:0:0
212,192,74021,1,0,0:0:0
212,192,74169,2,0,P|168:244|208:312,1,141.333333333333,4|0,0:0|0:0,0:0:0
256,352,74614,1,8,0:0:0
412,332,74910,5,0,0:0:0
440,260,75058,1,4,0:0:0
256,36,75354,1,0,0:0:0
256,113,75503,1,8,0:0:0
72,260,75799,1,0,0:0:0
100,332,75947,1,8,0:0:0
217,181,76243,1,0,0:0:0
295,182,76391,1,8,0:0:0
472,40,76688,5,0,0:0:0
472,40,76836,2,0,P|444:96|488:160,1,141.333333333333,4|0,0:0|0:0,0:0:0
447,226,77280,1,8,0:0:0
336,116,77577,1,12,0:0:0
336,116,77725,1,2,0:0:0
176,116,78021,1,0,0:0:0
176,116,78169,1,10,0:0:0
65,226,78466,5,8,0:0:0
65,226,78614,2,0,P|120:180|120:180|152:208|220:196,1,141.333333333333,4|2,0:0|0:0,0:0:0
256,164,79058,1,8,0:0:0
448,224,79354,1,8,0:0:0
448,224,79503,2,0,P|395:179|395:179|363:207|329:198,1,141.333333333333,2|2,0:0|0:0,0:0:0
256,164,79947,1,10,0:0:0
48,48,80243,5,0,0:0:0
48,48,80391,2,0,P|36:132|48:264,1,212,12|12,0:0|0:0,0:0:0
464,48,81132,1,0,0:0:0
464,48,81280,2,0,P|476:132|464:264,1,212,12|12,0:0|0:0,0:0:0
160,116,82021,5,0,0:0:0
160,116,82169,2,0,P|148:200|160:332,1,212,12|12,0:0|0:0,0:0:0
352,116,82910,1,0,0:0:0
352,116,83058,2,4,P|368:192|348:312,1,141.333333333333,12|12,0:0|0:0,0:0:0
353,326,83503,1,0,0:0:0
256,192,83799,5,12,0:0:0
256,192,83947,12,4,85725,0:0:0
178,167,86169,6,0,P|256:116|334:167,1,194.333333333333,2|2,0:0|0:0,0:0:0
256,208,87354,1,2,0:0:0
