osu file format v11

[General]
AudioFilename: whitrewisgh.mp3
AudioLeadIn: 0
PreviewTime: 37707
Countdown: 0
SampleSet: Soft
StackLeniency: 0.7
Mode: 0
LetterboxInBreaks: 0

[Editor]
Bookmarks: 38327
DistanceSpacing: 1
BeatDivisor: 6
GridSize: 4

[Metadata]
Title:White Wishes (TV Size)
TitleUnicode:White Wishes (TV Size)
Artist:9nine
ArtistUnicode:9nine
Creator:NoHitter
Version:Hard
Source:Tonari no Kaibutsu-kun
Tags:ED ending mintong89 MMzz christmas
BeatmapID:201463
BeatmapSetID:69992

[Difficulty]
HPDrainRate:5
CircleSize:4
OverallDifficulty:6
ApproachRate:7
SliderMultiplier:1.82
SliderTickRate:3

[Events]
//Background and Video events
0,0,"bg.png"
Video,0,"videoo.avi"
//Break Periods
//Storyboard Layer 0 (Background)
//Storyboard Layer 1 (Fail)
//Storyboard Layer 2 (Pass)
//Storyboard Layer 3 (Foreground)
//Storyboard Sound Samples
//Background Colour Transformations
3,100,163,162,255

[TimingPoints]
392,444.444444444444,4,2,1,40,1,0
30614,-133.333333333333,4,2,1,40,0,0
31058,-100,4,2,1,40,0,0
35948,-100,4,1,1,30,0,0
37725,-100,4,2,1,40,0,1
51948,-100,4,2,1,40,0,0
57281,-100,4,1,1,30,0,0
59059,-100,4,2,1,40,0,1
73281,-100,4,2,1,40,0,0
86021,-200,4,2,1,20,0,0

[Colours]
Combo1 : 219,175,26
Combo2 : 65,132,53
Combo3 : 29,130,252

[HitObjects]
131,52,5725,6,0,P|60:94|67:196,1,182,4|2,0:0|0:0,0:0:0
148,344,6614,2,0,P|219:302|212:200,1,182,8|2,0:0|0:0,0:0:0
271,101,7354,5,0,0:0:0
271,101,7503,2,0,P|379:74|460:117,1,182,4|10,0:0|0:0,0:0:0
508,201,8243,1,0,0:0:0
508,201,8391,2,0,P|400:228|319:185,1,182,8|10,0:0|0:0,0:0:0
256,40,9280,6,8,P|122:40,1,121.333333333333,12|0,0:0|0:0,0:0:0
76,40,9725,1,10,0:0:0
236,124,10169,2,8,P|370:124,1,121.333333333333,8|0,0:0|0:0,0:0:0
416,124,10614,1,10,0:0:0
461,296,11058,6,0,P|391:332|311:330,1,121.333333333333,4|0,0:0|0:0,0:0:0
316,284,11503,2,0,P|181:284,1,121.333333333333,10|0,0:0|0:0,0:0:0
162,336,11947,2,0,P|121:332|51:296,1,121.333333333333,2|0,0:0|0:0,0:0:0
52,236,12391,1,10,0:0:0
156,88,12836,6,0,P|200:44|272:44,1,121.333333333333,4|0,0:0|0:0,0:0:0
256,38,13280,1,2,0:0:0
356,192,13725,2,0,P|312:236|240:236,1,121.333333333333,8|0,0:0|0:0,0:0:0
256,242,14169,1,2,0:0:0
80,288,14614,5,4,0:0:0
256,336,15058,1,2,0:0:0
432,288,15503,1,8,0:0:0
312,260,15799,1,0,0:0:0
312,260,15947,2,10,P|257:201|200:260,1,182,2|4,0:0|0:0,0:0:0
48,158,16836,5,8,0:0:0
135,73,17132,1,0,0:0:0
135,73,17280,1,10,0:0:0
256,88,17577,1,0,0:0:0
256,88,17725,1,8,0:0:0
377,73,18021,5,0,0:0:0
377,73,18169,2,0,P|484:144|408:316,1,303.333333333333,12|4,0:0|0:0,0:0:0
292,200,19354,1,4,0:0:0
256,152,19503,2,0,P|256:68,2,60.6666666666667,8|0|0,0:0|0:0|0:0,0:0:0
220,200,19947,1,4,0:0:0
112,48,20392,6,0,P|48:104|40:156,1,121.333333333333,2|0,0:0|0:0,0:0:0
40,196,20836,2,0,P|48:228|112:284,1,121.333333333333,8|0,0:0|0:0,0:0:0
168,264,21280,2,0,P|292:264,1,121.333333333333,2|4,0:0|0:0,0:0:0
460,332,22021,5,0,0:0:0
460,332,22169,2,0,P|460:268|460:268|420:236|420:236|420:168,1,182,2|2,0:0|0:0,0:0:0
428,48,22910,1,0,0:0:0
428,48,23058,2,0,P|364:48|364:48|332:88|332:88|264:88,1,182,2|4,0:0|0:0,0:0:0
152,40,23799,5,0,0:0:0
152,40,23947,1,8,0:0:0
60,120,24243,1,0,0:0:0
60,120,24392,2,0,P|40:192|64:300,1,182,8|8,0:0|0:0,0:0:0
176,260,25132,6,0,P|140:204,1,60.6666666666667,0|4,0:0|0:0,0:0:0
256,164,25577,2,0,P|232:96,1,60.6666666666667,0|8,0:0|0:0,0:0:0
356,124,26021,2,0,P|360:60,1,60.6666666666667,0|10,0:0|0:0,0:0:0
448,148,26466,2,0,P|496:84,1,60.6666666666667,0|8,0:0|0:0,0:0:0
504,220,26910,5,8,0:0:0
504,220,27058,2,0,P|496:292|388:348,1,182,4|8,0:0|0:0,0:0:0
308,280,27799,1,0,0:0:0
308,280,27947,2,0,P|253:262|194:291,1,121.333333333333,10|2,0:0|0:0,0:0:0
155,327,28392,2,0,P|105:357|42:343,1,121.333333333333,10|6,0:0|0:0,0:0:0
52,160,29132,5,0,0:0:0
52,160,29280,2,0,P|88:72|165:46,1,182,10|8,0:0|0:0,0:0:0
284,76,30021,1,0,0:0:0
284,76,30169,2,0,P|360:119|436:76,1,182,8|10,0:0|0:0,0:0:0
436,260,31058,5,4,0:0:0
76,260,31947,1,4,0:0:0
166,179,32243,1,0,0:0:0
166,179,32392,2,0,P|256:169|346:179,1,182,4|8,0:0|0:0,0:0:0
346,57,33132,1,4,0:0:0
346,57,33280,2,0,P|256:67|166:57,1,182,2|8,0:0|0:0,0:0:0
256,192,34169,12,0,35503,0:0:0
120,321,35947,6,0,P|176:369,1,60.6666666666667
226,360,36243,2,0,P|286:360,1,60.6666666666667
347,360,36540,2,0,P|394:321,1,60.6666666666667
384,260,36836,2,0,P|348:188|288:168,1,121.333333333333
256,160,37280,1,8,0:0:0
76,48,37725,6,0,P|48:100|64:160,1,121.333333333333,4|0,0:0|0:0,0:0:0
96,208,38169,2,0,P|124:260|108:320,1,121.333333333333,10|0,0:0|0:0,0:0:0
80,372,38614,1,10,0:0:0
200,344,38910,1,0,0:0:0
200,344,39058,1,8,0:0:0
320,360,39354,5,0,0:0:0
320,360,39503,2,0,P|420:364|492:328,1,182,10|10,0:0|0:0,0:0:0
472,208,40243,1,0,0:0:0
472,208,40392,2,0,P|372:204|300:240,1,182,10|10,0:0|0:0,0:0:0
256,124,41132,5,0,0:0:0
256,124,41280,2,0,P|200:52|200:52|160:72|96:44,1,182,12|8,0:0|0:0,0:0:0
160,164,42021,1,0,0:0:0
160,164,42169,2,0,P|216:236|216:236|256:216|320:244,1,182,10|10,0:0|0:0,0:0:0
384,148,42910,5,0,0:0:0
384,148,43058,2,0,P|412:68,2,60.6666666666667,12|0|0,0:0|0:0|0:0,0:0:0
428,192,43503,2,0,P|508:192,2,60.6666666666667,8|0|8,0:0|0:0|0:0,0:0:0
384,236,43947,2,8,P|412:316,2,60.6666666666667
340,192,44391,1,8,0:0:0
256,356,44836,6,0,P|192:344|128:360,1,121.333333333333,4|0,0:0|0:0,0:0:0
84,324,45280,2,0,P|36:208,1,121.333333333333,10|0,0:0|0:0,0:0:0
16,156,45725,1,10,0:0:0
88,60,46021,1,0,0:0:0
88,60,46169,1,10,0:0:0
204,92,46466,5,0,0:0:0
204,92,46614,2,0,P|288:56|288:56|384:56,1,182,4|8,0:0|0:0,0:0:0
472,132,47354,1,0,0:0:0
472,132,47503,2,0,P|388:168|388:168|292:168,1,182,4|8,0:0|0:0,0:0:0
192,228,48243,5,0,0:0:0
192,228,48391,2,0,P|140:272|196:352,1,182,12|8,0:0|0:0,0:0:0
321,351,49132,1,0,0:0:0
321,351,49280,2,0,P|373:307|317:227,1,182,12|8,0:0|0:0,0:0:0
212,144,50021,5,0,0:0:0
212,144,50169,2,0,P|132:116,2,60.6666666666667,12|0|0,0:0|0:0|0:0,0:0:0
256,100,50614,2,0,P|256:20,2,60.6666666666667,8|0|8,0:0|0:0|0:0,0:0:0
300,144,51058,2,8,P|380:116,2,60.6666666666667
256,184,51503,2,0,P|216:232|304:296|256:356,1,182,8|4,0:0|0:0,0:0:0
148,300,52243,5,0,0:0:0
148,300,52391,2,0,P|68:272|72:168,1,182,10|8,0:0|0:0,0:0:0
144,96,53132,1,0,0:0:0
144,96,53280,1,10,0:0:0
260,64,53577,5,0,0:0:0
260,64,53725,2,0,P|343:48|391:140,1,182,12|10,0:0|0:0,0:0:0
400,240,54466,2,0,P|436:300,1,60.6666666666667,4|10,0:0|0:0,0:0:0
308,292,54910,2,0,P|316:352,1,60.6666666666667,0|10,0:0|0:0,0:0:0
204,304,55354,5,4,0:0:0
204,304,55503,2,0,P|136:352|28:332,1,182,2|8,0:0|0:0,0:0:0
104,236,56243,1,0,0:0:0
104,236,56391,2,0,P|60:184,2,60.6666666666667,8|0|0,0:0|0:0|0:0,0:0:0
164,216,56836,2,0,P|164:140,2,60.6666666666667,8|0|0,0:0|0:0|0:0,0:0:0
224,228,57280,6,0,P|312:212|388:152,1,182,0|0,0:0|0:0,0:0:0
360,100,57873,2,0,P|396:40,2,60.6666666666667
244,64,58466,1,0,0:0:0
244,64,58614,1,8,0:0:0
228,348,59058,6,0,P|292:340|368:356,1,121.333333333333,12|0,0:0|0:0,0:0:0
408,356,59503,2,0,P|468:320|472:260,1,121.333333333333,10|0,0:0|0:0,0:0:0
472,212,59947,1,10,0:0:0
460,92,60243,1,0,0:0:0
460,92,60391,1,10,0:0:0
348,48,60688,5,0,0:0:0
348,48,60836,2,0,P|268:72|168:44,1,182,12|10,0:0|0:0,0:0:0
72,112,61577,1,0,0:0:0
72,112,61725,2,0,P|96:192|68:292,1,182,10|10,0:0|0:0,0:0:0
180,344,62466,5,0,0:0:0
180,344,62614,2,0,P|216:288|288:352,1,182,12|10,0:0|0:0,0:0:0
372,256,63354,1,0,0:0:0
372,256,63503,2,0,P|408:312|480:248,1,182,10|10,0:0|0:0,0:0:0
428,144,64243,5,0,0:0:0
428,144,64391,2,0,P|512:144,2,60.6666666666667,12|0|0,0:0|0:0|0:0,0:0:0
384,104,64836,2,0,P|300:104,2,60.6666666666667,8|0|8,0:0|0:0|0:0,0:0:0
428,64,65280,2,8,P|512:64,2,60.6666666666667
380,24,65725,1,8,0:0:0
198,43,66169,6,0,P|137:43|137:43|57:120,1,121.333333333333,4|0,0:0|0:0,0:0:0
64,137,66614,2,0,P|39:192|39:192|76:297,1,121.333333333333,8|0,0:0|0:0,0:0:0
79,307,67058,1,10,0:0:0
195,342,67354,1,0,0:0:0
195,342,67503,1,10,0:0:0
256,236,67799,5,0,0:0:0
256,236,67947,2,0,P|256:44,1,182,12|10,0:0|0:0,0:0:0
172,144,68688,1,0,0:0:0
172,144,68836,2,0,P|240:120|344:144,1,182,10|10,0:0|0:0,0:0:0
452,196,69577,5,0,0:0:0
452,196,69725,2,0,P|432:284|432:284|488:368,1,182,12|10,0:0|0:0,0:0:0
368,324,70466,1,0,0:0:0
368,324,70614,2,0,P|285:360|285:360|192:321,1,182,12|10,0:0|0:0,0:0:0
92,268,71354,5,0,0:0:0
92,268,71503,2,0,P|12:268,2,60.6666666666667,12|0|0,0:0|0:0|0:0,0:0:0
132,224,71947,2,0,P|200:224,2,60.6666666666667,8|0|8,0:0|0:0|0:0,0:0:0
92,180,72391,2,8,P|12:180,2,60.6666666666667
132,136,72836,2,0,P|164:60|254:45,1,182,8|12,0:0|0:0,2:0:0
364,96,73577,5,0,0:0:0
364,96,73725,2,0,P|468:116|452:212,1,182,8|10,0:0|0:0,0:0:0
428,288,74466,1,0,0:0:0
428,288,74614,2,0,P|324:268|340:172,1,182,8|10,0:0|0:0,0:0:0
252,104,75354,6,0,P|208:40,1,60.6666666666667,0|8,0:0|0:0,0:0:0
144,136,75799,2,0,P|80:104,1,60.6666666666667,0|10,0:0|0:0,0:0:0
92,224,76243,2,0,P|4:224,1,60.6666666666667,0|8,0:0|0:0,0:0:0
108,320,76688,5,0,0:0:0
108,320,76836,1,12,0:0:0
224,348,77132,1,0,0:0:0
224,348,77280,1,8,0:0:0
336,300,77577,1,0,0:0:0
336,300,77725,1,10,0:0:0
456,320,78021,1,0,0:0:0
456,320,78169,1,8,0:0:0
412,208,78466,5,0,0:0:0
412,208,78614,2,8,P|452:84,1,121.333333333333,12|2,0:0|0:0,0:0:0
468,36,79058,1,8,0:0:0
348,60,79354,2,0,P|284:256,1,182,8|2,0:0|0:0,0:0:0
272,292,79947,1,8,0:0:0
156,320,80243,5,0,0:0:0
156,320,80391,2,0,P|92:348|12:264,1,182,12|12,0:0|0:0,0:0:0
44,164,81132,1,0,0:0:0
44,164,81280,2,0,P|108:136|188:220,1,182,12|12,0:0|0:0,0:0:0
284,276,82021,5,0,0:0:0
284,276,82169,2,0,P|348:304|428:220,1,182,12|12,0:0|0:0,0:0:0
380,124,82910,1,0,0:0:0
380,124,83058,2,0,P|312:124|268:168,1,121.333333333333,12|12,0:0|0:0,0:0:0
120,60,83799,5,12,0:0:0
256,192,83947,12,4,85725,0:0:0
189,163,86169,6,0,P|256:120|321:163,1,166.833333333333,2|2,0:0|0:0,0:0:0
256,216,87354,1,2,0:0:0
