osu file format v9

[General]
AudioFilename: 9nine - Shining Star.mp3
AudioLeadIn: 1000
PreviewTime: 53787
Countdown: 0
SampleSet: Soft
StackLeniency: 0.7
Mode: 1
LetterboxInBreaks: 1

[Editor]
Bookmarks: 15326,22379,54559,89389,121130,152872,182850
DistanceSpacing: 0
BeatDivisor: 4
GridSize: 4

[Metadata]
Title:SHINING STAR (TV Size)
Artist:9nine
Creator:xierbaliti
Version:Taiko
Source:STAR DRIVER Kagayaki no Takuto
Tags:Satake Uki Nishiwaki Sayaka Yoshii Kanae Kawashima Umika Morata Hirona

[Difficulty]
HPDrainRate:5
CircleSize:5
OverallDifficulty:5
ApproachRate:5
SliderMultiplier:1.4
SliderTickRate:1

[Events]
//Background and Video events
0,0,"taiko BG.jpg"
//Break Periods
//Storyboard Layer 0 (Background)
//Storyboard Layer 1 (Fail)
//Storyboard Layer 2 (Pass)
//Storyboard Layer 3 (Foreground)
//Storyboard Sound Samples
//Background Colour Transformations
3,100,163,162,255

[TimingPoints]
1626,441.176470588235,4,2,1,100,1,0
54567,-100,4,2,1,100,0,1
88096,-100,4,2,1,100,0,0

[Colours]
Combo1 : 128,128,255
Combo2 : 255,128,255
Combo3 : 128,0,64
Combo4 : 128,255,0

[HitObjects]
44,40,1626,2,0,B|492:40,1,420
44,132,3390,2,0,B|492:132,1,420
40,240,5155,2,0,B|488:240,1,420
40,344,6920,2,0,B|484:344,1,420
256,192,8684,5,0
256,192,9125,1,0
256,192,9567,1,0
256,192,10008,1,0
256,192,10449,1,0
256,192,10670,1,0
256,192,10890,1,2
256,192,11331,1,2
256,192,11552,1,0
256,192,11773,1,2
256,192,12214,1,2
256,192,12434,1,0
256,192,12655,1,2
256,192,12765,1,2
256,192,12876,1,0
256,192,12986,1,0
256,192,13096,1,2
256,192,13317,1,4
256,192,13978,1,4
256,192,14420,1,2
256,192,14530,1,0
256,192,14640,1,2
256,192,14751,1,0
256,192,14861,1,2
256,192,14971,1,2
256,192,15081,1,0
256,192,15192,1,0
256,192,15302,1,2
256,192,15412,1,2
256,192,15523,1,0
256,192,15633,1,0
256,192,15743,1,0
256,192,15964,1,0
256,192,16074,1,0
256,192,16184,1,2
256,192,16405,1,0
256,192,16626,1,2
256,192,16736,1,0
256,192,16846,1,0
256,192,16956,1,2
256,192,17067,1,0
256,192,17287,1,0
256,192,17508,1,0
256,192,17618,1,2
256,192,17839,1,2
256,192,17949,1,0
256,192,18170,1,0
256,192,18390,1,0
256,192,18501,1,0
256,192,18611,1,2
256,192,18721,1,2
256,192,18831,1,2
256,192,19052,1,0
256,192,19162,1,0
256,192,19273,1,2
256,192,19493,1,2
256,192,19603,1,0
256,192,19714,1,0
256,192,19934,1,2
256,192,20155,1,2
256,192,20265,1,0
256,192,20376,1,0
256,192,20486,1,0
256,192,20596,1,2
256,192,20817,1,0
256,192,20927,1,0
256,192,21037,1,2
256,192,21148,1,0
256,192,21368,1,2
256,192,21478,1,0
256,192,21699,1,0
256,192,21920,1,0
256,192,22140,1,2
256,192,22361,1,2
256,192,22581,1,0
256,192,22802,1,4
256,192,23243,1,0
256,192,23684,1,0
256,192,23905,1,0
256,192,24126,1,2
256,192,24567,1,0
256,192,25008,1,2
256,192,25449,1,0
256,192,25670,1,0
256,192,25890,1,2
256,192,26331,1,0
256,192,26773,1,2
256,192,27214,1,0
256,192,27655,1,2
256,192,28096,1,0
256,192,28317,1,0
256,192,28537,1,2
256,192,28758,1,2
256,192,28978,1,0
256,192,29089,1,0
256,192,29199,1,2
256,192,29309,1,2
256,192,29420,1,0
256,192,29530,1,0
256,192,29640,1,2
256,192,29751,1,2
256,192,29861,1,0
256,192,30302,1,0
256,192,30523,1,2
256,192,30743,1,0
256,192,31184,1,0
256,192,31405,1,2
256,192,31626,1,2
256,192,32067,1,2
256,192,32287,1,0
256,192,32508,1,2
256,192,32949,1,0
256,192,33390,1,2
256,192,33611,1,0
256,192,33831,1,2
256,192,34052,1,0
256,192,34273,1,0
256,192,34383,1,0
256,192,34603,1,2
256,192,34714,1,0
256,192,34934,1,0
256,192,35155,1,2
256,192,35265,1,0
256,192,35376,1,2
256,192,35486,1,0
256,192,35596,1,2
256,192,35817,1,0
256,192,36037,1,2
256,192,36258,1,2
256,192,36478,1,2
256,192,36699,1,2
256,192,36920,1,6
256,192,37140,1,0
256,192,37250,1,0
256,192,37361,1,2
256,192,37581,1,2
256,192,37692,1,0
256,192,37912,1,0
256,192,38023,1,2
256,192,38243,1,0
256,192,38353,1,2
256,192,38464,1,2
256,192,38684,1,0
256,192,38905,1,2
256,192,39015,1,2
256,192,39125,1,0
256,192,39346,1,0
256,192,39456,1,2
256,192,39677,1,0
256,192,39787,1,2
256,192,39898,1,0
256,192,40008,1,2
256,192,40228,1,0
256,192,40449,1,2
256,192,40559,1,0
256,192,40670,1,2
256,192,40780,1,0
256,192,40890,1,2
256,192,41111,1,0
256,192,41331,1,0
256,192,41442,1,2
256,192,41552,1,0
256,192,41662,1,2
256,192,41773,1,0
256,192,41993,1,0
256,192,42214,1,0
256,192,42324,1,0
256,192,42434,1,2
256,192,42545,1,2
256,192,42655,1,0
256,192,42765,1,0
256,192,42875,1,2
256,192,43096,1,0
256,192,43206,1,0
256,192,43317,1,0
256,192,43537,1,0
256,192,43758,1,0
256,192,43978,1,0
256,192,44089,1,2
256,192,44309,1,0
256,192,44420,1,2
256,192,44640,1,0
256,192,44861,1,0
256,192,44971,1,2
256,192,45192,1,0
256,192,45302,1,2
256,192,45523,1,0
256,192,45743,1,2
256,192,45853,1,0
256,192,46074,1,2
256,192,46184,1,0
256,192,46405,1,0
256,192,46625,1,2
256,192,46736,1,0
256,192,46956,1,2
256,192,47067,1,0
256,192,47287,1,0
256,192,47508,1,4
256,192,47949,1,6
256,192,48390,1,4
256,192,48831,1,6
256,192,49273,1,0
256,192,49383,1,2
256,192,49603,1,2
256,192,49714,1,0
256,192,49934,1,0
256,192,50155,1,0
256,192,50265,1,2
256,192,50486,1,0
256,192,50596,1,2
256,192,50817,1,0
256,192,51037,1,0
256,192,51148,1,0
256,192,51258,1,2
256,192,51478,1,0
256,192,51589,1,0
256,192,51699,1,2
256,192,51920,1,0
256,192,52030,1,0
256,192,52140,1,2
256,192,52361,1,0
256,192,52471,1,0
256,192,52581,1,2
256,192,52802,1,0
256,192,52912,1,0
256,192,53023,1,2
256,192,53133,1,2
256,192,53243,1,0
256,192,53353,1,0
256,192,53464,1,2
256,192,54567,1,0
256,192,54677,1,2
256,192,54898,1,0
256,192,55008,1,2
256,192,55228,1,0
256,192,55449,1,2
256,192,55559,1,0
256,192,55780,1,2
256,192,55890,1,0
256,192,56111,1,0
256,192,56331,1,0
256,192,56442,1,0
256,192,56552,1,2
256,192,56773,1,0
256,192,56883,1,2
256,192,56993,1,0
256,192,57214,1,2
256,192,57324,1,0
256,192,57434,1,2
256,192,57655,1,2
256,192,57765,1,0
256,192,57875,1,0
256,192,58096,1,0
256,192,58206,1,0
256,192,58317,1,2
256,192,58427,1,2
256,192,58537,1,0
256,192,58758,1,0
256,192,58978,1,2
256,192,59089,1,2
256,192,59199,1,0
256,192,59309,1,0
256,192,59420,1,2
256,192,59640,1,0
256,192,59861,1,0
256,192,59971,1,0
256,192,60081,1,2
256,192,60302,1,0
256,192,60523,1,0
256,192,60743,1,0
256,192,60853,1,2
256,192,61074,1,0
256,192,61184,1,2
256,192,61405,1,0
256,192,61625,1,0
256,192,61736,1,2
256,192,61846,1,0
256,192,61956,1,2
256,192,62067,1,2
256,192,62287,1,0
256,192,62508,1,2
256,192,62618,1,0
256,192,62728,1,0
256,192,62839,1,2
256,192,62949,1,2
256,192,63170,1,0
256,192,63390,1,2
256,192,63500,1,0
256,192,63721,1,2
256,192,63831,1,0
256,192,63942,1,2
256,192,64052,1,0
256,192,64273,1,0
256,192,64493,1,0
256,192,64714,1,2
256,192,64824,1,0
256,192,64934,1,2
256,192,65155,1,2
256,192,65375,1,0
256,192,65596,1,0
256,192,65706,1,2
256,192,65817,1,0
256,192,66037,1,2
256,192,66148,1,0
256,192,66258,1,0
256,192,66478,1,0
256,192,66589,1,0
256,192,66699,1,2
256,192,66920,1,2
256,192,67030,1,0
256,192,67140,1,2
256,192,67361,1,0
256,192,67471,1,2
256,192,67581,1,0
256,192,67692,1,2
256,192,67802,1,0
256,192,67912,1,0
256,192,68023,1,2
256,192,68133,1,2
256,192,68243,1,0
256,192,68464,1,0
256,192,68684,1,0
256,192,68795,1,2
256,192,69015,1,0
256,192,69125,1,2
256,192,69236,1,0
256,192,69346,1,2
256,192,69567,1,2
256,192,69677,1,0
256,192,69898,1,2
256,192,70008,1,0
256,192,70118,1,2
256,192,70228,1,0
256,192,70449,1,0
256,192,70559,1,2
256,192,70780,1,2
256,192,70890,1,0
256,192,71111,1,0
256,192,71331,1,0
256,192,71442,1,0
256,192,71552,1,2
256,192,71662,1,0
256,192,71773,1,0
256,192,71993,1,0
256,192,72214,1,2
256,192,72434,1,0
256,192,72655,1,2
256,192,72765,1,0
256,192,72875,1,0
256,192,73096,1,2
256,192,73317,1,0
256,192,73537,1,2
256,192,73648,1,0
256,192,73758,1,0
256,192,73978,1,0
256,192,74089,1,0
256,192,74199,1,2
256,192,74420,1,0
256,192,74640,1,0
256,192,74861,1,0
256,192,74971,1,2
256,192,75192,1,0
256,192,75302,1,0
256,192,75412,1,2
256,192,75523,1,2
256,192,75633,1,0
256,192,75743,1,0
256,192,76074,1,2
256,192,76184,1,0
256,192,76405,1,0
256,192,76625,1,0
256,192,76956,1,2
256,192,77067,1,0
256,192,77287,1,0
256,192,77508,1,0
256,192,77728,1,0
256,192,77949,1,2
256,192,78170,1,0
256,192,78390,1,0
256,192,78500,1,0
256,192,78611,1,2
256,192,78831,1,2
256,192,79052,1,0
256,192,79273,1,0
256,192,79493,1,0
256,192,79714,1,2
256,192,79824,1,0
256,192,79934,1,2
256,192,80155,1,0
256,192,80375,1,0
256,192,80596,1,2
256,192,80706,1,0
256,192,80817,1,2
256,192,81037,1,0
256,192,81148,1,0
256,192,81258,1,2
256,192,81368,1,2
256,192,81478,1,0
256,192,81589,1,0
256,192,81699,1,2
256,192,81920,1,0
256,192,82030,1,0
256,192,82140,1,2
256,192,82250,1,0
256,192,82361,1,0
256,192,82581,1,0
256,192,82802,1,0
256,192,82912,1,0
256,192,83023,1,2
256,192,83243,1,0
256,192,83464,1,0
256,192,83684,1,0
256,192,83795,1,0
256,192,83905,1,2
256,192,84015,1,2
256,192,84125,1,0
256,192,84236,1,0
256,192,84346,1,2
256,192,84567,1,0
256,192,84787,1,0
256,192,85008,1,0
256,192,85118,1,0
256,192,85228,1,2
256,192,85449,1,0
256,192,85559,1,2
256,192,85670,1,0
256,192,85780,1,2
256,192,85890,1,0
256,192,86000,1,0
256,192,86111,1,2
256,192,86331,1,4
256,192,86552,1,4
256,192,86993,1,6
256,192,87214,1,6
256,192,87655,1,4
256,192,87875,1,4
