osu file format v9

[General]
AudioFilename: 9nine - Shining Star.mp3
AudioLeadIn: 1000
PreviewTime: 53787
Countdown: 0
SampleSet: Soft
StackLeniency: 0.7
Mode: 0
LetterboxInBreaks: 1

[Editor]
Bookmarks: 15326,22379,54559,89389,121130,152872,182850
DistanceSpacing: 1
BeatDivisor: 2
GridSize: 4

[Metadata]
Title:SHINING STAR (TV Size)
Artist:9nine
Creator:xierbaliti
Version:Normal
Source:STAR DRIVER Kagayaki no Takuto
Tags:Satake Uki Nishiwaki Sayaka Yoshii Kanae Kawashima Umika Morata Hirona

[Difficulty]
HPDrainRate:3
CircleSize:4
OverallDifficulty:3
ApproachRate:5
SliderMultiplier:1.2
SliderTickRate:1

[Events]
//Background and Video events
0,0,"bg.jpg"
Video,0,"vid.flv"
//Break Periods
//Storyboard Layer 0 (Background)
//Storyboard Layer 1 (Fail)
//Storyboard Layer 2 (Pass)
//Storyboard Layer 3 (Foreground)
//Storyboard Sound Samples
//Background Colour Transformations
3,100,163,162,255

[TimingPoints]
1626,441.176470588235,4,2,1,70,1,0
54567,-100,4,2,1,70,0,1
54787,-100,4,2,1,70,0,0
88096,-100,4,2,1,0,0,0

[Colours]
Combo1 : 128,128,255
Combo2 : 255,128,255
Combo3 : 128,0,64
Combo4 : 128,255,0

[HitObjects]
196,112,1626,2,0,B|156:160|68:144,2,120,4|2|0
308,72,2949,1,0
304,192,3390,2,0,B|368:172|448:192,2,120,2|0|2
200,256,4714,1,0
148,148,5155,6,0,B|96:188,2,60,0|2|0
240,72,6037,2,0,B|300:80,2,60,0|2|0
128,28,6920,2,0,B|172:88,1,60,0|2
200,124,7361,2,0,B|240:180,1,60,0|2
272,220,7802,1,0
432,92,8684,6,0,B|376:56|300:76,1,120,4|8
260,92,9346,1,0
204,112,9567,2,0,B|176:100|128:108,2,60,0|0|8
288,196,10449,2,0,B|248:244|168:236,1,120,2|8
64,204,11331,1,2
108,316,11773,1,8
108,316,11993,1,2
108,316,12214,6,0,B|136:252|140:164,1,120,4|8
132,80,13096,1,4
132,80,13317,1,4
308,52,13978,2,0,B|348:108|456:104,2,120,4|8|0
236,148,15302,1,8
236,148,15523,1,0
236,148,15743,6,0,B|264:264,1,120,4|8
152,308,16625,2,0,B|92:288,2,60,2|2|8
268,336,17508,2,0,B|408:300,1,120,0|8
392,188,18390,2,0,B|304:168,2,60,2|2|8
404,68,19273,6,0,B|272:64,1,120,2|8
224,60,19934,1,0
104,56,20375,1,2
104,56,20596,1,8
136,172,21037,2,0,B|56:184,2,60,4|0|8
248,216,21920,2,0,B|184:244,1,60,0|8
176,296,22361,2,0,B|104:304,2,60,8|0|4
289,336,23243,6,0,B|317:260|429:252,1,120,0|0
436,252,23905,1,0
496,248,24125,1,8
448,136,24567,1,2
340,88,25008,1,8
236,152,25449,2,0,B|184:116|108:124,1,120,0|8
92,240,26331,6,0,B|24:224,2,60,2|0|8
148,256,26993,1,2
204,272,27214,2,0,B|268:244|352:252,1,120,0|8
388,152,28096,2,0,B|328:132,1,60,0|2
324,72,28537,2,0,B|244:96,1,60,8|2
232,136,28978,2,0,B|168:112|100:136,2,120,0|8|4
296,240,30302,6,0,B|220:292|108:272,1,180,0|2
64,256,31184,1,8
132,160,31625,2,0,B|200:232|316:228,1,180,0|2
340,188,32508,2,0,B|380:240,2,60,0|0|8
272,88,33390,2,0,B|328:112|420:96,1,120,2|8
432,56,34052,2,0,B|448:152,1,60,2|0
452,176,34493,1,2
452,176,34714,1,8
360,252,35155,6,0,B|256:268,1,60,0|2
240,272,35596,1,4
136,332,36037,2,0,B|152:264|136:172,1,120,2|8
132,152,36699,5,0
132,152,36920,1,4
80,44,37361,1,8
80,44,37581,2,0,B|156:72|272:60,1,180,2|8
376,36,38684,1,2
432,144,39125,1,8
432,144,39346,2,0,B|392:240|268:256,1,180,2|8
176,260,40449,6,0,B|120:280,2,60,2|0|8
244,160,41331,2,0,B|328:144,2,60,2|0|8
128,132,42214,2,0,B|116:52|28:40,2,120,0|2|0
140,192,43317,1,2
140,192,43537,1,8
244,248,43978,5,4
240,128,44420,1,8
348,180,44861,1,2
348,180,45081,1,0
348,180,45302,2,0,B|408:164|472:172,2,120,8|0|8
232,204,46625,1,0
232,204,46846,1,2
232,204,47067,1,8
120,164,47508,5,4
220,96,47949,1,8
288,196,48390,1,4
188,264,48831,1,8
188,264,49052,5,2
188,264,49273,2,0,B|176:136,1,120,2|8
176,24,50155,2,0,B|220:84|312:80,2,120,2|8|4
96,112,51478,1,8
172,204,51920,2,0,B|224:152|320:160,1,120,2|8
324,120,52581,1,2
324,120,52802,2,0,B|408:172|508:128,1,180,2|4
108,224,54567,6,0,B|164:280|256:272,1,120,4|8
240,216,55228,2,0,B|304:192|388:200,1,120,2|0
416,204,55890,1,8
464,92,56331,6,0,B|396:108|320:88,1,120,2|8
328,36,56993,2,0,B|276:100|176:80,1,120,2|0
164,76,57655,1,8
140,192,58096,6,0,B|32:204,2,60,2|0|8
244,252,58978,2,0,B|248:316,2,60,2|0|8
336,172,59861,2,0,B|396:212|480:192,2,120,0|8|2
248,92,61184,1,8
244,212,61625,6,0,B|200:152|112:164,1,120,4|8
80,164,62287,1,2
136,268,62728,1,2
136,268,62949,1,8
244,212,63390,2,0,B|288:152|376:164,1,120,0|8
408,164,64052,1,2
352,268,64493,1,2
352,268,64714,1,8
244,212,65155,6,0,B|216:80,1,120,4|8
108,48,66037,2,0,B|80:168,1,120,4|8
188,220,66920,2,0,B|312:200,1,120,2|8
364,188,67581,1,2
484,168,68023,1,2
484,168,68243,1,8
404,80,68684,6,0,B|284:88,1,120,4|8
268,144,69346,2,0,B|224:84|120:92,1,120,2|2
132,40,70008,2,0,B|64:64,2,60,8|0|4
176,152,70890,2,0,B|252:120,2,60,8|0|0
120,260,71773,6,0,B|184:240|280:248,1,120,8|4
356,276,72655,2,0,B|372:204|488:184,2,120,8|2|8
240,312,73978,2,0,B|248:248|216:180,1,120,0|8
196,140,74640,1,2
168,88,74861,2,0,B|124:124|48:120,2,120,2|8|4
272,32,76184,5,8
282,91,76405,1,2
323,133,76625,2,0,B|385:104|461:113,2,120,2|8|2
246,226,77949,1,8
221,171,78170,1,0
164,150,78390,2,4,B|105:178|35:161,2,120,2|8|4
181,268,79714,5,8
229,232,79934,1,0
285,252,80155,2,0,B|310:181|417:187,2,120,2|8|4
266,133,81478,1,8
237,79,81699,1,0
181,56,81920,1,2
121,58,82140,1,0
66,84,82361,1,8
150,169,82802,6,0,B|160:248|72:265,2,120,4|8|2
130,111,83905,1,2
73,91,84125,2,0,B|96:18|212:31,1,120,8|4
242,122,85008,1,8
253,180,85228,1,2
289,228,85449,1,0
347,243,85670,1,2
406,237,85890,1,4
353,129,86331,6,0,B|396:73,2,60,4|4|0
317,177,86993,2,0,B|331:246,2,60,4|4|0
291,122,87655,2,4,B|219:134,1,60
256,192,88096,12,0,88978
