osu file format v9

[General]
AudioFilename: 9nine - Shining Star.mp3
AudioLeadIn: 1500
PreviewTime: 53787
Countdown: 0
SampleSet: Soft
StackLeniency: 0.7
Mode: 0
LetterboxInBreaks: 1

[Editor]
Bookmarks: 15326,22379,54559,89389,121130,152872,182850
DistanceSpacing: 1
BeatDivisor: 4
GridSize: 4

[Metadata]
Title:SHINING STAR (TV Size)
Artist:9nine
Creator:xierbaliti
Version:Insane
Source:STAR DRIVER Kagayaki no Takuto
Tags:Satake Uki Nishiwaki Sayaka Yoshii Kanae Kawashima Umika Morata Hirona

[Difficulty]
HPDrainRate:6
CircleSize:5
OverallDifficulty:6
ApproachRate:8
SliderMultiplier:1.8
SliderTickRate:1

[Events]
//Background and Video events
0,0,"bg.jpg"
Video,0,"vid.flv"
//Break Periods
//Storyboard Layer 0 (Background)
//Storyboard Layer 1 (Fail)
//Storyboard Layer 2 (Pass)
//Storyboard Layer 3 (Foreground)
//Storyboard Sound Samples
//Background Colour Transformations
3,100,163,162,255

[TimingPoints]
1626,441.176470588235,4,2,1,70,1,0
6920,-200,4,2,1,70,0,0
8684,-100,4,2,1,70,0,0
36258,-100,4,2,1,80,0,0
36478,-100,4,2,1,70,0,0
36699,-100,4,2,1,55,0,0
36920,-100,4,2,1,70,0,0
53464,-200,4,2,1,70,0,0
53905,-100,4,2,1,70,0,0
54567,-100,4,2,1,70,0,1
54787,-100,4,2,1,70,0,0
88096,-100,4,2,1,0,0,0

[Colours]
Combo1 : 128,128,255
Combo2 : 255,128,255
Combo3 : 128,0,64
Combo4 : 128,255,0

[HitObjects]
104,308,964,1,0
88,236,1184,1,2
152,200,1405,1,0
192,260,1625,2,0,B|248:296|324:280,2,135,2|0|2
264,104,2728,5,0
332,136,2949,1,2
404,120,3170,1,0
348,72,3390,2,0,B|372:128|376:208,1,135,2|0
196,192,4052,1,2
196,192,4273,2,0,B|184:132|104:116,1,90
68,116,4714,1,2
264,328,5155,6,0,B|296:240|404:224,1,180,0|2
472,228,5817,1,2
484,156,6037,2,0,B|420:84|316:96,1,180,0|2
252,112,6699,1,0
184,92,6920,6,0,B|180:144|144:172,1,90,0|2
256,192,7581,1,0
328,292,7802,2,0,B|332:240|368:212,1,90,2|0
256,192,8464,1,0
324,100,8684,6,0,B|412:80,1,90,4|0
380,184,9125,2,0,B|288:204,1,90,2|0
292,203,9456,1,0
292,203,9567,1,0
188,224,9787,1,0
132,132,10008,1,2
208,56,10228,1,0
188,224,10449,6,0,B|92:216,1,90,2|0
152,312,10890,2,0,B|240:308,1,90,2|0
241,307,11221,1,0
241,307,11331,1,0
348,288,11552,1,0
348,180,11773,2,0,B|396:188|440:160,2,90,2|2|4
276,100,12434,5,0
376,52,12655,1,8
376,69,12765,1,0
376,86,12876,1,0
376,104,12986,1,0
376,121,13096,5,4
376,300,13317,1,4
220,212,13537,2,0,B|304:232|400:204,1,180,2|4
397,204,14089,1,0
397,204,14199,1,0
456,136,14420,1,8
392,72,14640,5,0
364,88,14751,1,0
336,100,14861,1,2
304,108,14971,1,2
272,116,15081,1,0
240,120,15192,1,0
208,120,15302,1,8
176,120,15412,1,0
144,112,15523,1,2
116,96,15633,1,2
92,76,15743,6,0,B|80:120|36:144,1,90,4|0
44,232,16184,1,8
128,260,16405,1,2
204,212,16626,1,0
288,96,16846,1,0
432,92,17067,1,8
156,28,17508,6,0,B|172:84|244:96,1,90,2|0
308,100,17949,1,8
352,180,18170,1,2
296,252,18390,1,0
160,204,18611,1,0
76,320,18831,1,8
300,368,19273,6,0,B|360:368|388:296,1,90,2|0
364,236,19714,1,8
440,184,19934,1,2
428,96,20155,1,0
296,36,20375,1,0
152,60,20596,1,8
256,272,21037,6,0,B|268:224|328:192,1,90,4|0
168,260,21478,2,0,B|212:252|256:272,1,90,4|0
132,180,21920,2,0,B|164:216|172:276,1,90,4|8
132,180,22361,1,8
108,92,22581,1,0
192,60,22802,6,0,B|272:88|376:64,1,180,4|8
456,48,23464,1,0
456,48,23684,2,0,B|448:132|492:184,1,135
492,220,24126,1,8
444,296,24346,1,0
444,296,24456,1,0
444,296,24567,2,0,B|368:248|264:268,1,180,0|8
184,288,25228,1,0
184,288,25339,1,2
120,224,25559,1,0
120,224,25670,1,2
128,136,25890,6,0,B|84:152|36:148,2,90,8|2|0
128,136,26442,1,0
128,136,26552,1,2
208,92,26773,1,8
280,144,26993,2,0,B|380:164|464:128,1,180
504,52,27655,1,8
416,72,27876,2,0,B|348:96|272:88,1,135,2|0
280,44,28317,2,0,B|288:140|272:228,1,180,2|2
256,312,28978,5,2
92,48,29420,1,8
420,48,29861,1,2
256,192,30302,6,0,B|304:140|400:144,1,135,4|0
424,152,30743,1,0
500,200,30964,1,0
492,112,31184,1,8
416,284,31405,6,0,B|356:340|248:332,1,180,2|2
164,296,32067,1,8
168,208,32287,1,0
120,132,32508,2,0,B|76:128|32:140,2,90,0|0|8
192,80,33170,1,2
264,136,33390,6,0,B|320:152|384:136,1,90,0|2
440,116,33831,1,8
364,68,34052,2,0,B|384:116|392:184,1,90
400,244,34493,1,8
400,244,34603,1,0
400,244,34714,2,0,B|344:248|300:272,1,90,8|0
232,308,35155,5,8
104,264,35376,1,2
104,128,35596,1,4
232,80,35817,1,0
316,184,36037,5,8
252,36,36258,1,2
88,44,36478,1,8
52,200,36699,1,8
184,296,36920,6,0,B|272:264|388:276,1,180,4|8
448,248,37581,1,2
444,160,37802,1,2
356,132,38023,1,2
308,208,38243,1,8
64,84,38684,6,0,B|84:176|144:200,1,135,2|0
104,232,39125,2,0,B|140:168|212:148,1,135,8|0
252,140,39567,1,2
292,220,39787,1,0
380,208,40008,1,8
400,120,40228,1,2
320,80,40449,6,0,B|232:96|160:56,1,135,4|0
156,36,40890,1,8
120,116,41111,2,0,B|96:156|40:160,1,90,0|2
120,208,41552,2,0,B|128:264|112:296,1,90,0|8
200,288,41993,1,0
292,284,42214,2,0,B|360:244|444:256,1,135,4|0
464,268,42655,1,8
476,180,42875,1,0
456,92,43096,5,2
372,160,43317,1,0
272,200,43537,1,8
164,196,43758,1,2
60,164,43978,6,0,B|156:176|240:100,1,180,4|8
252,24,44640,1,2
252,24,44861,2,0,B|208:116|224:204,1,180,2|8
248,284,45523,1,2
248,284,45743,2,0,B|208:188|224:104,1,180,2|8
252,24,46405,1,0
328,72,46625,2,0,B|380:132|472:116,1,135,2|0
492,108,47067,1,8
472,196,47287,1,0
472,284,47508,6,0,B|428:264|360:272,1,90,4|0
296,292,47949,1,8
220,244,48170,1,2
212,156,48390,2,0,B|160:180|112:160,2,90,2|0|8
296,124,49052,1,2
368,180,49273,6,0,B|424:188|460:168,1,90,2|0
300,152,49714,2,0,B|256:132|200:140,1,90,8|0
356,108,50155,2,0,B|400:52|476:56,1,135,2|0
474,55,50596,1,8
474,55,50706,1,0
474,55,50817,1,2
324,220,51037,6,0,B|240:224|188:296,1,135,4|0
176,312,51478,1,8
48,84,51920,2,0,B|124:104|148:192,1,135,2|0
152,216,52361,1,8
240,236,52581,1,0
312,184,52802,5,4
288,96,53023,1,0
200,76,53243,1,8
132,136,53464,2,0,B|124:88|76:68,1,90,4|2
132,136,54126,5,0
156,224,54346,1,2
248,220,54567,2,0,B|292:176|376:184,1,135,4|0
416,196,55008,1,8
500,168,55228,2,0,B|420:120|456:4,1,180,2|2
416,92,55890,5,8
328,80,56111,1,0
264,144,56331,2,0,B|188:180|92:160,1,135,2|0
88,156,56773,1,8
120,240,56993,1,2
252,276,57214,6,0,B|300:268|368:272,1,90,0|2
316,92,57655,2,0,B|264:104|212:96,1,90,8|2
388,184,58096,2,0,B|392:292|488:332,1,180,4|8
440,248,58758,1,2
352,272,58978,2,0,B|276:212|168:224,1,180,0|8
264,264,59640,1,2
304,184,59861,6,0,B|404:188|452:80,1,180,0|8
368,136,60523,1,2
316,64,60743,1,0
316,64,60853,1,2
228,52,61074,1,0
228,52,61184,2,0,B|136:60,1,90,10|0
120,328,61625,6,0,B|172:244|300:252,1,180,4|8
360,272,62287,1,0
436,228,62508,2,0,B|480:244,3,45,2|0|2|0
436,228,62949,2,0,B|416:124,1,90,8|0
408,48,63390,5,2
408,48,63500,1,0
408,48,63611,1,0
408,48,63721,1,0
408,48,63831,1,8
332,96,64052,2,0,B|236:160|136:132,1,180,2|2
116,60,64714,1,8
72,140,64934,1,0
92,320,65155,6,0,B|140:312|188:328,1,90,4|0
208,148,65596,2,0,B|200:200|224:260,1,90,2|0
252,264,65927,1,0
296,264,66037,2,0,B|392:244,1,90,2|0
472,228,66478,1,8
444,312,66699,5,2
444,312,66809,1,0
444,312,66920,2,0,B|436:212|396:124,1,180,2|8
402,137,67471,1,0
402,137,67581,1,0
402,137,67692,1,0
402,137,67802,5,2
380,116,67912,1,0
352,100,68023,1,0
320,92,68133,1,0
288,88,68243,5,2
256,88,68353,1,0
224,96,68464,1,0
196,112,68574,1,0
172,128,68684,6,0,B|124:180|40:176,1,135,4|0
50,176,69125,1,8
128,220,69346,1,0
208,180,69567,5,2
324,112,69787,1,0
436,188,70008,1,8
384,312,70228,1,2
248,304,70449,6,0,B|288:236|396:228,1,135,4|0
357,233,70890,1,8
444,200,71111,1,2
428,112,71331,5,0
264,36,71552,1,2
108,128,71773,1,8
188,288,71993,1,0
368,292,72214,6,0,B|364:196|244:148,1,180,4|8
176,140,72875,1,2
340,212,73096,6,0,B|260:280|172:272,1,180,0|10
88,256,73758,1,0
268,260,73978,6,0,B|256:140|336:76,1,180,2|8
400,60,74640,1,0
316,92,74861,5,0
316,92,74971,1,2
228,80,75192,1,0
228,80,75302,1,10
140,92,75523,1,0
52,84,75743,5,4
112,276,76074,1,2
112,276,76184,2,0,B|136:228|212:216,1,90,8|0
256,136,76625,1,2
400,276,76956,1,2
400,276,77067,2,0,B|448:252|448:180,1,90,8|0
460,84,77508,2,0,B|384:128|284:112,1,180,2|8
196,96,78170,1,0
204,276,78390,6,0,B|236:204|352:200,1,135,2|0
356,200,78831,1,8
280,244,79052,1,0
172,160,79273,6,0,B|144:88|36:92,1,135,4|0
20,96,79714,1,4
104,132,79934,1,0
220,60,80155,6,0,B|284:28|376:32,1,135,4|0
396,40,80596,1,8
476,84,80817,1,0
476,84,80927,1,0
476,84,81037,2,0,B|448:164|456:264,1,180,4|8
420,252,81589,1,0
384,244,81699,1,0
348,244,81809,1,0
312,256,81920,6,0,B|256:272,1,45,2|0
296,232,82140,2,0,B|248:224,1,45,2|0
292,204,82361,2,0,B|236:180,1,45,8|0
292,172,82581,2,0,B|256:136,1,45,2|0
304,140,82802,6,0,B|368:80|480:96,1,180,4|8
388,128,83464,1,0
296,68,83684,1,2
200,120,83905,1,0
228,224,84125,1,8
336,236,84346,1,2
200,120,84567,6,0,B|136:180|24:168,1,180,4|8
116,136,85228,1,0
128,272,85449,1,2
260,308,85670,1,0
340,200,85890,1,8
252,96,86111,1,2
136,308,86331,5,4
256,40,86552,1,4
376,308,86993,5,4
256,40,87214,1,4
88,132,87655,5,4
432,132,87875,1,4
256,192,88096,12,0,88978
