osu file format v9

[General]
AudioFilename: 9nine - Shining Star.mp3
AudioLeadIn: 1500
PreviewTime: 53787
Countdown: 0
SampleSet: Soft
StackLeniency: 0.7
Mode: 0
LetterboxInBreaks: 0

[Editor]
Bookmarks: 15326,22379,54559,89389,121130,152872,182850
DistanceSpacing: 1.2
BeatDivisor: 4
GridSize: 4

[Metadata]
Title:SHINING STAR (TV Size)
Artist:9nine
Creator:xierbaliti
Version:Hard
Source:STAR DRIVER Kagayaki no Takuto
Tags:Satake Uki Nishiwaki Sayaka Yoshii Kanae Kawashima Umika Morata Hirona

[Difficulty]
HPDrainRate:5
CircleSize:4
OverallDifficulty:6
ApproachRate:7
SliderMultiplier:1.5
SliderTickRate:1

[Events]
//Background and Video events
0,0,"bg.jpg"
Video,0,"vid.flv"
//Break Periods
//Storyboard Layer 0 (Background)
//Storyboard Layer 1 (Fail)
//Storyboard Layer 2 (Pass)
//Storyboard Layer 3 (Foreground)
//Storyboard Sound Samples
//Background Colour Transformations
3,100,163,162,255

[TimingPoints]
1626,441.176470588235,4,2,1,70,1,0
36258,-100,4,2,1,80,0,0
36478,-100,4,2,1,70,0,0
36699,-100,4,2,1,55,0,0
36920,-100,4,2,1,70,0,0
54567,-100,4,2,1,70,0,1
54787,-100,4,2,1,70,0,0
88096,-100,4,2,1,0,0,0

[Colours]
Combo1 : 128,128,255
Combo2 : 255,128,255
Combo3 : 128,0,64
Combo4 : 128,255,0

[HitObjects]
184,128,964,2,0,B|144:148|80:140,2,75
256,76,1626,2,0,B|260:152|352:164,2,112.5,4|2|0
460,164,2728,2,0,B|464:120|436:64,2,75,0|2|0
428,248,3390,2,0,B|380:280|316:264,2,112.5,0|2|0
224,208,4493,5,0
196,124,4714,1,2
108,120,4934,1,0
132,208,5155,5,0
280,36,5596,1,2
472,152,6037,1,0
336,332,6478,1,2
308,192,6920,6,0,B|256:140|160:156,1,150,2|0
84,180,7581,1,2
124,260,7802,2,0,B|168:196|264:172,1,150
336,172,8464,1,2
424,168,8684,6,0,B|500:128,1,75,4|0
428,68,9125,2,0,B|344:76,1,75,2|0
353,75,9567,1,2
264,84,9787,1,0
264,84,10008,2,0,B|172:68,1,75,2|0
204,160,10449,6,0,B|108:176,1,75,2|0
168,256,10890,2,0,B|256:268,1,75,2|0
242,266,11331,1,2
332,280,11552,1,0
332,280,11773,2,0,B|428:264,1,75,2|0
496,252,12214,5,2
476,164,12434,1,0
484,76,12655,1,8
484,76,12765,1,0
484,76,12875,1,2
484,76,12986,1,0
484,76,13096,2,4,B|396:88,1,75
320,92,13537,1,2
140,92,13978,6,0,B|80:76,2,37.5,4|0|0
160,180,14420,2,0,B|120:200,2,37.5,4|0|0
244,208,14861,2,0,B|216:256,3,37.5,0|0|2|0
244,208,15302,2,0,B|324:220,1,75,2|0
408,232,15743,6,0,B|392:156|456:96,1,150,4|8
480,12,16405,1,0
392,24,16625,2,0,B|312:52|232:36,1,150,0|8
292,260,17508,6,0,B|276:176|176:164,1,150,0|8
100,156,18170,1,2
156,84,18390,2,0,B|200:92|252:64,2,75,0|0|8
192,320,19273,6,0,B|220:248|324:248,1,150,2|8
400,276,19934,1,2
472,220,20155,2,0,B|500:284,3,37.5
472,220,20596,2,0,B|456:136|352:112,1,150,8|0
284,100,21258,1,2
212,48,21478,1,8
176,280,21920,5,0
136,200,22140,1,8
192,128,22361,1,8
272,172,22581,1,0
272,264,22802,1,4
452,72,23243,6,0,B|392:120|292:100,1,150,0|0
228,68,23905,1,0
164,132,24125,1,8
164,132,24346,2,0,B|132:100|72:108,2,75
192,216,25008,1,8
168,304,25228,1,0
168,304,25339,1,0
168,304,25449,2,0,B|128:280|60:288,2,75,0|0|8
260,304,26111,1,0
304,228,26331,6,0,B|376:184|484:200,1,150,2|8
468,108,26993,1,0
468,108,27214,2,0,B|396:68|288:84,1,150,2|8
232,84,27875,1,0
232,84,28096,6,0,B|148:56,1,75,2|0
140,148,28537,2,0,B|64:160,1,75,8|2
108,240,28978,2,0,B|60:296,2,75,0|2|8
192,272,29640,2,0,B|256:248|356:264|356:260,1,150,2|0
428,280,30302,1,8
428,280,30743,5,2
424,188,30964,1,0
460,104,31184,1,8
368,108,31405,2,0,B|304:136|212:116,1,150,0|2
136,88,32067,1,8
60,132,32287,1,2
60,132,32398,1,0
60,132,32508,2,0,B|72:180|52:232,2,75,2|0|8
292,296,33390,5,2
236,224,33611,1,2
264,140,33831,2,0,B|292:104|280:44,1,75,8|0
200,32,34273,2,0,B|168:56|100:48,2,75,0|2|8
200,32,35155,5,8
284,68,35375,1,0
372,48,35596,2,0,B|416:60|472:52,1,75,4|0
492,132,36037,1,8
492,224,36258,1,2
448,300,36478,1,8
364,332,36699,1,0
244,200,36920,6,0,B|220:128|96:132,1,150,4|8
32,148,37581,1,2
32,148,37802,2,0,B|16:64,2,75,0|0|8
52,236,38464,2,0,B|128:216|224:228,1,150,2|0
292,236,39125,1,8
376,208,39346,1,2
376,208,39567,2,0,B|328:128|396:44,1,150,0|8
468,48,40228,1,0
380,68,40449,6,0,B|304:76,1,75,2|0
216,84,40890,1,8
132,316,41331,2,0,B|208:308,1,75,2|0
296,300,41772,1,8
404,156,42214,1,0
320,124,42434,1,2
228,120,42655,1,8
144,144,42875,1,0
188,272,43096,5,0
268,228,43317,1,2
336,172,43537,1,8
376,92,43758,1,0
364,4,43978,2,0,B|300:56|208:48,1,150,4|8
136,40,44640,1,0
72,104,44861,2,0,B|88:152|72:192,2,75,2|0|8
44,20,45523,6,0,B|104:104|192:112,1,150,2|0
252,116,46184,1,8
328,68,46405,2,2,B|372:76,1,37.5
452,48,46736,2,0,B|500:40,1,37.5,0|2
480,132,47067,1,8
456,220,47287,1,0
368,236,47508,6,0,B|296:200|208:220,1,150,4|8
136,244,48170,1,0
100,164,48390,2,0,B|84:120|40:108,1,75,2|0
132,76,48831,2,0,B|148:28|212:20,2,75,8|2|4
224,280,49714,5,8
448,248,50155,1,2
364,40,50596,1,8
364,40,50706,1,0
364,40,50817,1,2
308,112,51037,6,0,B|240:156|144:140,1,150,4|8
292,328,51920,2,0,B|340:272|456:280,1,150,2|4
476,204,52581,1,0
444,120,52802,2,0,B|408:180|320:180,1,112.5,4|2
308,160,53243,1,8
224,128,53464,2,0,B|248:216|220:292,1,150,4|2
192,360,54125,5,2
116,312,54346,1,2
128,224,54567,2,0,B|152:144|256:136,1,150,4|8
328,144,55228,2,0,B|412:164|492:112,1,150,2|2
488,36,55890,1,8
473,123,56111,1,2
480,212,56331,6,0,B|464:300|360:312,1,150,2|8
288,296,56993,2,0,B|268:212|148:220,1,150,2|2
120,148,57655,1,8
32,160,57875,1,0
168,40,58096,6,0,B|228:100|304:92,1,150,4|8
392,76,58758,1,0
468,120,58978,1,2
468,120,59199,2,0,B|460:228,1,75,0|8
456,284,59640,1,2
392,344,59861,2,0,B|324:304|220:324,1,150,0|8
156,336,60523,1,0
96,272,60743,2,0,B|88:224,1,37.5,0|2
172,200,61074,2,0,B|164:160,1,37.5,0|2
76,144,61405,5,0
112,60,61625,2,0,B|184:100|280:88,1,150,4|8
344,76,62287,1,2
408,140,62508,2,0,B|460:136|508:148,2,75,0|0|8
256,232,63170,5,0
316,300,63390,2,0,B|372:364|476:348,1,150,2|8
472,216,64052,2,0,B|428:152|316:168,1,150,2|0
256,200,64714,1,8
168,200,64934,1,0
116,124,65155,6,0,B|96:88|44:84,2,75,2|0|8
204,116,65817,1,2
272,60,66037,2,0,B|292:128|368:160,1,112.5
384,160,66478,1,8
476,156,66699,1,0
484,244,66920,2,0,B|428:312|316:300,1,150,2|8
264,284,67581,1,0
172,288,67802,2,0,B|200:216|172:112,1,150,2|8
144,56,68464,1,2
178,140,68684,6,0,B|248:168|340:148,1,150,4|8
412,120,69346,2,0,B|440:52|536:48,1,150,2|0
448,24,70008,1,8
364,56,70228,1,2
276,36,70449,2,0,B|228:104|120:88,1,150,4|8
56,64,71111,1,2
60,152,71331,2,0,B|64:236,1,75,0|2
68,316,71773,1,8
404,236,72214,6,0,B|324:276|232:256,1,150,4|8
108,148,73096,2,0,B|188:108|280:128,1,150,2|8
404,236,73978,6,0,B|324:276|232:256,1,150,2|8
176,228,74640,1,0
160,140,74861,2,0,B|104:132,4,37.5,2|0|2|0|8
252,140,75523,1,0
336,108,75743,6,0,B|384:72|464:68,2,112.5,4|2|2
284,180,76625,2,0,B|240:228|152:216,1,112.5,2|2
136,216,77067,1,8
60,164,77287,1,2
100,84,77508,2,0,B|160:36|256:48,1,150,4|8
312,100,78170,1,0
400,96,78390,6,0,B|444:64|508:72,2,112.5,2|2|2
328,152,79273,2,0,B|248:176|184:120,1,150,2|4
172,276,80155,6,0,B|100:292,2,75,0|2|8
272,288,80817,1,0
272,288,80927,1,0
272,288,81037,2,0,B|352:260,1,75,2|0
296,184,81478,1,4
296,184,81589,1,0
296,184,81699,1,0
296,184,81809,1,0
296,184,81920,6,0,B|368:132,1,75,2|0
288,84,82361,2,0,B|204:68,1,75,2|0
204,160,82802,2,0,B|148:228|72:216,2,150,4|8|0
292,152,83905,1,2
320,68,84125,1,8
240,24,84346,1,2
164,76,84567,6,0,B|100:24|12:48,2,150,2|8|2
180,164,85670,1,0
248,224,85890,1,8
340,228,86111,1,2
420,192,86331,5,4
420,192,86552,2,0,B|388:100,1,75,4|8
324,64,86993,1,4
324,64,87214,2,0,B|216:64,1,75,4|2
184,124,87655,1,4
184,124,87875,2,0,B|168:216,1,75,4|0
256,192,88206,12,0,88978
