osu file format v9

[General]
AudioFilename: 9nine - Shining Star.mp3
AudioLeadIn: 1000
PreviewTime: 53787
Countdown: 0
SampleSet: Soft
StackLeniency: 0.7
Mode: 0
LetterboxInBreaks: 1

[Editor]
Bookmarks: 15326,22379,54559,89389,121130,152872,182850
DistanceSpacing: 1
BeatDivisor: 2
GridSize: 4

[Metadata]
Title:SHINING STAR (TV Size)
Artist:9nine
Creator:xierbaliti
Version:Easy
Source:STAR DRIVER Kagayaki no Takuto
Tags:Satake Uki Nishiwaki Sayaka Yoshii Kanae Kawashima Umika Morata Hirona

[Difficulty]
HPDrainRate:1
CircleSize:3
OverallDifficulty:1
ApproachRate:3
SliderMultiplier:1
SliderTickRate:1

[Events]
//Background and Video events
0,0,"bg.jpg"
Video,0,"vid.flv"
//Break Periods
//Storyboard Layer 0 (Background)
//Storyboard Layer 1 (Fail)
//Storyboard Layer 2 (Pass)
//Storyboard Layer 3 (Foreground)
//Storyboard Sound Samples
//Background Colour Transformations
3,100,163,162,255

[TimingPoints]
1626,441.176470588235,4,2,1,70,1,0
36258,-100,4,2,1,80,0,0
36478,-100,4,2,1,70,0,0
54567,-100,4,2,1,70,0,1
54787,-100,4,2,1,70,0,0

[Colours]
Combo1 : 128,128,255
Combo2 : 255,128,255
Combo3 : 128,0,64
Combo4 : 128,255,0

[HitObjects]
344,140,1626,2,0,B|268:84|136:112,1,200,4|0
168,244,3390,2,0,B|244:300|376:272,1,200,2|0
344,140,5155,2,0,B|268:84|136:112,1,200,2|0
168,244,6919,2,0,B|244:300|376:272,1,200,2|0
252,108,8684,5,4
152,112,9125,1,8
192,256,9787,1,0
192,256,10008,1,8
288,276,10449,6,0,B|316:216|412:224,1,100,2|8
484,128,11552,1,0
484,128,11773,1,8
408,64,12214,6,0,B|332:132|192:108,1,200,4|4
240,312,13978,2,0,B|180:240|48:268,2,200,4|0|4
340,328,16184,1,8
448,224,16846,1,0
448,224,17067,1,8
368,164,17508,6,0,B|280:192|208:172,1,150,2|2
140,116,18611,1,0
140,116,18831,1,8
144,216,19273,6,0,B|204:276|308:260,1,150,2|2
380,252,20375,1,0
380,252,20596,1,8
396,152,21037,6,0,B|352:104|276:112,1,100,4|8
216,148,21920,2,0,B|160:176|92:140,2,100,2|8|4
308,192,23243,5,2
460,60,24125,1,8
480,160,24567,1,0
448,256,25008,2,0,B|408:296|328:284,1,100,2|0
196,168,26331,6,0,B|152:140|84:156,2,100,0|8|0
384,100,28096,2,0,B|428:140|492:128,2,100,2|8|2
288,80,29420,2,0,B|316:180|292:288,1,200,8|8
232,356,30743,1,0
196,160,31625,6,0,B|152:128|80:136,2,100,0|8|0
284,204,32949,1,8
380,176,33390,2,0,B|416:104|524:116,2,150,0|0|8
352,272,35155,2,0,B|372:344,2,50,2|2|4
256,240,36037,2,0,B|192:264,2,50,2|2|8
324,164,36920,6,0,B|268:72|104:80,1,200,4|2
76,264,38684,2,0,B|132:356|296:348,1,200,2|2
348,340,40008,1,8
356,240,40449,2,0,B|400:260|456:248,2,100,2|8|2
276,180,41773,2,0,B|244:136|164:144,2,100,8|2|8
360,124,43096,5,0
284,60,43537,1,8
188,88,43978,2,0,B|164:212|36:208,1,200,4|0
196,344,45743,2,0,B|220:220|348:224,1,200,0|0
432,248,47067,1,8
492,168,47508,5,4
316,72,48390,1,2
200,236,49273,1,4
380,324,50155,1,2
348,228,50596,1,8
252,204,51037,2,0,B|240:116|128:104,2,150,4|0|8
256,192,52802,12,0,54125
256,192,54567,6,0,B|232:120|120:112,1,150,4|2
40,140,55670,1,0
40,140,55890,1,8
96,224,56331,2,0,B|168:176|268:192,1,150,2|2
337,203,57434,1,0
337,203,57655,1,8
303,108,58096,6,0,B|380:62|519:86,2,200,2|2|0
211,147,60302,1,8
206,47,60743,2,0,B|156:25|85:44,2,100,0|8|4
211,147,62067,5,8
211,147,62287,2,0,B|292:185|318:271,1,150,2|8
278,347,63390,1,2
225,261,63831,1,8
225,261,64052,2,0,B|167:207|83:217,1,150,2|8
76,116,65155,5,4
168,76,65596,1,8
256,124,66037,1,2
344,76,66478,1,8
436,116,66920,2,0,B|432:208|492:272,2,150,2|2|8
360,180,68684,6,0,B|260:216,1,100,4|8
128,272,69787,1,0
128,272,70008,1,8
128,172,70449,2,0,B|248:184,1,100,2|8
376,196,71552,1,0
376,196,71773,1,8
312,120,72214,6,0,B|380:52|512:68,2,200,4|2|0
148,232,74861,2,0,B|168:184|152:92,1,100,2|8
144,36,75743,1,4
332,100,76625,6,0,B|440:80,1,100,0|8
384,172,77508,2,0,B|268:192,1,100,2|8
188,204,78390,6,0,B|172:152|104:120,2,100,0|8|4
208,304,79714,1,4
296,256,80155,2,0,B|384:208|520:248,1,200
488,140,81478,6,0,B|496:56,2,50,8|2|0
392,164,82361,2,0,B|400:228,2,50,8|2|4
192,144,83684,2,0,B|140:116|60:128,2,100,0|8|0
244,228,85008,1,8
344,224,85449,2,0,B|416:204,2,50,0|2|8
296,312,86331,6,0,B|260:212|96:216,1,200,4|4
36,228,87655,1,4
36,228,87875,1,4
