osu file format v14

[General]
AudioFilename: youthful.mp3
AudioLeadIn: 3000
PreviewTime: 33170
Countdown: 0
SampleSet: Soft
StackLeniency: 0.7
Mode: 0
LetterboxInBreaks: 0
WidescreenStoryboard: 1

[Editor]
DistanceSpacing: 1.1
BeatDivisor: 2
GridSize: 4
TimelineZoom: 1.8

[Metadata]
Title:YOUTHFUL (TV Size)
TitleUnicode:YOUTHFUL (TV Size)
Artist:99RadioService
ArtistUnicode:99RadioService
Creator:UnitedWeSin
Version:Easy
Source:Chihayafuru
Tags:opening uws
BeatmapID:658039
BeatmapSetID:292367

[Difficulty]
HPDrainRate:2
CircleSize:3
OverallDifficulty:2
ApproachRate:3
SliderMultiplier:0.799999999999999
SliderTickRate:1

[Events]
//Background and Video events
0,0,"bg.jpg",0,0
Video,0,"video.avi"
//Break Periods
//Storyboard Layer 0 (Background)
//Storyboard Layer 1 (Fail)
//Storyboard Layer 2 (Pass)
//Storyboard Layer 3 (Foreground)
//Storyboard Sound Samples

[TimingPoints]
1,422.535211267606,4,2,1,80,1,0
6761,-100,4,2,1,70,0,0
20282,-100,4,2,1,70,0,0
33170,-100,4,2,1,50,0,0
33592,-100,4,2,1,90,0,1
46902,-100,4,2,1,80,0,0
47113,-100,4,2,1,90,0,1
56831,-100,4,2,1,70,0,1
57043,-100,4,2,1,80,0,1
57254,-100,4,2,1,90,0,1
60001,-100,4,2,1,60,0,1
60423,-100,4,2,1,80,0,1
60846,-100,4,2,1,80,0,0
66972,-100,4,2,1,60,0,0
67712,-100,4,2,1,50,0,0
68029,-100,4,2,1,40,0,0
68451,-100,4,2,1,30,0,0
68874,-100,4,2,1,20,0,0
69296,-100,4,2,1,10,0,0

[Colours]
Combo1 : 255,255,36
Combo2 : 255,107,36
Combo3 : 191,0,96

[HitObjects]
192,64,1,6,0,L|208:232,1,160,4|0,0:0|0:0,0:0:0:0:
268,288,1268,1,8,0:0:0:0:
356,276,1691,2,0,P|416:252|472:264,2,120,0|2|8,0:0|0:0|0:0,0:0:0:0:
288,332,3381,6,0,L|128:316,1,160,4|0,0:0|0:0,0:0:0:0:
68,252,4648,1,8,0:0:0:0:
108,172,5071,2,0,L|100:88,1,79.9999999999999,0|8,0:0|0:0,0:0:0:0:
188,112,5916,2,0,L|180:28,1,79.9999999999999,8|4,0:3|0:3,0:0:0:0:
268,28,6761,6,0,P|304:76|308:176,1,160,4|2,0:0|0:0,0:0:0:0:
248,236,8029,1,8,0:0:0:0:
160,228,8451,2,0,P|120:228|24:320,2,160,2|2|0,0:0|0:0|0:0,0:0:0:0:
276,360,10986,6,0,L|360:328,1,79.9999999999999,2|8,0:0|0:0,0:0:0:0:
436,348,11831,2,0,P|464:284|436:184,1,160,2|2,0:0|0:0,0:0:0:0:
392,128,13099,1,8,0:0:0:0:
312,168,13522,6,0,L|152:184,2,160,0|2|0,0:0|0:0|0:0,0:0:0:0:
184,48,16057,2,0,P|148:68|112:124,1,79.9999999999999,2|8,0:0|0:0,0:0:0:0:
152,183,16902,6,0,L|168:344,1,160,0|2,0:0|0:0,0:0:0:0:
256,360,18170,1,8,0:0:0:0:
344,344,18592,2,0,L|359:183,1,160,2|2,0:0|0:0,0:0:0:0:
252,44,20282,6,0,L|236:212,1,160,4|8,0:0|0:3,0:0:0:0:
196,280,21550,1,2,0:0:0:0:
252,348,21972,2,0,P|317:329|369:245,2,160,2|2|0,0:0|0:0|0:0,0:0:0:0:
112,244,24508,6,0,P|112:291|88:332,1,79.9999999999999,8|2,0:0|0:0,0:0:0:0:
28,268,25353,2,0,P|44:188|112:156,1,160,2|2,0:0|0:0,0:0:0:0:
184,204,26620,1,4,0:3:0:0:
252,260,27043,6,0,L|416:232,1,160,4|0,0:0|0:0,0:0:0:0:
388,60,28733,2,0,P|348:44|236:76,1,160,4|2,0:0|0:0,0:0:0:0:
180,140,30001,1,8,0:3:0:0:
164,228,30423,6,0,L|192:312,1,79.9999999999999,4|8,0:0|0:0,0:0:0:0:
268,268,31268,2,0,L|296:352,1,79.9999999999999,8|8,0:3|0:0,0:0:0:0:
372,304,32113,2,0,L|400:388,2,79.9999999999999,8|8|8,0:0|0:3|0:0,0:0:0:0:
428,184,33592,6,0,P|376:120|268:132,1,200,4|2,0:0|0:0,0:0:0:0:
224,208,35071,1,8,0:0:0:0:
156,264,35493,2,0,P|92:236|64:112,1,200,2|2,0:0|0:0,0:0:0:0:
128,60,36972,6,0,B|260:76|260:76|324:36,1,200,4|2,0:0|0:0,0:0:0:0:
404,20,38451,1,8,0:0:0:0:
380,104,38874,2,0,P|435:182|440:300,1,200,2|2,0:0|0:0,0:0:0:0:
356,296,40353,6,0,L|300:168,2,120,4|8|2,0:0|0:0|0:0,0:0:0:0:
284,344,42043,2,0,P|250:322|227:289,1,79.9999999999999,4|2,0:0|0:0,0:0:0:0:
216,204,42888,2,0,L|236:104,1,79.9999999999999,2|2,0:0|0:0,0:0:0:0:
312,92,43733,6,0,B|351:105|351:105|392:98|392:98|436:109,2,120,4|8|2,0:0|0:0|0:0,0:0:0:0:
260,20,45423,2,0,P|228:64|304:180,1,200,4|2,0:0|0:0,0:0:0:0:
352,296,47113,6,0,B|276:304|276:304|224:280|224:280|152:288,1,200,4|2,0:0|0:0,0:0:0:0:
92,348,48592,1,8,0:0:0:0:
24,292,49015,2,0,P|49:185|136:148,1,200,2|2,0:0|0:0,0:0:0:0:
128,60,50493,6,0,B|180:59|209:105|209:105|261:93|307:136,1,200,4|2,0:0|0:0,0:0:0:0:
392,124,51972,1,8,0:0:0:0:
440,196,52395,2,0,P|444:256|356:360,1,200,2|2,0:0|0:0,0:0:0:0:
284,316,53874,6,0,B|224:316|224:316|168:352,2,120,4|8|2,0:0|0:0|0:0,0:0:0:0:
360,360,55564,2,0,P|406:373|443:369,1,79.9999999999999,4|2,0:0|0:0,0:0:0:0:
492,300,56409,2,0,P|496:252|484:216,1,79.9999999999999,2|4,0:0|0:0,0:0:0:0:
400,200,57254,6,0,B|345:181|345:181|288:191|288:191|226:176,1,160,4|4,0:0|0:0,0:0:0:0:
160,132,58522,1,2,0:0:0:0:
76,164,58944,2,0,P|56:208|64:252,1,79.9999999999999,4|2,0:0|0:0,0:0:0:0:
136,280,59789,2,0,B|196:284|196:284|252:308,1,120,4|8,0:0|0:0,0:0:0:0:
316,368,60846,6,0,P|388:336|416:252,1,160,4|2,0:0|0:0,0:0:0:0:
372,188,62113,1,8,0:0:0:0:
288,212,62536,2,0,P|228:156|232:76,2,160,2|2|4,0:0|0:0|0:0,0:0:0:0:
380,64,65071,6,0,P|340:42|298:36,1,79.9999999999999,2|8,0:0|0:0,0:0:0:0:
232,84,65916,2,0,B|112:112|112:112|56:100,2,160,8|4|4,0:0|0:3|0:0,0:0:0:0:
256,192,67817,12,0,69296,0:0:0:0:
