osu file format v14

[General]
AudioFilename: uso.mp3
AudioLeadIn: 0
PreviewTime: 36383
Countdown: 0
SampleSet: Soft
StackLeniency: 0.7
Mode: 0
LetterboxInBreaks: 0
WidescreenStoryboard: 0

[Editor]
Bookmarks: 878,5984,16197,26409,36622,46835,57048,62154,67260,77473,87526
DistanceSpacing: 0.8
BeatDivisor: 4
GridSize: 4
TimelineZoom: 1

[Metadata]
Title:Uso no Hibana
TitleUnicode:嘘の火花
Artist:96neko
ArtistUnicode:96猫
Creator:Sonnyc
Version:Normal
Source:クズの本懐
Tags:Kuzu no Honkai Scum's Wish Lying Fireworks opening op tv size
BeatmapID:1183234
BeatmapSetID:559483

[Difficulty]
HPDrainRate:4
CircleSize:3.5
OverallDifficulty:4
ApproachRate:5
SliderMultiplier:1.2
SliderTickRate:1

[Events]
//Background and Video events
0,0,"bg.jpg",0,0
Video,291,"vid.flv"
//Break Periods
//Storyboard Layer 0 (Background)
//Storyboard Layer 1 (Fail)
//Storyboard Layer 2 (Pass)
//Storyboard Layer 3 (Foreground)
//Storyboard Sound Samples

[TimingPoints]
878,319.148936170213,4,2,1,50,1,0
4707,-100,4,2,0,60,0,0
5984,-100,4,2,0,70,0,0
16197,-111.111111111111,4,2,0,50,0,0
26409,-100,4,2,0,70,0,0
36463,-100,4,2,0,70,0,1
45558,-100,4,2,0,70,0,0
46675,-100,4,2,0,70,0,1
57048,-100,4,2,0,70,0,0
67260,-100,4,2,0,70,0,1
77473,-100,4,2,0,60,0,0

[Colours]
Combo1 : 255,190,159
Combo2 : 213,255,170
Combo3 : 202,149,255
Combo4 : 255,153,204

[HitObjects]
184,76,878,38,0,P|140:48|36:100,2,180,4|2|2,0:0|0:0|0:0,0:0:0:0:
264,192,2314,2,0,L|260:312,1,120,2|0,0:0|0:0,0:0:0:0:
352,288,2952,38,0,L|354:228,2,60,8|4|4,0:3|0:3|0:3,0:0:0:0:
380,328,3431,1,2,0:0:0:0:
464,116,4707,22,0,P|304:40|184:148,1,360,4|0,0:3|0:0,0:0:0:0:
253,216,5984,6,0,P|179:246|98:197,1,180,4|2,0:0|0:0,0:0:0:0:
76,156,6622,2,0,L|80:36,1,120,4|0,0:3|1:0,0:0:0:0:
172,60,7260,1,4,0:3:0:0:
260,24,7580,1,0,1:0:0:0:
352,47,7899,2,0,L|348:167,1,120,4|0,0:3|1:0,0:0:0:0:
404,240,8537,6,0,P|331:192|249:221,1,180,4|2,0:3|0:0,0:0:0:0:
224,264,9175,2,0,L|228:384,1,120,4|0,0:3|1:0,0:0:0:0:
136,360,9814,2,0,L|132:240,1,120,4|0,0:3|1:0,0:0:0:0:
104,198,10292,1,2,0:0:0:0:
76,156,10452,2,0,L|80:36,1,120,4|0,0:3|1:0,0:0:0:0:
172,60,11090,6,0,P|245:12|327:41,1,180,4|2,0:3|0:0,0:0:0:0:
360,76,11729,2,0,L|480:72,1,120,4|0,0:3|1:0,0:0:0:0:
502,164,12367,1,4,0:3:0:0:
466,252,12687,1,0,1:0:0:0:
490,344,13006,2,0,L|370:348,1,120,4|0,0:3|1:0,0:0:0:0:
295,288,13643,6,0,P|241:311|184:299,1,120,4|0,0:0|1:0,0:0:0:0:
144,272,14122,1,2,0:0:0:0:
144,272,14282,2,0,L|146:212,2,60,4|2|0,0:3|0:0|1:0,0:0:0:0:
72,336,14920,2,0,P|32:252|152:40,1,360,0|0,1:0|1:0,0:0:0:0:
248,20,16197,6,0,L|432:26,2,161.999995056153,4|4|0,0:3|0:3|0:0,0:0:0:0:
216,112,17473,2,0,L|400:118,2,161.999995056153,4|4|0,0:3|0:3|0:0,0:0:0:0:
248,204,18750,6,0,L|64:210,2,161.999995056153,4|4|0,0:3|0:3|0:0,0:0:0:0:
280,296,20026,2,0,L|96:302,2,161.999995056153,4|4|0,0:3|0:3|0:0,0:0:0:0:
344,224,21303,6,0,P|372:268|328:380,2,161.999995056153,4|4|0,0:3|0:3|0:0,0:0:0:0:
272,160,22580,2,0,P|316:132|428:176,2,161.999995056153,4|4|0,0:3|0:3|0:0,0:0:0:0:
208,232,23856,6,0,P|180:188|224:76,2,161.999995056153,4|4|0,0:3|0:3|0:0,0:0:0:0:
280,296,25133,2,0,P|236:324|124:280,1,161.999995056153,0|0,1:0|1:0,0:0:0:0:
52,52,26409,6,0,L|172:44,1,120,4|0,0:0|1:0,0:0:0:0:
216,60,26888,1,2,0:0:0:0:
260,76,27048,2,0,L|380:68,1,120,4|0,0:3|1:0,0:0:0:0:
464,112,27686,2,0,L|456:232,1,120,4|0,0:3|1:0,0:0:0:0:
472,276,28165,1,2,0:0:0:0:
488,320,28325,2,0,L|484:380,2,60,4|2|0,0:3|0:0|1:0,0:0:0:0:
392,332,28963,6,0,P|334:344|279:321,1,120,4|0,0:3|1:0,0:0:0:0:
244,288,29441,1,2,0:0:0:0:
284,200,29760,1,2,0:0:0:0:
220,128,30080,2,0,P|274:105|332:117,2,120,2|2|2,0:0|0:0|0:0,0:0:0:0:
284,200,31037,2,0,P|341:212|396:189,1,120,2|2,0:0|0:0,0:0:0:0:
460,116,31675,6,0,L|456:56,2,60,0|0|2,0:0|1:0|0:0,0:0:0:0:
396,189,32314,2,0,L|392:249,2,60,0|0|2,0:0|1:0|0:0,0:0:0:0:
332,116,32952,2,0,L|328:56,2,60,0|0|2,0:0|1:0|0:0,0:0:0:0:
284,200,33590,2,0,L|276:320,1,120,2|2,0:0|0:0,0:0:0:0:
292,364,34069,1,4,0:3:0:0:
100,384,34707,6,0,L|84:144,1,240,4|4,0:3|0:3,0:0:0:0:
291,84,36463,6,0,L|283:204,1,120,4|2,0:0|0:0,0:0:0:0:
308,244,36941,2,0,P|250:232|195:255,2,120,0|4|0,1:0|0:3|1:0,0:0:0:0:
372,317,37899,2,0,P|317:340|260:328,2,120,4|0|4,0:3|1:0|0:3,0:0:0:0:
408,284,38697,1,2,0:0:0:0:
352,204,39016,6,0,P|339:146|362:91,1,120,2|0,0:0|0:0,0:0:0:0:
392,52,39495,2,0,L|512:60,2,120,0|4|0,1:0|0:3|1:0,0:0:0:0:
300,20,40452,2,0,L|180:12,2,120,4|0|4,0:3|1:0|0:3,0:0:0:0:
344,4,41250,1,2,0:0:0:0:
356,100,41569,6,0,P|378:154|365:212,1,120,0|2,0:0|0:0,0:0:0:0:
382,307,42207,2,0,P|323:299|280:258,1,120,0|2,0:0|0:0,0:0:0:0:
189,226,42846,2,0,P|225:179|281:161,2,120,0|2|0,0:0|0:0|0:0,0:0:0:0:
180,320,43803,2,0,L|184:380,1,60,2|0,0:0|1:0,0:0:0:0:
92,356,44282,6,0,L|84:236,1,120,4|0,0:3|1:0,0:0:0:0:
0,188,44920,2,0,P|100:140|160:176,1,180,4|0,0:3|0:0,0:0:0:0:
184,204,45558,1,8,0:3:0:0:
276,184,45878,2,0,P|349:230|430:198,1,180,0|0,1:0|1:0,0:0:0:0:
488,124,46675,6,0,L|480:4,1,120,2|2,0:0|0:0,0:0:0:0:
436,20,47154,2,0,P|381:-3|324:9,2,120,0|4|0,1:0|0:3|1:0,0:0:0:0:
372,92,48112,2,0,P|314:104|259:81,2,120,4|0|4,0:3|1:0|0:3,0:0:0:0:
408,64,48909,1,2,0:0:0:0:
476,132,49229,6,0,P|499:187|487:244,1,120,2|2,0:0|0:0,0:0:0:0:
456,280,49707,2,0,L|336:272,2,120,0|4|0,1:0|0:3|1:0,0:0:0:0:
464,376,50665,2,0,L|344:368,2,120,4|0|4,0:3|1:0|0:3,0:0:0:0:
508,360,51463,1,2,0:0:0:0:
456,280,51782,6,0,P|468:222|445:167,1,120,0|2,0:0|0:0,0:0:0:0:
448,72,52420,2,0,P|391:90|356:137,1,120,0|2,0:0|0:0,0:0:0:0:
272,183,53058,2,0,P|316:222|374:229,2,120,0|2|0,0:0|0:0|0:0,0:0:0:0:
228,96,54016,2,0,L|232:36,1,60,2|0,0:0|1:0,0:0:0:0:
140,60,54495,6,0,L|132:180,1,120,4|0,0:3|1:0,0:0:0:0:
48,224,55133,2,0,P|121:270|202:238,1,180,4|0,0:3|0:0,0:0:0:0:
232,200,55771,2,0,L|228:140,1,60,4|0,0:3|0:0,0:0:0:0:
320,108,56250,2,0,L|328:228,2,120,2|0|0,0:0|0:0|0:0,0:0:0:0:
256,192,57048,12,4,59601,0:3:0:0:
364,296,62154,38,0,P|292:336|148:296,1,240,4|2,0:3|0:0,0:0:0:0:
172,156,63271,2,0,P|256:128|340:156,1,180,2|0,0:0|0:0,0:0:0:0:
312,244,64069,2,0,P|276:260|200:244,1,120,2|2,0:0|0:0,0:0:0:0:
104,228,64707,6,0,P|72:152|132:64,2,180,4|4|4,0:3|0:3|0:3,0:0:0:0:
172,156,65984,2,0,P|196:264|8:256,1,360,4|0,0:3|1:0,0:0:0:0:
104,228,67260,6,0,L|284:240,1,180,4|2,0:0|0:0,0:0:0:0:
324,268,67899,2,0,P|382:281|437:258,1,120,4|0,0:3|1:0,0:0:0:0:
374,185,68537,1,4,0:3:0:0:
432,108,68856,1,0,1:0:0:0:
369,34,69175,2,0,P|423:12|481:24,1,120,4|0,0:3|1:0,0:0:0:0:
432,108,69814,6,0,P|368:132|276:60,1,180,4|2,0:3|0:0,0:0:0:0:
236,92,70452,2,0,L|116:84,1,120,4|0,0:3|1:0,0:0:0:0:
124,180,71090,2,0,L|244:188,1,120,4|0,0:3|1:0,0:0:0:0:
284,212,71569,1,2,0:0:0:0:
324,236,71729,2,0,L|444:228,1,120,4|0,0:3|1:0,0:0:0:0:
484,316,72367,6,0,L|304:328,1,180,4|2,0:3|0:0,0:0:0:0:
264,356,73005,2,0,P|206:369|151:346,1,120,4|0,0:3|1:0,0:0:0:0:
214,273,73643,1,4,0:3:0:0:
156,196,73962,1,0,1:0:0:0:
219,122,74281,2,0,P|164:99|106:112,1,120,4|0,0:3|1:0,0:0:0:0:
156,196,74920,6,0,P|210:218|268:205,1,120,4|0,0:3|1:0,0:0:0:0:
308,180,75399,1,2,0:0:0:0:
308,180,75558,2,0,L|306:120,2,60,4|2|0,0:3|0:0|1:0,0:0:0:0:
392,224,76197,2,0,P|460:148|296:28,1,360,4|0,0:3|1:0,0:0:0:0:
216,72,77473,6,0,L|96:64,2,120,4|4|4,0:0|0:3|0:3,0:0:0:0:
296,128,78431,2,0,L|416:120,2,120,8|4|4,0:3|0:3|0:3,0:0:0:0:
208,168,79388,2,0,L|144:164,2,60,4|0|4,0:3|0:0|0:3,0:0:0:0:
288,224,80026,6,0,L|408:216,2,120,4|4|4,0:3|0:3|0:3,0:0:0:0:
200,260,80984,2,0,L|80:252,2,120,8|4|4,0:3|0:3|0:3,0:0:0:0:
280,316,81941,2,0,L|344:312,2,60,4|0|8,0:3|0:0|0:3,0:0:0:0:
244,348,82420,6,0,P|136:380|-12:280,1,300,2|4,0:0|0:3,0:0:0:0:
84,172,83697,2,0,P|136:256|196:132,1,300,2|4,0:0|0:3,0:0:0:0:
156,108,84654,1,2,0:0:0:0:
228,48,84973,6,0,P|292:112|292:264,1,240,2|0,0:0|0:0,0:0:0:0:
268,292,85771,2,0,P|214:314|156:301,1,120,4|4,0:3|0:3,0:0:0:0:
116,276,86250,2,0,L|124:156,1,120,0|0,1:0|1:0,0:0:0:0:
35,115,86888,2,0,L|22:312,1,180,4|4,0:0|0:3,0:0:0:0:
20,344,87526,1,4,0:0:0:0:
