osu file format v14

[General]
AudioFilename: uso.mp3
AudioLeadIn: 0
PreviewTime: 36383
Countdown: 0
SampleSet: Soft
StackLeniency: 0.7
Mode: 0
LetterboxInBreaks: 0
WidescreenStoryboard: 0

[Editor]
Bookmarks: 878,5984,16197,26409,36622,46835,57048,62154,67260,77473,87526
DistanceSpacing: 1
BeatDivisor: 4
GridSize: 4
TimelineZoom: 1

[Metadata]
Title:Uso no Hibana
TitleUnicode:嘘の火花
Artist:96neko
ArtistUnicode:96猫
Creator:Sonnyc
Version:Easy
Source:クズの本懐
Tags:Kuzu no Honkai Scum's Wish Lying Fireworks opening op tv size
BeatmapID:1183231
BeatmapSetID:559483

[Difficulty]
HPDrainRate:2
CircleSize:3
OverallDifficulty:2
ApproachRate:3
SliderMultiplier:0.9
SliderTickRate:1

[Events]
//Background and Video events
0,0,"bg.jpg",0,0
Video,291,"vid.flv"
//Break Periods
//Storyboard Layer 0 (Background)
//Storyboard Layer 1 (Fail)
//Storyboard Layer 2 (Pass)
//Storyboard Layer 3 (Foreground)
//Storyboard Sound Samples

[TimingPoints]
878,319.148936170213,4,2,1,50,1,0
4707,-100,4,2,0,60,0,0
5984,-100,4,2,0,70,0,0
16197,-100,4,2,0,50,0,0
26409,-100,4,2,0,70,0,0
36463,-100,4,2,0,70,0,1
45558,-100,4,2,0,70,0,0
46675,-100,4,2,0,70,0,1
57048,-100,4,2,0,70,0,0
67260,-100,4,2,0,70,0,1
77473,-100,4,2,0,60,0,0

[Colours]
Combo1 : 255,190,159
Combo2 : 213,255,170
Combo3 : 202,149,255
Combo4 : 255,153,204

[HitObjects]
60,336,878,38,0,B|156:284|268:304|244:368|356:388|452:336,1,405,4|0,0:0|0:0,0:0:0:0:
376,168,3431,6,0,P|260:220|136:168,1,270,2|0,0:0|0:0,0:0:0:0:
135,77,4707,2,0,P|251:25|375:77,1,270,4|0,0:3|0:0,0:0:0:0:
416,156,5984,6,0,L|408:248,1,90,4|0,0:0|1:0,0:0:0:0:
480,300,6622,2,0,P|408:336|324:280,1,180,2|2,0:0|0:0,0:0:0:0:
280,212,7580,1,0,1:0:0:0:
200,252,7899,2,0,L|108:244,1,90,2|0,0:0|1:0,0:0:0:0:
28,276,8537,6,0,P|24:224|48:180,1,90,4|0,0:3|1:0,0:0:0:0:
12,104,9175,2,0,P|72:156|244:112,1,270,2|0,0:0|1:0,0:0:0:0:
288,36,10452,1,2,0:0:0:0:
416,156,11090,6,0,L|408:248,1,90,4|0,0:3|1:0,0:0:0:0:
480,300,11728,2,0,P|408:336|324:280,1,180,2|2,0:0|0:0,0:0:0:0:
408,245,12686,2,0,L|224:261,1,180,0|0,1:0|1:0,0:0:0:0:
168,328,13643,6,0,P|136:264|224:104,1,270,2|0,0:0|1:0,0:0:0:0:
308,80,14920,2,0,L|492:96,1,180,0|0,1:0|1:0,0:0:0:0:
376,304,16516,6,0,P|260:356|136:304,1,270,2|4,0:0|0:3,0:0:0:0:
136,80,19069,2,0,P|252:28|376:80,1,270,2|4,0:0|0:3,0:0:0:0:
316,240,21303,22,0,P|276:264|196:240,2,135,4|4|0,0:3|0:3|0:0,0:0:0:0:
368,168,22580,2,0,P|320:72|144:168,2,360,4|4|0,0:3|0:3|1:0,0:0:0:0:
456,332,26409,22,0,L|364:324,1,90,4|0,0:0|1:0,0:0:0:0:
280,356,27048,2,0,L|188:348,1,90,4|0,0:3|1:0,0:0:0:0:
104,380,27686,2,0,L|12:372,2,90,4|0|4,0:3|1:0|0:3,0:0:0:0:
208,240,28963,6,0,P|264:268|400:204,1,225,4|2,0:3|0:0,0:0:0:0:
432,120,30080,2,0,L|424:28,2,90,2|0|2,0:0|0:0|0:0,0:0:0:0:
489,187,31037,2,0,L|481:279,1,90,0|2,0:0|0:0,0:0:0:0:
404,324,31675,6,0,P|352:328|308:304,1,90,0|2,0:0|0:0,0:0:0:0:
228,296,32314,2,0,P|251:248|294:222,1,90,0|2,0:0|0:0,0:0:0:0:
340,158,32952,2,0,P|370:201|371:251,2,90,0|2|0,0:0|0:0|0:0,0:0:0:0:
232,80,34069,6,0,L|48:96,2,180,4|4|4,0:3|0:3|0:3,0:0:0:0:
204,220,36463,6,0,L|339:231,1,135,4|0,0:0|1:0,0:0:0:0:
404,292,37260,2,0,P|428:224|360:144,1,180,4|4,0:3|0:3,0:0:0:0:
280,124,38218,2,0,L|188:132,1,90,0|4,1:0|0:3,0:0:0:0:
77,203,39016,6,0,P|44:252|56:328,1,135,2|0,0:0|1:0,0:0:0:0:
128,276,39814,2,0,L|312:292,1,180,4|4,0:3|0:3,0:0:0:0:
392,324,40771,2,0,P|396:272|372:228,1,90,0|4,1:0|0:3,0:0:0:0:
316,120,41569,6,0,P|312:68|336:24,1,90,0|2,0:0|0:0,0:0:0:0:
400,88,42207,2,0,P|448:110|474:153,1,90,0|2,0:0|0:0,0:0:0:0:
385,177,42846,2,0,P|342:206|292:207,2,90,0|2|0,0:0|0:0|0:0,0:0:0:0:
160,152,44282,6,0,L|176:336,2,180,4|4|8,0:3|0:3|0:3,0:0:0:0:
92,92,45878,2,0,P|160:60|228:92,1,135,0|0,1:0|1:0,0:0:0:0:
280,140,46675,6,0,L|269:275,1,135,2|0,0:0|1:0,0:0:0:0:
208,340,47473,2,0,P|276:364|356:296,1,180,4|4,0:3|0:3,0:0:0:0:
376,216,48431,2,0,L|369:126,1,90,0|4,1:0|0:3,0:0:0:0:
268,36,49229,6,0,P|203:24|147:59,1,135,2|0,0:0|1:0,0:0:0:0:
220,112,50026,2,0,L|204:296,1,180,4|4,0:3|0:3,0:0:0:0:
172,376,50983,2,0,P|224:380|268:356,1,90,0|4,1:0|0:3,0:0:0:0:
356,272,51782,6,0,P|360:220|336:176,1,90,0|2,0:0|0:0,0:0:0:0:
272,240,52420,2,0,P|225:262|199:305,1,90,0|2,0:0|0:0,0:0:0:0:
287,329,53058,2,0,P|330:358|380:359,2,90,0|2|0,0:0|0:0|0:0,0:0:0:0:
512,304,54495,6,0,L|497:124,2,180,4|4|4,0:3|0:3|0:3,0:0:0:0:
376,184,56409,2,0,L|369:274,1,90,4|0,0:3|1:0,0:0:0:0:
256,192,57048,12,4,59601,0:3:0:0:
364,324,62154,38,0,P|265:373|201:356,1,180,4|2,0:3|0:0,0:0:0:0:
85,288,63271,2,0,L|97:142,1,135,2|0,0:0|0:0,0:0:0:0:
105,64,64069,1,2,0:0:0:0:
273,132,64707,6,0,P|336:114|394:145,2,135,4|4|4,0:3|0:3|0:3,0:0:0:0:
329,204,65984,2,0,P|441:220|459:89,1,270,4|0,0:3|1:0,0:0:0:0:
393,32,67260,6,0,L|301:40,1,90,4|0,0:0|1:0,0:0:0:0:
228,92,67899,2,0,P|155:45|76:81,1,180,2|2,0:0|0:0,0:0:0:0:
148,136,68856,1,0,1:0:0:0:
92,208,69175,2,0,L|100:300,1,90,2|0,0:0|1:0,0:0:0:0:
180,336,69814,6,0,P|224:341|265:324,1,90,4|0,0:3|1:0,0:0:0:0:
352,340,70452,2,0,P|300:280|412:168,1,270,2|0,0:0|1:0,0:0:0:0:
496,184,71729,1,2,0:0:0:0:
393,32,72367,6,0,L|301:40,1,90,4|0,0:3|1:0,0:0:0:0:
228,92,73005,2,0,P|155:45|76:81,1,180,2|2,0:0|0:0,0:0:0:0:
148,136,73963,2,0,L|332:152,1,180,0|0,1:0|1:0,0:0:0:0:
396,92,74920,6,0,P|481:189|450:315,1,270,2|0,0:0|1:0,0:0:0:0:
376,368,76197,2,0,L|192:384,1,180,2|4,0:0|0:3,0:0:0:0:
28,316,77473,6,0,P|-3:189|82:92,1,270,4|8,0:0|0:3,0:0:0:0:
168,68,78750,2,0,L|352:84,1,180,4|4,0:3|0:3,0:0:0:0:
364,264,80026,6,0,P|266:178|139:209,1,270,4|8,0:3|0:3,0:0:0:0:
80,276,81303,2,0,L|88:368,2,90,4|4|4,0:3|0:3|0:3,0:0:0:0:
208,312,82420,6,0,L|229:67,1,225,2|4,0:0|0:3,0:0:0:0:
352,144,83697,2,0,P|400:92|488:212,1,270,2|0,0:0|0:0,0:0:0:0:
424,272,84973,6,0,P|304:292|212:248,1,225,2|4,0:0|0:3,0:0:0:0:
184,116,86250,2,0,P|225:133|269:128,1,90,0|0,1:0|1:0,0:0:0:0:
236,43,86888,2,0,L|56:58,1,180,4|4,0:0|0:0,0:0:0:0:
