osu file format v14

[General]
AudioFilename: Uso no Hibana.mp3
AudioLeadIn: 0
PreviewTime: 36383
Countdown: 0
SampleSet: Normal
StackLeniency: 0.7
Mode: 1
LetterboxInBreaks: 0
WidescreenStoryboard: 0

[Editor]
DistanceSpacing: 0.8
BeatDivisor: 4
GridSize: 32
TimelineZoom: 1

[Metadata]
Title:Uso no Hibana
TitleUnicode:嘘の火花
Artist:96neko
ArtistUnicode:96猫
Creator:Nardoxyribonucleic
Version:Muzukashii
Source:クズの本懐
Tags:Taiko Kuzu no Honkai Scum's Wish Opening TV Size Charlotte
BeatmapID:1230171
BeatmapSetID:571856

[Difficulty]
HPDrainRate:5
CircleSize:5
OverallDifficulty:4.5
ApproachRate:5
SliderMultiplier:1.4
SliderTickRate:1

[Events]
//Background and Video events
0,0,"bg.jpg",0,-30
//Break Periods
//Storyboard Layer 0 (Background)
//Storyboard Layer 1 (Fail)
//Storyboard Layer 2 (Pass)
//Storyboard Layer 3 (Foreground)
//Storyboard Sound Samples

[TimingPoints]
878,319.148936170213,4,1,0,70,1,0
5984,-100,4,1,0,90,0,0
16197,-100,4,1,0,70,0,0
26409,-100,4,1,0,80,0,0
36622,-100,4,1,0,90,0,1
45558,-100,4,1,0,80,0,0
46835,-100,4,1,0,90,0,1
57048,-100,4,1,0,70,0,0
67260,-100,4,1,0,90,0,1
77473,-100,4,1,0,70,0,0

[HitObjects]
256,192,878,5,8,0:0:0:0:
256,192,1356,1,8,0:0:0:0:
256,192,1675,1,0,0:0:0:0:
256,192,1995,1,8,0:0:0:0:
256,192,2154,1,8,0:0:0:0:
256,192,2314,1,0,0:0:0:0:
256,192,2633,1,8,0:0:0:0:
256,192,2952,1,0,0:0:0:0:
256,192,3112,1,0,0:0:0:0:
256,192,3431,1,8,0:0:0:0:
256,192,3909,1,8,0:0:0:0:
256,192,4229,1,0,0:0:0:0:
256,192,4548,1,8,0:0:0:0:
256,192,4707,1,0,0:0:0:0:
256,192,4867,1,8,0:0:0:0:
256,192,5026,1,8,0:0:0:0:
256,192,5346,1,0,0:0:0:0:
256,192,5505,1,8,0:0:0:0:
256,192,5585,1,8,0:0:0:0:
256,192,5665,1,8,0:0:0:0:
256,192,5824,1,0,0:0:0:0:
256,192,5984,1,4,0:0:0:0:
256,192,6303,1,8,0:0:0:0:
256,192,6463,1,8,0:0:0:0:
256,192,6622,1,8,0:0:0:0:
256,192,6941,1,0,0:0:0:0:
256,192,7101,1,0,0:0:0:0:
256,192,7260,1,8,0:0:0:0:
256,192,7420,1,8,0:0:0:0:
256,192,7580,1,0,0:0:0:0:
256,192,7899,1,8,0:0:0:0:
256,192,8058,1,8,0:0:0:0:
256,192,8218,1,0,0:0:0:0:
256,192,8537,1,0,0:0:0:0:
256,192,8856,1,8,0:0:0:0:
256,192,9016,1,8,0:0:0:0:
256,192,9175,1,8,0:0:0:0:
256,192,9495,1,0,0:0:0:0:
256,192,9654,1,0,0:0:0:0:
256,192,9814,1,8,0:0:0:0:
256,192,9973,1,8,0:0:0:0:
256,192,10133,1,0,0:0:0:0:
256,192,10452,1,8,0:0:0:0:
256,192,10612,1,0,0:0:0:0:
256,192,10771,1,8,0:0:0:0:
256,192,10931,1,8,0:0:0:0:
256,192,11090,1,0,0:0:0:0:
256,192,11409,1,8,0:0:0:0:
256,192,11569,1,8,0:0:0:0:
256,192,11729,1,8,0:0:0:0:
256,192,12048,1,0,0:0:0:0:
256,192,12207,1,0,0:0:0:0:
256,192,12367,1,8,0:0:0:0:
256,192,12526,1,8,0:0:0:0:
256,192,12686,1,0,0:0:0:0:
256,192,13005,1,8,0:0:0:0:
256,192,13165,1,8,0:0:0:0:
256,192,13324,1,0,0:0:0:0:
256,192,13643,1,8,0:0:0:0:
256,192,13963,1,8,0:0:0:0:
256,192,14122,1,8,0:0:0:0:
256,192,14282,1,0,0:0:0:0:
256,192,14441,1,0,0:0:0:0:
256,192,14601,1,8,0:0:0:0:
256,192,14920,1,8,0:0:0:0:
256,192,15080,1,0,0:0:0:0:
256,192,15239,1,0,0:0:0:0:
256,192,15399,1,8,0:0:0:0:
256,192,15558,1,0,0:0:0:0:
256,192,15638,1,0,0:0:0:0:
256,192,15718,1,0,0:0:0:0:
256,192,15878,1,8,0:0:0:0:
256,192,16037,1,8,0:0:0:0:
256,192,16197,1,0,0:0:0:0:
256,192,16516,1,8,0:0:0:0:
256,192,16835,1,8,0:0:0:0:
256,192,17154,1,0,0:0:0:0:
256,192,17473,1,8,0:0:0:0:
256,192,17633,1,0,0:0:0:0:
256,192,17952,1,0,0:0:0:0:
256,192,18271,1,0,0:0:0:0:
256,192,18431,1,0,0:0:0:0:
256,192,18590,1,8,0:0:0:0:
256,192,19069,1,8,0:0:0:0:
256,192,19388,1,8,0:0:0:0:
256,192,19707,1,0,0:0:0:0:
256,192,20026,1,8,0:0:0:0:
256,192,20186,1,8,0:0:0:0:
256,192,20505,1,0,0:0:0:0:
256,192,20824,1,0,0:0:0:0:
256,192,20984,1,8,0:0:0:0:
256,192,21143,1,0,0:0:0:0:
256,192,21622,1,8,0:0:0:0:
256,192,21941,1,8,0:0:0:0:
256,192,22260,1,0,0:0:0:0:
256,192,22580,1,8,0:0:0:0:
256,192,22739,1,0,0:0:0:0:
256,192,23058,1,0,0:0:0:0:
256,192,23378,1,0,0:0:0:0:
256,192,23537,1,0,0:0:0:0:
256,192,23697,1,8,0:0:0:0:
256,192,24016,1,0,0:0:0:0:
256,192,24175,1,8,0:0:0:0:
256,192,24335,1,8,0:0:0:0:
256,192,24654,1,0,0:0:0:0:
256,192,24814,1,8,0:0:0:0:
256,192,24973,1,0,0:0:0:0:
256,192,25133,1,8,0:0:0:0:
256,192,25452,1,0,0:0:0:0:
256,192,25612,1,8,0:0:0:0:
256,192,25931,1,0,0:0:0:0:
256,192,26090,1,8,0:0:0:0:
256,192,26170,1,8,0:0:0:0:
256,192,26250,1,8,0:0:0:0:
256,192,26409,1,4,0:0:0:0:
256,192,26569,1,8,0:0:0:0:
256,192,26729,1,0,0:0:0:0:
256,192,26888,1,8,0:0:0:0:
256,192,27048,1,0,0:0:0:0:
256,192,27367,1,8,0:0:0:0:
256,192,27526,1,0,0:0:0:0:
256,192,27686,1,8,0:0:0:0:
256,192,28005,1,0,0:0:0:0:
256,192,28165,1,8,0:0:0:0:
256,192,28324,1,8,0:0:0:0:
256,192,28484,1,8,0:0:0:0:
256,192,28643,1,0,0:0:0:0:
256,192,28963,1,8,0:0:0:0:
256,192,29122,1,0,0:0:0:0:
256,192,29282,1,8,0:0:0:0:
256,192,29441,1,0,0:0:0:0:
256,192,29760,1,8,0:0:0:0:
256,192,29920,1,0,0:0:0:0:
256,192,30080,1,8,0:0:0:0:
256,192,30399,1,0,0:0:0:0:
256,192,30558,1,8,0:0:0:0:
256,192,30718,1,0,0:0:0:0:
256,192,30798,1,0,0:0:0:0:
256,192,30878,1,0,0:0:0:0:
256,192,31037,1,0,0:0:0:0:
256,192,31197,1,8,0:0:0:0:
256,192,31356,1,8,0:0:0:0:
256,192,31675,1,0,0:0:0:0:
256,192,31835,1,8,0:0:0:0:
256,192,31995,1,8,0:0:0:0:
256,192,32314,1,0,0:0:0:0:
256,192,32473,1,0,0:0:0:0:
256,192,32633,1,8,0:0:0:0:
256,192,32952,1,0,0:0:0:0:
256,192,33112,1,8,0:0:0:0:
256,192,33271,1,8,0:0:0:0:
256,192,33431,1,0,0:0:0:0:
256,192,33590,1,8,0:0:0:0:
256,192,33670,1,8,0:0:0:0:
256,192,33750,1,8,0:0:0:0:
256,192,33909,1,8,0:0:0:0:
256,192,34069,1,0,0:0:0:0:
256,192,34707,1,8,0:0:0:0:
256,192,35026,1,8,0:0:0:0:
256,192,35186,1,0,0:0:0:0:
256,192,35505,1,8,0:0:0:0:
256,192,35824,1,0,0:0:0:0:
256,192,35984,1,8,0:0:0:0:
256,192,36303,1,8,0:0:0:0:
256,192,36463,1,8,0:0:0:0:
256,192,36622,1,4,0:0:0:0:
256,192,36941,1,0,0:0:0:0:
256,192,37101,1,8,0:0:0:0:
256,192,37260,1,0,0:0:0:0:
256,192,37420,1,8,0:0:0:0:
256,192,37580,1,8,0:0:0:0:
256,192,37739,1,0,0:0:0:0:
256,192,37899,1,8,0:0:0:0:
256,192,38218,1,8,0:0:0:0:
256,192,38378,1,0,0:0:0:0:
256,192,38537,1,8,0:0:0:0:
256,192,38697,1,8,0:0:0:0:
256,192,39016,1,8,0:0:0:0:
256,192,39335,1,0,0:0:0:0:
256,192,39495,1,8,0:0:0:0:
256,192,39654,1,8,0:0:0:0:
256,192,39814,1,0,0:0:0:0:
256,192,39973,1,8,0:0:0:0:
256,192,40053,1,8,0:0:0:0:
256,192,40133,1,8,0:0:0:0:
256,192,40292,1,0,0:0:0:0:
256,192,40452,1,8,0:0:0:0:
256,192,40771,1,8,0:0:0:0:
256,192,40931,1,0,0:0:0:0:
256,192,41090,1,8,0:0:0:0:
256,192,41250,1,8,0:0:0:0:
256,192,41569,1,0,0:0:0:0:
256,192,41888,1,8,0:0:0:0:
256,192,42048,1,8,0:0:0:0:
256,192,42207,1,0,0:0:0:0:
256,192,42526,1,8,0:0:0:0:
256,192,42846,1,0,0:0:0:0:
256,192,43165,1,8,0:0:0:0:
256,192,43324,1,0,0:0:0:0:
256,192,43484,1,8,0:0:0:0:
256,192,43803,1,0,0:0:0:0:
256,192,43963,1,8,0:0:0:0:
256,192,44122,1,8,0:0:0:0:
256,192,44282,1,0,0:0:0:0:
256,192,44601,1,8,0:0:0:0:
256,192,44760,1,0,0:0:0:0:
256,192,44920,1,8,0:0:0:0:
256,192,45080,1,8,0:0:0:0:
256,192,45239,1,0,0:0:0:0:
256,192,45319,1,0,0:0:0:0:
256,192,45399,1,0,0:0:0:0:
256,192,45558,1,8,0:0:0:0:
256,192,45878,1,8,0:0:0:0:
256,192,46037,1,0,0:0:0:0:
256,192,46356,1,8,0:0:0:0:
256,192,46516,1,8,0:0:0:0:
256,192,46675,1,0,0:0:0:0:
256,192,46835,1,12,0:0:0:0:
256,192,47154,1,8,0:0:0:0:
256,192,47314,1,8,0:0:0:0:
256,192,47473,1,0,0:0:0:0:
256,192,47633,1,0,0:0:0:0:
256,192,47792,1,8,0:0:0:0:
256,192,47952,1,0,0:0:0:0:
256,192,48112,1,8,0:0:0:0:
256,192,48431,1,8,0:0:0:0:
256,192,48590,1,0,0:0:0:0:
256,192,48750,1,8,0:0:0:0:
256,192,48909,1,8,0:0:0:0:
256,192,49229,1,8,0:0:0:0:
256,192,49548,1,0,0:0:0:0:
256,192,49707,1,8,0:0:0:0:
256,192,49867,1,8,0:0:0:0:
256,192,50026,1,0,0:0:0:0:
256,192,50186,1,8,0:0:0:0:
256,192,50266,1,8,0:0:0:0:
256,192,50346,1,8,0:0:0:0:
256,192,50505,1,0,0:0:0:0:
256,192,50665,1,8,0:0:0:0:
256,192,50984,1,8,0:0:0:0:
256,192,51143,1,0,0:0:0:0:
256,192,51303,1,8,0:0:0:0:
256,192,51463,1,8,0:0:0:0:
256,192,51782,1,0,0:0:0:0:
256,192,51941,1,0,0:0:0:0:
256,192,52101,1,8,0:0:0:0:
256,192,52420,1,0,0:0:0:0:
256,192,52739,1,8,0:0:0:0:
256,192,52899,1,8,0:0:0:0:
256,192,53058,1,0,0:0:0:0:
256,192,53378,1,8,0:0:0:0:
256,192,53537,1,0,0:0:0:0:
256,192,53697,1,8,0:0:0:0:
256,192,53856,1,0,0:0:0:0:
256,192,53936,1,0,0:0:0:0:
256,192,54016,1,0,0:0:0:0:
256,192,54175,1,8,0:0:0:0:
256,192,54335,1,8,0:0:0:0:
256,192,54495,1,0,0:0:0:0:
256,192,54814,1,8,0:0:0:0:
256,192,54973,1,0,0:0:0:0:
256,192,55133,1,8,0:0:0:0:
256,192,55452,1,8,0:0:0:0:
256,192,55612,1,0,0:0:0:0:
256,192,55771,1,8,0:0:0:0:
256,192,55931,1,8,0:0:0:0:
256,192,56090,1,0,0:0:0:0:
256,192,56250,1,8,0:0:0:0:
256,192,56409,1,0,0:0:0:0:
256,192,56489,1,0,0:0:0:0:
256,192,56569,1,0,0:0:0:0:
256,192,56729,1,8,0:0:0:0:
256,192,56808,1,8,0:0:0:0:
256,192,56888,1,8,0:0:0:0:
256,192,57048,1,0,0:0:0:0:
256,192,57686,1,8,0:0:0:0:
256,192,58005,1,0,0:0:0:0:
256,192,58165,1,0,0:0:0:0:
256,192,58324,1,8,0:0:0:0:
256,192,58484,1,8,0:0:0:0:
256,192,58643,1,0,0:0:0:0:
256,192,58963,1,8,0:0:0:0:
256,192,59122,1,8,0:0:0:0:
256,192,59282,1,0,0:0:0:0:
256,192,59601,1,0,0:0:0:0:
256,192,59920,1,0,0:0:0:0:
256,192,60080,1,8,0:0:0:0:
256,192,60239,1,8,0:0:0:0:
256,192,60558,1,0,0:0:0:0:
256,192,60718,1,0,0:0:0:0:
256,192,60878,1,8,0:0:0:0:
256,192,61197,1,0,0:0:0:0:
256,192,61516,1,8,0:0:0:0:
256,192,61675,1,0,0:0:0:0:
256,192,61835,1,8,0:0:0:0:
256,192,61995,1,8,0:0:0:0:
256,192,62154,1,0,0:0:0:0:
256,192,62792,1,8,0:0:0:0:
256,192,63112,1,0,0:0:0:0:
256,192,63271,1,0,0:0:0:0:
256,192,63431,1,8,0:0:0:0:
256,192,63590,1,8,0:0:0:0:
256,192,63750,1,0,0:0:0:0:
256,192,64069,1,8,0:0:0:0:
256,192,64229,1,8,0:0:0:0:
256,192,64388,1,0,0:0:0:0:
256,192,64707,1,8,0:0:0:0:
256,192,65026,1,0,0:0:0:0:
256,192,65186,1,8,0:0:0:0:
256,192,65346,1,0,0:0:0:0:
256,192,65505,1,0,0:0:0:0:
256,192,65665,1,8,0:0:0:0:
256,192,65984,1,8,0:0:0:0:
256,192,66303,1,8,0:0:0:0:
256,192,66463,1,0,0:0:0:0:
256,192,66622,1,8,0:0:0:0:
256,192,66782,1,0,0:0:0:0:
256,192,66941,1,8,0:0:0:0:
256,192,67021,1,8,0:0:0:0:
256,192,67101,1,8,0:0:0:0:
256,192,67260,1,4,0:0:0:0:
256,192,67420,1,0,0:0:0:0:
256,192,67580,1,8,0:0:0:0:
256,192,67739,1,8,0:0:0:0:
256,192,67899,1,0,0:0:0:0:
256,192,68218,1,0,0:0:0:0:
256,192,68378,1,0,0:0:0:0:
256,192,68537,1,8,0:0:0:0:
256,192,68697,1,8,0:0:0:0:
256,192,68856,1,0,0:0:0:0:
256,192,69175,1,8,0:0:0:0:
256,192,69335,1,0,0:0:0:0:
256,192,69415,1,0,0:0:0:0:
256,192,69495,1,0,0:0:0:0:
256,192,69654,1,8,0:0:0:0:
256,192,69814,1,0,0:0:0:0:
256,192,69973,1,0,0:0:0:0:
256,192,70133,1,8,0:0:0:0:
256,192,70292,1,8,0:0:0:0:
256,192,70452,1,0,0:0:0:0:
256,192,70771,1,0,0:0:0:0:
256,192,70931,1,0,0:0:0:0:
256,192,71090,1,8,0:0:0:0:
256,192,71250,1,8,0:0:0:0:
256,192,71409,1,0,0:0:0:0:
256,192,71729,1,8,0:0:0:0:
256,192,71888,1,0,0:0:0:0:
256,192,72048,1,8,0:0:0:0:
256,192,72128,1,8,0:0:0:0:
256,192,72207,1,8,0:0:0:0:
256,192,72367,1,0,0:0:0:0:
256,192,72526,1,0,0:0:0:0:
256,192,72686,1,8,0:0:0:0:
256,192,72846,1,8,0:0:0:0:
256,192,73005,1,0,0:0:0:0:
256,192,73324,1,0,0:0:0:0:
256,192,73484,1,0,0:0:0:0:
256,192,73643,1,8,0:0:0:0:
256,192,73803,1,8,0:0:0:0:
256,192,73963,1,0,0:0:0:0:
256,192,74282,1,8,0:0:0:0:
256,192,74441,1,8,0:0:0:0:
256,192,74601,1,0,0:0:0:0:
256,192,74760,1,0,0:0:0:0:
256,192,74920,1,8,0:0:0:0:
256,192,75239,1,8,0:0:0:0:
256,192,75399,1,8,0:0:0:0:
256,192,75558,1,0,0:0:0:0:
256,192,75878,1,8,0:0:0:0:
256,192,76037,1,0,0:0:0:0:
256,192,76197,1,8,0:0:0:0:
256,192,76356,1,0,0:0:0:0:
256,192,76436,1,0,0:0:0:0:
256,192,76516,1,0,0:0:0:0:
256,192,76675,1,8,0:0:0:0:
256,192,76835,1,8,0:0:0:0:
256,192,76995,1,0,0:0:0:0:
256,192,77154,1,8,0:0:0:0:
256,192,77234,1,8,0:0:0:0:
256,192,77314,1,8,0:0:0:0:
256,192,77473,1,0,0:0:0:0:
256,192,77792,1,0,0:0:0:0:
256,192,77952,1,8,0:0:0:0:
256,192,78112,1,8,0:0:0:0:
256,192,78431,1,0,0:0:0:0:
256,192,78590,1,0,0:0:0:0:
256,192,78750,1,0,0:0:0:0:
256,192,79069,1,8,0:0:0:0:
256,192,79388,1,0,0:0:0:0:
256,192,79548,1,0,0:0:0:0:
256,192,79707,1,8,0:0:0:0:
256,192,80026,1,0,0:0:0:0:
256,192,80346,1,0,0:0:0:0:
256,192,80505,1,8,0:0:0:0:
256,192,80665,1,8,0:0:0:0:
256,192,80984,1,0,0:0:0:0:
256,192,81143,1,0,0:0:0:0:
256,192,81303,1,0,0:0:0:0:
256,192,81622,1,8,0:0:0:0:
256,192,81941,1,0,0:0:0:0:
256,192,82101,1,0,0:0:0:0:
256,192,82260,1,8,0:0:0:0:
256,192,82420,1,8,0:0:0:0:
256,192,82580,1,0,0:0:0:0:
256,192,82899,1,8,0:0:0:0:
256,192,83058,1,8,0:0:0:0:
256,192,83218,1,0,0:0:0:0:
256,192,83537,1,0,0:0:0:0:
256,192,83697,1,8,0:0:0:0:
256,192,83856,1,0,0:0:0:0:
256,192,84016,1,0,0:0:0:0:
256,192,84175,1,8,0:0:0:0:
256,192,84495,1,0,0:0:0:0:
256,192,84654,1,0,0:0:0:0:
256,192,84814,1,8,0:0:0:0:
256,192,84973,1,8,0:0:0:0:
256,192,85133,1,0,0:0:0:0:
256,192,85452,1,8,0:0:0:0:
256,192,85612,1,8,0:0:0:0:
256,192,85771,1,0,0:0:0:0:
256,192,86090,1,0,0:0:0:0:
256,192,86250,1,8,0:0:0:0:
256,192,86409,1,0,0:0:0:0:
256,192,86569,1,8,0:0:0:0:
256,192,86649,1,8,0:0:0:0:
256,192,86729,1,8,0:0:0:0:
256,192,86888,1,4,0:0:0:0:
256,192,87207,1,0,0:0:0:0:
256,192,87367,1,8,0:0:0:0:
256,192,87526,1,8,0:0:0:0:
