osu file format v14

[General]
AudioFilename: Uso no Hibana.mp3
AudioLeadIn: 0
PreviewTime: 36383
Countdown: 0
SampleSet: Normal
StackLeniency: 0.7
Mode: 1
LetterboxInBreaks: 0
WidescreenStoryboard: 0

[Editor]
DistanceSpacing: 0.8
BeatDivisor: 4
GridSize: 32
TimelineZoom: 1

[Metadata]
Title:Uso no Hibana
TitleUnicode:嘘の火花
Artist:96neko
ArtistUnicode:96猫
Creator:Nardoxyribonucleic
Version:Kantan
Source:クズの本懐
Tags:Taiko Kuzu no Honkai Scum's Wish Opening TV Size Charlotte
BeatmapID:1232579
BeatmapSetID:571856

[Difficulty]
HPDrainRate:7
CircleSize:5
OverallDifficulty:3.5
ApproachRate:5
SliderMultiplier:1.4
SliderTickRate:1

[Events]
//Background and Video events
0,0,"bg.jpg",0,-30
//Break Periods
//Storyboard Layer 0 (Background)
//Storyboard Layer 1 (Fail)
//Storyboard Layer 2 (Pass)
//Storyboard Layer 3 (Foreground)
//Storyboard Sound Samples

[TimingPoints]
878,319.148936170213,4,1,0,70,1,0
5984,-100,4,1,0,90,0,0
16197,-100,4,1,0,70,0,0
26409,-100,4,1,0,80,0,0
36622,-100,4,1,0,90,0,1
45558,-100,4,1,0,80,0,0
46835,-100,4,1,0,90,0,1
57048,-100,4,1,0,70,0,0
67260,-100,4,1,0,90,0,1
77473,-100,4,1,0,70,0,0

[HitObjects]
256,192,878,5,8,0:0:0:0:
256,192,1995,1,8,0:0:0:0:
256,192,2633,1,8,0:0:0:0:
256,192,2952,1,0,0:0:0:0:
256,192,3431,1,8,0:0:0:0:
256,192,4707,1,0,0:0:0:0:
256,192,5026,1,8,0:0:0:0:
256,192,5346,1,8,0:0:0:0:
256,192,5984,1,4,0:0:0:0:
256,192,6622,1,8,0:0:0:0:
256,192,7260,1,8,0:0:0:0:
256,192,7580,1,0,0:0:0:0:
256,192,7899,1,8,0:0:0:0:
256,192,8537,1,0,0:0:0:0:
256,192,9175,1,8,0:0:0:0:
256,192,9814,1,8,0:0:0:0:
256,192,11090,1,0,0:0:0:0:
256,192,11729,1,8,0:0:0:0:
256,192,12367,1,8,0:0:0:0:
256,192,12686,1,0,0:0:0:0:
256,192,13005,1,8,0:0:0:0:
256,192,13643,1,8,0:0:0:0:
256,192,14282,1,0,0:0:0:0:
256,192,14920,1,8,0:0:0:0:
256,192,15239,1,8,0:0:0:0:
256,192,15558,1,8,0:0:0:0:
256,192,16197,1,0,0:0:0:0:
256,192,16835,1,8,0:0:0:0:
256,192,17473,1,0,0:0:0:0:
256,192,18750,1,0,0:0:0:0:
256,192,19388,1,0,0:0:0:0:
256,192,20026,1,8,0:0:0:0:
256,192,21303,1,8,0:0:0:0:
256,192,21941,1,8,0:0:0:0:
256,192,22580,1,0,0:0:0:0:
256,192,23856,1,0,0:0:0:0:
256,192,24495,1,8,0:0:0:0:
256,192,25133,1,8,0:0:0:0:
256,192,25452,1,0,0:0:0:0:
256,192,25771,1,8,0:0:0:0:
256,192,26409,1,4,0:0:0:0:
256,192,27048,1,8,0:0:0:0:
256,192,27686,1,0,0:0:0:0:
256,192,28324,1,8,0:0:0:0:
256,192,28643,1,0,0:0:0:0:
256,192,28963,1,8,0:0:0:0:
256,192,29601,1,0,0:0:0:0:
256,192,30239,1,8,0:0:0:0:
256,192,31516,1,0,0:0:0:0:
256,192,32154,1,8,0:0:0:0:
256,192,32792,1,0,0:0:0:0:
256,192,33431,1,8,0:0:0:0:
256,192,33750,1,8,0:0:0:0:
256,192,34069,1,0,0:0:0:0:
256,192,34707,1,8,0:0:0:0:
256,192,35346,1,0,0:0:0:0:
256,192,35984,1,8,0:0:0:0:
256,192,36303,1,8,0:0:0:0:
256,192,36622,1,4,0:0:0:0:
256,192,37260,1,8,0:0:0:0:
256,192,37899,1,0,0:0:0:0:
256,192,38218,1,0,0:0:0:0:
256,192,38537,1,8,0:0:0:0:
256,192,39175,1,0,0:0:0:0:
256,192,39814,1,8,0:0:0:0:
256,192,40452,1,0,0:0:0:0:
256,192,41729,1,0,0:0:0:0:
256,192,42367,1,8,0:0:0:0:
256,192,43005,1,0,0:0:0:0:
256,192,43324,1,8,0:0:0:0:
256,192,43643,1,8,0:0:0:0:
256,192,44282,1,0,0:0:0:0:
256,192,44920,1,8,0:0:0:0:
256,192,45239,1,0,0:0:0:0:
256,192,45558,1,8,0:0:0:0:
256,192,46835,1,12,0:0:0:0:
256,192,47473,1,0,0:0:0:0:
256,192,48112,1,8,0:0:0:0:
256,192,48431,1,8,0:0:0:0:
256,192,48750,1,0,0:0:0:0:
256,192,49388,1,8,0:0:0:0:
256,192,50026,1,0,0:0:0:0:
256,192,50665,1,8,0:0:0:0:
256,192,51941,1,0,0:0:0:0:
256,192,52580,1,8,0:0:0:0:
256,192,53218,1,0,0:0:0:0:
256,192,53537,1,8,0:0:0:0:
256,192,53856,1,8,0:0:0:0:
256,192,54495,1,0,0:0:0:0:
256,192,55133,1,8,0:0:0:0:
256,192,55771,1,0,0:0:0:0:
256,192,56090,1,0,0:0:0:0:
256,192,56409,1,8,0:0:0:0:
256,192,56729,1,8,0:0:0:0:
256,192,57048,1,0,0:0:0:0:
256,192,58324,1,8,0:0:0:0:
256,192,58963,1,8,0:0:0:0:
256,192,59601,1,0,0:0:0:0:
256,192,59920,1,8,0:0:0:0:
256,192,60239,1,0,0:0:0:0:
256,192,60878,1,8,0:0:0:0:
256,192,61516,1,8,0:0:0:0:
256,192,61835,1,8,0:0:0:0:
256,192,62154,1,0,0:0:0:0:
256,192,63431,1,8,0:0:0:0:
256,192,64069,1,0,0:0:0:0:
256,192,64388,1,8,0:0:0:0:
256,192,64707,1,0,0:0:0:0:
256,192,65346,1,0,0:0:0:0:
256,192,65984,1,8,0:0:0:0:
256,192,66303,1,8,0:0:0:0:
256,192,66622,1,8,0:0:0:0:
256,192,67260,1,4,0:0:0:0:
256,192,67580,1,8,0:0:0:0:
256,192,67899,1,0,0:0:0:0:
256,192,68537,1,8,0:0:0:0:
256,192,69175,1,8,0:0:0:0:
256,192,69495,1,8,0:0:0:0:
256,192,69814,1,0,0:0:0:0:
256,192,70452,1,8,0:0:0:0:
256,192,71090,1,8,0:0:0:0:
256,192,72367,1,0,0:0:0:0:
256,192,72686,1,8,0:0:0:0:
256,192,73005,1,0,0:0:0:0:
256,192,73643,1,8,0:0:0:0:
256,192,74282,1,8,0:0:0:0:
256,192,74601,1,0,0:0:0:0:
256,192,74920,1,8,0:0:0:0:
256,192,75558,1,0,0:0:0:0:
256,192,76197,1,8,0:0:0:0:
256,192,76516,1,8,0:0:0:0:
256,192,76835,1,8,0:0:0:0:
256,192,77154,1,8,0:0:0:0:
256,192,77473,1,0,0:0:0:0:
256,192,78112,1,0,0:0:0:0:
256,192,78750,1,8,0:0:0:0:
256,192,80026,1,0,0:0:0:0:
256,192,80665,1,0,0:0:0:0:
256,192,81303,1,8,0:0:0:0:
256,192,81941,1,8,0:0:0:0:
256,192,82580,1,0,0:0:0:0:
256,192,82899,1,8,0:0:0:0:
256,192,83218,1,0,0:0:0:0:
256,192,83856,1,8,0:0:0:0:
256,192,85133,1,0,0:0:0:0:
256,192,85771,1,0,0:0:0:0:
256,192,86090,1,8,0:0:0:0:
256,192,86409,1,0,0:0:0:0:
256,192,86888,1,4,0:0:0:0:
256,192,87526,1,8,0:0:0:0:
