osu file format v13

[General]
AudioFilename: 96neko.mp3
AudioLeadIn: 0
PreviewTime: 168038
Countdown: 0
SampleSet: Soft
StackLeniency: 0.4
Mode: 0
LetterboxInBreaks: 0
WidescreenStoryboard: 0

[Editor]
DistanceSpacing: 0.8
BeatDivisor: 3
GridSize: 4
TimelineZoom: 2.400001

[Metadata]
Title:Yoshiwara Lament
TitleUnicode:吉原ラメント
Artist:96Neko
ArtistUnicode:96猫
Creator:Minakami Yuki
Version:Insane
Source:
Tags:アイリス iris 亜沙 asa remento kasane teto nico nico douga mtbbsben
BeatmapID:451227
BeatmapSetID:189377

[Difficulty]
HPDrainRate:6
CircleSize:4
OverallDifficulty:7
ApproachRate:8.7
SliderMultiplier:1.4
SliderTickRate:1

[Events]
//Background and Video events
Video,0,"movie.flv"
0,0,"bg.jpg",0,0
//Break Periods
2,81988,89893
2,136988,146143
2,168238,174893
2,198238,199893
//Storyboard Layer 0 (Background)
//Storyboard Layer 1 (Fail)
//Storyboard Layer 2 (Pass)
//Storyboard Layer 3 (Foreground)
//Storyboard Sound Samples
//Background Colour Transformations
3,100,163,162,255

[TimingPoints]
5538,312.5,4,2,7,40,1,0
5538,-125,4,2,7,40,0,0
14288,-125,4,3,7,30,0,0
15225,-125,4,2,1,60,0,0
15538,-100,4,2,1,60,0,0
25538,-100,4,2,1,35,0,0
26788,-100,4,2,1,45,0,0
36788,-100,4,2,1,60,0,0
46788,-100,4,2,1,45,0,0
54288,-100,4,2,1,60,0,0
56788,-83.3333333333333,4,2,1,60,0,1
71163,-83.3333333333333,4,2,1,45,0,1
71788,-100,4,2,1,45,0,0
80538,-100,4,2,1,60,0,0
81788,-100,4,2,1,60,0,1
81892,-100,4,2,1,60,0,0
101788,-100,4,2,1,45,0,0
109288,-100,4,2,1,60,0,0
111788,-83.3333333333333,4,2,1,60,0,1
126788,-100,4,2,1,45,0,0
135538,-100,4,2,1,60,0,0
136788,-100,4,2,1,60,0,1
136892,-100,4,2,1,60,0,0
146788,-100,4,2,7,50,0,0
156163,-100,4,2,1,60,0,0
156788,-125,4,2,1,50,0,0
164288,-100,4,2,7,50,0,0
165538,-100,4,2,1,70,0,0
166788,-100,4,3,1,40,0,0
167725,-100,4,2,1,60,0,0
168038,-100,4,2,1,45,0,0
175538,-100,4,2,7,45,0,0
176788,-100,4,2,1,45,0,0
177204,-100,4,2,1,20,0,0
177308,-100,4,2,1,45,0,0
177621,-100,4,2,1,30,0,0
177725,-100,4,2,1,45,0,0
178038,-83.3333333333333,4,2,1,60,0,1
187413,-83.3333333333333,4,2,1,45,0,1
188038,-83.3333333333333,4,2,1,60,0,1
192413,-83.3333333333333,4,2,1,45,0,1
193038,-100,4,2,1,30,0,0
197413,-100,4,3,1,45,0,0
198038,-100,4,2,1,60,0,0
203038,-100,4,2,1,60,0,1
203142,-100,4,2,1,60,0,0
223038,-125,4,2,7,40,0,0

[Colours]
Combo1 : 168,81,255
Combo2 : 255,128,192
Combo3 : 0,128,255
Combo4 : 255,0,128

[HitObjects]
69,134,5538,6,0,P|109:144|142:138,1,74.6666666666667,2|0,0:0|0:0,0:0:0:0:
207,103,5850,2,0,P|243:97|279:107,1,74.6666666666667
328,163,6163,1,2,0:0:0:0:
184,203,6371,1,0,0:0:0:0:
393,282,6683,6,0,P|450:262|475:189,1,112,2|0,0:0|0:0,0:0:0:0:
419,136,7100,2,0,P|402:168|400:206,1,74.6666666666667
462,74,7413,2,0,P|411:94|357:83,1,112,2|0,0:0|0:0,0:0:0:0:
154,300,7933,1,0,0:0:0:0:
176,270,8038,6,0,P|185:235|179:196,1,74.6666666666667,2|0,0:0|0:0,0:0:0:0:
43,248,8350,2,0,P|80:248|112:231,1,74.6666666666667
61,175,8663,1,2,0:0:0:0:
25,323,8871,1,0,0:0:0:0:
14,99,9183,6,0,P|63:135|122:126,1,112,2|0,0:0|0:0,0:0:0:0:
140,16,9600,2,0,P|106:30|83:60,1,74.6666666666667
206,52,9913,2,0,P|261:73|312:57,1,112,2|0,0:0|0:0,0:0:0:0:
202,325,10538,6,0,P|214:277|206:238,1,74.6666666666667,2|0,0:0|0:0,0:0:0:0:
183,183,10850,2,0,P|149:200|112:203,1,74.6666666666667
55,155,11163,1,2,0:0:0:0:
140,278,11371,1,0,0:0:0:0:
232,74,11683,6,0,L|358:84,1,112,2|0,0:0|0:0,0:0:0:0:
417,98,12100,2,0,P|400:65|400:28,1,74.6666666666667
467,154,12413,2,0,P|415:173|364:154,1,112,2|0,0:0|0:0,0:0:0:0:
147,229,12933,1,0,0:0:0:0:
180,210,13038,6,0,P|193:176|189:139,1,74.6666666666667,2|0,0:0|0:0,0:0:0:0:
144,80,13350,2,0,P|139:43|152:8,1,74.6666666666667,0|0,0:0|0:0,0:0:0:0:
213,52,13663,1,2,0:0:0:0:
121,169,13871,1,0,0:0:0:0:
332,95,14183,1,0,0:0:0:0:
368,102,14288,5,2,0:0:0:0:
144,282,14600,1,2,0:0:0:0:
298,14,14913,1,2,0:0:0:0:
214,370,15225,1,12,0:0:0:0:
230,355,15538,6,0,L|326:369,1,93.3333333333333,4|0,0:0|0:0,0:0:0:0:
380,213,15850,2,0,L|284:227,1,93.3333333333333,8|0,0:0|0:0,0:0:0:0:
160,130,16163,2,0,B|206:87|206:87|232:14,1,140,0|8,0:0|0:0,0:0:0:0:
67,140,16683,1,0,0:0:0:0:
84,173,16788,6,0,P|83:216|52:261,1,93.3333333333333,0|0,0:0|0:0,0:0:0:0:
149,357,17100,2,0,P|150:310|176:272,1,93.3333333333333,8|0,0:0|0:0,0:0:0:0:
394,222,17413,2,0,B|311:238|311:238|258:225,1,140,0|8,0:0|0:0,0:0:0:0:
238,205,18038,6,0,B|219:162|219:162|214:109,1,93.3333333333333
355,10,18350,2,0,B|350:56|350:56|331:99,1,93.3333333333333,8|0,0:0|0:0,0:0:0:0:
401,285,18663,2,0,B|405:238|405:238|424:195,1,93.3333333333333
454,174,18975,1,8,0:0:0:0:
373,310,19183,1,0,0:0:0:0:
344,335,19288,6,0,L|197:315,1,140,2|8,0:0|0:0,0:0:0:0:
14,159,19913,1,8,0:0:0:0:
40,133,20017,1,0,0:0:0:0:
76,123,20121,1,8,0:0:0:0:
112,130,20225,1,8,0:0:0:0:
141,153,20329,1,0,0:0:0:0:
156,187,20433,1,8,0:0:0:0:
154,224,20538,6,0,P|109:237|65:225,1,93.3333333333333
250,196,20850,2,0,B|251:243|251:243|232:293,1,93.3333333333333,8|0,0:0|0:0,0:0:0:0:
381,350,21163,2,0,B|434:366|481:331|481:331|472:364,1,140,0|8,0:0|0:0,0:0:0:0:
479,331,21788,6,0,P|484:284|472:240,1,93.3333333333333,0|0,0:0|0:0,0:0:0:0:
416,120,22100,2,0,B|463:111|463:111|505:88,1,93.3333333333333,8|0,0:0|0:0,0:0:0:0:
274,54,22413,2,0,B|234:33|234:33|186:26,1,93.3333333333333
151,38,22725,1,8,0:0:0:0:
300,80,22933,1,0,0:0:0:0:
322,110,23038,6,0,L|303:252,1,140,2|8,0:0|0:0,0:0:0:0:
30,112,23663,2,0,B|35:65|35:65|59:21,1,93.3333333333333
206,112,23975,2,0,P|226:154|222:200,1,93.3333333333333,8|0,0:0|0:0,0:0:0:0:
20,330,24288,5,8,0:0:0:0:
56,335,24392,1,0,0:0:0:0:
93,341,24496,1,8,0:0:0:0:
130,347,24600,1,8,0:0:0:0:
172,126,24808,1,0,0:0:0:0:
138,139,24912,1,8,0:0:0:0:
369,257,25121,1,0,0:0:0:0:
403,244,25225,1,8,0:0:0:0:
438,230,25329,1,0,0:0:0:0:
473,217,25433,1,0,0:0:0:0:
508,205,25538,5,0,0:0:0:0:
499,225,25850,1,0,0:0:0:0:
491,245,26163,1,0,0:0:0:0:
483,265,26475,1,0,0:0:0:0:
102,125,26788,6,0,B|61:113|61:113|1:120,1,93.3333333333333,4|0,0:0|0:0,0:0:0:0:
184,148,27100,2,0,P|182:98|156:57,1,93.3333333333333,0|0,0:0|0:0,0:0:0:0:
53,196,27413,2,0,B|41:240|41:240|65:280|42:338,1,140,0|0,0:0|0:0,0:0:0:0:
133,35,27933,1,0,0:0:0:0:
160,62,28038,6,0,P|200:76|249:62,1,93.3333333333333
299,158,28350,2,0,P|337:139|361:95,1,93.3333333333333
466,126,28663,2,0,P|480:85|465:37,1,93.3333333333333
282,76,28975,1,8,0:0:0:0:
396,81,29183,1,0,0:0:0:0:
362,95,29288,6,0,L|370:200,1,93.3333333333333
309,343,29600,2,0,P|301:297|318:254,1,93.3333333333333
508,322,29913,2,0,B|486:298|486:298|441:333|386:309,1,140,0|0,0:0|0:0,0:0:0:0:
125,313,30433,1,0,0:0:0:0:
95,287,30538,6,0,P|114:246|106:196,1,93.3333333333333
15,30,30850,2,0,L|28:170,2,140,0|0|8,0:0|0:0|0:0,0:0:0:0:
157,132,31683,1,0,0:0:0:0:
189,112,31788,6,0,B|232:132|232:132|281:129,1,93.3333333333333
402,8,32100,2,0,B|363:35|363:35|343:77,1,93.3333333333333
384,245,32413,2,0,B|380:198|380:198|355:160,1,93.3333333333333
299,227,32725,1,0,0:0:0:0:
471,265,32933,1,0,0:0:0:0:
499,289,33038,6,0,L|476:379,1,93.3333333333333
385,246,33350,2,0,L|319:312,1,93.3333333333333
323,151,33663,2,0,L|233:176,1,93.3333333333333
100,68,33975,1,8,0:0:0:0:
206,150,34183,1,0,0:0:0:0:
187,116,34288,6,0,P|183:70|203:21,1,93.3333333333333
83,101,34600,2,0,P|53:123|-9:123,1,93.3333333333333
193,215,34913,2,0,P|249:176|316:189,1,140,0|0,0:0|0:0,0:0:0:0:
68,315,35433,1,0,0:0:0:0:
95,289,35538,6,0,L|105:196,1,93.3333333333333
266,261,35850,2,0,L|277:357,1,93.3333333333333
458,374,36163,1,8,0:0:0:0:
425,357,36267,1,0,0:0:0:0:
407,326,36371,1,0,0:0:0:0:
408,289,36475,1,8,0:0:0:0:
429,258,36579,1,0,0:0:0:0:
463,244,36683,1,0,0:0:0:0:
499,253,36788,6,0,L|513:155,1,93.3333333333333,4|0,0:0|0:0,0:0:0:0:
396,43,37100,2,0,B|428:37|428:37|491:53,1,93.3333333333333,8|0,0:0|0:0,0:0:0:0:
295,85,37413,2,0,B|243:94|243:94|156:71,1,140,0|8,0:0|0:0,0:0:0:0:
424,121,37933,1,0,0:0:0:0:
398,147,38038,6,0,P|398:197|425:237,1,93.3333333333333
314,258,38350,2,0,P|314:307|287:347,1,93.3333333333333,8|0,0:0|0:0,0:0:0:0:
119,188,38663,2,0,P|165:187|205:211,1,93.3333333333333
258,361,38975,1,8,0:0:0:0:
222,245,39183,1,0,0:0:0:0:
232,281,39288,6,0,B|197:303|197:303|146:316,1,93.3333333333333
17,210,39600,2,0,L|5:309,1,93.3333333333333,8|0,0:0|0:0,0:0:0:0:
73,68,39913,2,0,B|81:129|81:129|96:158,1,93.3333333333333
270,211,40225,1,8,0:0:0:0:
119,188,40433,1,0,0:0:0:0:
147,201,40538,6,0,L|264:187,1,93.3333333333333
437,247,40850,2,0,P|466:224|486:166,1,93.3333333333333,8|0,0:0|0:0,0:0:0:0:
497,4,41163,1,8,0:0:0:0:
467,27,41267,2,0,L|460:78,1,46.6666666666667,0|8,0:0|0:0,0:0:0:0:
337,98,41475,1,8,0:0:0:0:
366,120,41579,2,0,L|373:171,1,46.6666666666667,0|8,0:0|0:0,0:0:0:0:
457,267,41788,6,0,L|444:359,1,93.3333333333333,0|0,0:0|0:0,0:0:0:0:
366,120,42100,2,0,L|378:212,1,93.3333333333333,8|0,0:0|0:0,0:0:0:0:
289,339,42413,2,0,P|248:360|202:360,1,93.3333333333333
120,169,42725,1,8,0:0:0:0:
168,344,42933,1,0,0:0:0:0:
196,318,43038,6,0,B|206:275|206:275|198:224,1,93.3333333333333
59,113,43350,2,0,P|38:153|43:199,1,93.3333333333333,8|0,0:0|0:0,0:0:0:0:
311,119,43663,2,0,B|230:99|230:99|173:105,1,140,0|8,0:0|0:0,0:0:0:0:
315,33,44183,1,0,0:0:0:0:
349,19,44288,6,0,L|445:40,1,93.3333333333333
512,154,44600,2,0,L|370:187,2,140,8|0|8,0:0|0:0|0:0,0:0:0:0:
311,118,45433,1,0,0:0:0:0:
299,133,45538,5,8,0:0:0:0:
281,165,45642,2,0,L|294:228,1,46.6666666666667
210,377,45850,1,8,0:0:0:0:
244,361,45954,2,0,L|254:316,1,46.6666666666667
438,279,46163,1,8,0:0:0:0:
401,274,46267,2,0,L|365:303,1,46.6666666666667
214,242,46475,5,8,0:0:0:0:
188,215,46579,1,0,0:0:0:0:
162,189,46683,1,0,0:0:0:0:
136,161,46788,6,0,P|103:142|42:146,1,93.3333333333333,4|0,0:0|0:0,0:0:0:0:
9,276,47100,2,0,P|51:258|78:221,1,93.3333333333333,0|0,0:0|0:0,0:0:0:0:
19,65,47413,1,2,0:0:0:0:
0,193,47621,1,0,0:0:0:0:
20,161,47725,2,0,P|64:140|108:144,1,93.3333333333333,0|0,0:0|0:0,0:0:0:0:
206,297,48038,5,2,0:0:0:0:
196,323,48350,1,0,0:0:0:0:
187,349,48663,1,2,0:0:0:0:
178,375,48975,2,0,L|170:324,1,46.6666666666667,2|0,0:0|0:0,0:0:0:0:
230,210,49183,1,0,0:0:0:0:
257,183,49288,6,0,P|302:190|346:175,1,93.3333333333333,2|0,0:0|0:0,0:0:0:0:
348,34,49600,2,0,P|312:63|295:106,1,93.3333333333333,0|0,0:0|0:0,0:0:0:0:
397,244,49913,1,2,0:0:0:0:
380,117,50121,1,0,0:0:0:0:
414,131,50225,2,0,P|450:102|467:59,1,93.3333333333333,0|0,0:0|0:0,0:0:0:0:
214,110,50538,5,2,0:0:0:0:
187,101,50850,1,0,0:0:0:0:
160,92,51163,1,2,0:0:0:0:
133,84,51475,2,0,L|154:131,1,46.6666666666667,2|0,0:0|0:0,0:0:0:0:
208,257,51683,1,0,0:0:0:0:
173,244,51788,6,0,P|181:289|167:333,1,93.3333333333333,4|0,0:0|0:0,0:0:0:0:
14,317,52101,2,0,P|51:289|97:283,1,93.3333333333333
239,383,52413,1,2,0:0:0:0:
96,197,52621,1,0,0:0:0:0:
118,167,52725,2,0,P|163:150|216:162,1,93.3333333333333
376,288,53038,5,2,0:0:0:0:
402,279,53350,1,0,0:0:0:0:
428,270,53663,1,2,0:0:0:0:
454,261,53975,2,0,L|444:315,1,46.6666666666667,2|0,0:0|0:0,0:0:0:0:
474,118,54183,5,0,0:0:0:0:
450,88,54288,2,0,L|460:34,1,46.6666666666667,4|0,0:0|0:0,0:0:0:0:
270,208,54496,5,0,0:0:0:0:
294,238,54600,2,0,L|284:292,1,46.6666666666667,0|0,0:0|0:0,0:0:0:0:
384,178,54808,5,0,0:0:0:0:
360,148,54913,2,0,L|370:94,1,46.6666666666667
180,268,55121,5,0,0:0:0:0:
204,298,55225,2,0,L|194:352,1,46.6666666666667,0|0,0:0|0:0,0:0:0:0:
111,60,55433,1,0,0:0:0:0:
87,89,55538,6,0,P|52:102|-11:91,1,93.3333333333333,0|0,0:0|0:0,0:0:0:0:
188,15,55850,2,0,P|235:20|274:49,1,93.3333333333333,8|0,0:0|0:0,0:0:0:0:
156,238,56163,1,8,0:0:0:0:
426,58,56371,1,8,0:0:0:0:
37,18,56788,6,0,L|23:139,1,111.999996582031,4|0,0:0|0:0,0:0:0:0:
214,214,57100,2,0,L|202:103,1,111.999996582031,8|0,0:0|0:0,0:0:0:0:
271,46,57413,1,0,0:0:0:0:
297,243,57621,1,0,0:0:0:0:
269,278,57725,2,0,P|219:299|166:285,1,111.999996582031,8|0,0:0|0:0,0:0:0:0:
322,206,58038,6,0,B|368:195|405:223|405:223|453:228|474:177,2,167.999994873047,0|8|0,0:0|0:0|0:0,0:0:0:0:
223,351,58871,1,0,0:0:0:0:
268,360,58975,2,0,P|319:341|347:294,1,111.999996582031,8|0,0:0|0:0,0:0:0:0:
248,166,59288,6,0,P|238:220|265:268,1,111.999996582031,0|0,0:0|0:0,0:0:0:0:
319,121,59600,2,0,P|278:86|223:85,1,111.999996582031,8|0,0:0|0:0,0:0:0:0:
18,162,59913,2,0,B|35:184|35:184|113:214|160:150,1,167.999994873047,0|8,0:0|0:0,0:0:0:0:
286,22,60433,1,0,0:0:0:0:
311,59,60538,6,0,P|352:94|407:94,1,111.999996582031,0|0,0:0|0:0,0:0:0:0:
410,179,60850,2,0,P|460:160|489:113,1,111.999996582031,8|0,0:0|0:0,0:0:0:0:
383,14,61163,1,0,0:0:0:0:
79,94,61475,1,8,0:0:0:0:
122,85,61579,1,0,0:0:0:0:
165,76,61683,1,0,0:0:0:0:
209,67,61788,6,0,L|89:58,1,111.999996582031,4|0,0:0|0:0,0:0:0:0:
16,236,62100,2,0,L|127:227,1,111.999996582031,8|0,0:0|0:0,0:0:0:0:
204,179,62413,1,0,0:0:0:0:
441,211,62621,1,0,0:0:0:0:
471,243,62725,2,0,P|492:297|472:351,1,111.999996582031,8|0,0:0|0:0,0:0:0:0:
410,179,63038,6,0,B|416:84|416:84|442:10,2,167.999994873047,0|8|0,0:0|0:0|0:0,0:0:0:0:
475,346,63871,1,0,0:0:0:0:
446,309,63975,2,0,P|393:297|342:319,1,111.999996582031,8|0,0:0|0:0,0:0:0:0:
156,289,64288,6,0,P|209:301|260:280,1,111.999996582031
202,212,64600,2,0,B|211:149|211:149|201:100,1,111.999996582031,8|0,0:0|0:0,0:0:0:0:
83,191,64913,2,0,B|68:291|68:291|81:356,1,167.999994873047,0|8,0:0|0:0,0:0:0:0:
41,207,65433,1,0,0:0:0:0:
0,224,65538,6,0,P|45:271|97:277,1,111.999996582031
174,251,65850,2,0,P|228:241|265:200,1,111.999996582031,8|0,0:0|0:0,0:0:0:0:
327,134,66163,2,0,L|439:153,1,111.999996582031
306,273,66475,1,8,0:0:0:0:
262,265,66580,1,0,0:0:0:0:
218,258,66684,1,0,0:0:0:0:
174,251,66788,6,0,L|190:361,1,111.999996582031,4|0,0:0|0:0,0:0:0:0:
100,132,67100,2,0,L|84:243,1,111.999996582031,8|0,0:0|0:0,0:0:0:0:
2,281,67413,1,0,0:0:0:0:
23,93,67621,1,0,0:0:0:0:
55,62,67725,2,0,P|108:47|157:71,1,111.999996582031,8|0,0:0|0:0,0:0:0:0:
330,201,68038,6,0,B|285:238|221:200|221:200|216:173|198:154,2,167.999994873047,0|8|0,0:0|0:0|0:0,0:0:0:0:
170,355,68871,1,0,0:0:0:0:
139,323,68975,2,0,P|122:270|134:216,1,111.999996582031,8|0,0:0|0:0,0:0:0:0:
264,94,69288,6,0,B|197:77|197:77|151:90,1,111.999996582031
309,180,69600,2,0,B|357:130|357:130|368:84,1,111.999996582031,8|0,0:0|0:0,0:0:0:0:
213,181,69913,2,0,B|242:284|242:284|285:326,1,167.999994873047,0|8,0:0|0:0,0:0:0:0:
463,346,70433,1,0,0:0:0:0:
491,310,70538,6,0,P|506:258|490:205,1,111.999996582031
327,206,70850,2,0,P|365:246|419:259,1,111.999996582031,8|0,0:0|0:0,0:0:0:0:
388,69,71163,1,8,0:0:0:0:
350,44,71267,1,8,0:0:0:0:
305,48,71371,1,0,0:0:0:0:
234,101,71475,1,8,0:0:0:0:
197,126,71579,1,8,0:0:0:0:
151,125,71684,1,0,0:0:0:0:
73,80,71788,6,0,B|48:124|48:124|33:212,2,140,12|8|8,0:0|0:0|0:0,0:0:0:0:
130,227,72725,1,8,0:0:0:0:
186,374,73038,6,0,B|211:330|211:330|226:242,2,140,8|8|8,0:0|0:0|0:0,0:0:0:0:
299,177,73975,1,8,0:0:0:0:
389,139,74288,6,0,P|457:152|502:204,1,140,8|8,0:0|0:0,0:0:0:0:
122,139,74913,2,0,P|55:152|10:204,1,140,8|8,0:0|0:0,0:0:0:0:
305,331,75538,6,0,B|370:292|370:292|408:240,1,140,8|8,0:0|0:0,0:0:0:0:
206,331,76163,2,0,B|142:292|142:292|104:240,1,140,8|8,0:0|0:0,0:0:0:0:
256,124,76788,5,12,0:0:0:0:
256,104,78663,5,0,0:0:0:0:
376,191,78871,2,0,L|418:172,1,46.6666666666667
487,144,79288,5,4,0:0:0:0:
507,124,79913,2,0,L|490:226,1,93.3333333333333,0|0,3:0|3:0,0:0:0:0:
471,236,80538,5,8,0:0:0:0:
368,327,80746,1,0,0:0:0:0:
402,343,80850,1,8,0:0:0:0:
231,335,81058,1,0,0:0:0:0:
249,378,81163,1,8,0:0:0:0:
119,255,81371,1,0,0:0:0:0:
97,306,81475,1,8,0:0:0:0:
81,123,81788,5,4,0:0:0:0:
195,164,90538,5,8,0:0:0:0:
186,200,90642,1,8,0:0:0:0:
177,236,90746,1,0,0:0:0:0:
169,272,90850,1,8,0:0:0:0:
295,154,91058,1,0,0:0:0:0:
287,117,91163,2,0,L|244:83,1,46.6666666666667,8|0,0:0|0:0,0:0:0:0:
64,27,91371,1,0,0:0:0:0:
72,64,91475,1,8,0:0:0:0:
80,101,91579,1,8,0:0:0:0:
88,138,91684,1,8,0:0:0:0:
95,174,91788,6,0,P|46:191|3:176,1,93.3333333333333,4|0,0:0|0:0,0:0:0:0:
123,265,92100,2,0,P|173:274|203:309,1,93.3333333333333,8|0,0:0|0:0,0:0:0:0:
251,214,92413,2,0,P|317:223|364:175,1,140,0|8,0:0|0:0,0:0:0:0:
283,34,92933,1,0,0:0:0:0:
309,61,93038,6,0,L|295:154,1,93.3333333333333
420,242,93350,2,0,L|406:150,1,93.3333333333333,8|0,0:0|0:0,0:0:0:0:
338,318,93663,2,0,P|292:345|241:340,1,93.3333333333333
56,192,93975,1,8,0:0:0:0:
220,326,94183,1,0,0:0:0:0:
188,305,94288,6,0,B|138:315|138:315|97:339,1,93.3333333333333
6,152,94600,2,0,B|42:173|42:173|92:183,1,93.3333333333333,8|0,0:0|0:0,0:0:0:0:
320,114,94913,2,0,P|307:70|271:42,1,93.3333333333333
129,176,95225,1,8,0:0:0:0:
237,119,95433,1,0,0:0:0:0:
237,119,95538,6,0,P|193:132|165:168,1,93.3333333333333,0|0,0:0|0:0,0:0:0:0:
325,197,95850,2,0,P|369:184|397:147,1,93.3333333333333,8|0,0:0|0:0,0:0:0:0:
244,203,96163,1,8,0:0:0:0:
225,235,96267,2,0,L|233:282,1,46.6666666666667,0|8,0:0|0:0,0:0:0:0:
320,114,96475,1,8,0:0:0:0:
339,82,96579,2,0,L|331:35,1,46.6666666666667,0|8,0:0|0:0,0:0:0:0:
206,267,96788,6,0,L|172:356,1,93.3333333333333,0|0,0:0|0:0,0:0:0:0:
164,168,97100,2,0,L|90:228,1,93.3333333333333,8|0,0:0|0:0,0:0:0:0:
170,56,97413,2,0,P|101:67|45:25,1,140,0|8,0:0|0:0,0:0:0:0:
358,50,97933,1,0,0:0:0:0:
381,77,98038,6,0,P|427:69|458:35,1,93.3333333333333
284,12,98350,2,0,B|272:49|272:49|278:103,1,93.3333333333333,8|0,0:0|0:0,0:0:0:0:
414,254,98663,2,0,B|420:199|420:199|408:163,1,93.3333333333333
245,85,98975,1,8,0:0:0:0:
334,207,99183,1,0,0:0:0:0:
304,230,99288,6,0,B|293:277|293:277|297:325,1,93.3333333333333
226,154,99600,2,0,P|231:108|211:67,1,93.3333333333333,8|0,0:0|0:0,0:0:0:0:
10,133,99913,2,0,B|73:145|73:145|147:125,1,140,0|8,0:0|0:0,0:0:0:0:
393,284,100433,1,0,0:0:0:0:
408,274,100538,5,8,0:0:0:0:
442,259,100642,2,0,P|469:262|492:270,1,46.6666666666667
288,302,100850,1,8,0:0:0:0:
317,324,100954,2,0,P|328:348|333:373,1,46.6666666666667
203,211,101163,1,8,0:0:0:0:
199,248,101267,2,0,P|183:269|164:285,1,46.6666666666667
239,92,101475,5,8,0:0:0:0:
205,107,101579,1,0,0:0:0:0:
168,103,101683,1,0,0:0:0:0:
134,86,101788,6,0,B|86:74|86:74|42:79,1,93.3333333333333,4|0,0:0|0:0,0:0:0:0:
82,162,102100,2,0,B|130:174|130:174|173:168,1,93.3333333333333,8|0,0:0|0:0,0:0:0:0:
288,28,102413,1,2,0:0:0:0:
199,141,102621,1,0,0:0:0:0:
231,121,102725,2,0,P|281:119|323:147,1,93.3333333333333,8|0,0:0|0:0,0:0:0:0:
274,338,103038,5,2,0:0:0:0:
264,313,103350,1,8,0:0:0:0:
254,287,103663,1,2,0:0:0:0:
244,261,103975,2,0,L|256:216,1,46.6666666666667,8|0,0:0|0:0,0:0:0:0:
476,139,104183,1,8,0:0:0:0:
496,170,104288,6,0,P|494:216|468:255,1,93.3333333333333,2|0,0:0|0:0,0:0:0:0:
385,272,104600,2,0,P|387:226|413:188,1,93.3333333333333,8|0,0:0|0:0,0:0:0:0:
421,51,104913,1,2,0:0:0:0:
392,157,105121,1,0,0:0:0:0:
362,136,105225,2,0,B|315:123|315:123|260:129,1,93.3333333333333,8|0,0:0|0:0,0:0:0:0:
47,175,105538,5,2,0:0:0:0:
39,148,105850,1,8,0:0:0:0:
31,121,106163,1,2,0:0:0:0:
23,94,106475,2,0,L|78:113,1,46.6666666666667,8|0,0:0|0:0,0:0:0:0:
117,316,106683,1,8,0:0:0:0:
91,343,106788,6,0,B|44:353|44:353|0:343,1,93.3333333333333,4|0,0:0|0:0,0:0:0:0:
44,265,107100,2,0,B|91:256|91:256|136:265,1,93.3333333333333,8|0,0:0|0:0,0:0:0:0:
257,369,107413,1,2,0:0:0:0:
171,253,107621,1,0,0:0:0:0:
207,244,107725,2,0,P|253:249|297:233,1,93.3333333333333,8|0,0:0|0:0,0:0:0:0:
380,29,108038,5,2,0:0:0:0:
407,35,108350,1,8,0:0:0:0:
434,42,108663,1,2,0:0:0:0:
462,49,108975,2,0,L|439:89,1,46.6666666666667,8|0,0:0|0:0,0:0:0:0:
233,115,109183,5,0,0:0:0:0:
206,140,109288,2,0,L|246:164,1,46.6666666666667,4|0,0:0|0:0,0:0:0:0:
429,188,109496,5,0,0:0:0:0:
439,224,109601,2,0,L|393:224,1,46.6666666666667,0|0,0:0|0:0,0:0:0:0:
239,261,109808,5,0,0:0:0:0:
247,297,109913,2,0,L|287:274,1,46.6666666666667,0|0,0:0|0:0,0:0:0:0:
423,333,110121,5,0,0:0:0:0:
398,361,110226,2,0,L|374:321,1,46.6666666666667,0|0,0:0|0:0,0:0:0:0:
260,90,110433,1,0,0:0:0:0:
288,65,110538,6,0,P|302:109|292:154,1,93.3333333333333,4|0,0:0|0:0,0:0:0:0:
123,140,110850,2,0,P|168:150|202:181,1,93.3333333333333,8|0,0:0|0:0,0:0:0:0:
49,331,111163,1,8,0:0:0:0:
119,54,111371,1,8,0:0:0:0:
128,225,111788,6,0,P|76:240|46:286,1,111.999996582031,4|0,0:0|0:0,0:0:0:0:
203,181,112100,2,0,P|241:141|244:87,1,111.999996582031,8|0,0:0|0:0,0:0:0:0:
201,7,112413,1,0,0:0:0:0:
160,258,112621,1,0,0:0:0:0:
193,287,112725,2,0,P|252:294|303:261,1,111.999996582031,8|0,0:0|0:0,0:0:0:0:
128,225,113038,6,0,B|92:260|37:241|37:241|1:260|0:309,2,167.999994873047,0|8|0,0:0|0:0|0:0,0:0:0:0:
84,14,113871,1,0,0:0:0:0:
58,51,113975,2,0,L|74:162,1,111.999996582031,8|0,0:0|0:0,0:0:0:0:
232,209,114288,6,0,P|226:155|188:114,1,111.999996582031
172,273,114600,2,0,P|222:295|276:282,1,111.999996582031,8|0,0:0|0:0,0:0:0:0:
483,202,114913,2,0,B|466:180|466:180|388:150|341:213,1,167.999994873047,0|8,0:0|0:0,0:0:0:0:
224,332,115433,1,0,0:0:0:0:
185,312,115538,6,0,P|134:331|81:316,1,111.999996582031
159,136,115850,2,0,B|152:203|152:203|132:242,1,111.999996582031,8|0,0:0|0:0,0:0:0:0:
107,62,116163,1,0,0:0:0:0:
422,271,116475,1,8,0:0:0:0:
434,228,116579,1,0,0:0:0:0:
446,185,116683,1,0,0:0:0:0:
458,141,116788,6,0,L|474:262,1,111.999996582031,4|0,0:0|0:0,0:0:0:0:
357,329,117100,2,0,P|335:278|348:225,1,111.999996582031,8|0,0:0|0:0,0:0:0:0:
470,98,117413,1,0,0:0:0:0:
261,19,117621,1,0,0:0:0:0:
228,50,117725,2,0,B|176:64|176:64|111:55,1,111.999996582031,8|0,0:0|0:0,0:0:0:0:
0,154,118038,6,0,B|95:128|95:128|163:137,2,167.999994873047,0|8|0,0:0|0:0|0:0,0:0:0:0:
146,226,118871,1,0,0:0:0:0:
191,218,118975,2,0,P|234:185|247:131,1,111.999996582031,8|0,0:0|0:0,0:0:0:0:
117,45,119288,6,0,P|124:100|164:138,1,111.999996582031
321,275,119600,2,0,P|343:224|328:172,1,111.999996582031,8|0,0:0|0:0,0:0:0:0:
91,211,119913,2,0,L|259:221,1,167.999994873047,0|8,0:0|0:0,0:0:0:0:
72,252,120433,1,0,0:0:0:0:
54,293,120538,6,0,L|165:299,1,111.999996582031
235,242,120850,2,0,P|250:190|229:139,1,111.999996582031,8|0,0:0|0:0,0:0:0:0:
151,94,121163,2,0,B|97:104|97:104|40:98,1,111.999996582031
229,51,121475,1,8,0:0:0:0:
268,57,121579,1,0,0:0:0:0:
306,63,121683,1,0,0:0:0:0:
344,70,121788,6,0,L|452:41,1,111.999996582031,4|0,0:0|0:0,0:0:0:0:
268,145,122100,2,0,L|378:174,1,111.999996582031,8|0,0:0|0:0,0:0:0:0:
460,141,122413,1,0,0:0:0:0:
217,216,122621,1,0,0:0:0:0:
189,180,122725,2,0,P|183:126|211:78,1,111.999996582031,8|0,0:0|0:0,0:0:0:0:
499,162,123038,6,0,B|506:224|453:253|453:253|433:286|447:324,2,167.999994873047,0|8|0,0:0|0:0|0:0,0:0:0:0:
279,153,123871,1,0,0:0:0:0:
311,184,123975,2,0,P|364:199|414:177,1,111.999996582031,8|0,0:0|0:0,0:0:0:0:
249,120,124288,6,0,B|190:134|190:134|139:128,1,111.999996582031
22,109,124600,2,0,B|64:153|64:153|85:200,1,111.999996582031,8|0,0:0|0:0,0:0:0:0:
132,312,124913,2,0,B|150:254|150:254|180:212,1,111.999996582031
269,210,125225,1,8,0:0:0:0:
477,279,125433,1,0,0:0:0:0:
498,239,125538,6,0,P|504:185|476:137,1,111.999996582031
300,290,125850,2,0,P|345:322|400:322,1,111.999996582031,8|0,0:0|0:0,0:0:0:0:
231,232,126163,2,0,B|153:255|153:255|80:300,1,167.999994873047,0|8,0:0|0:0,0:0:0:0:
80,84,126683,1,0,0:0:0:0:
107,49,126788,6,0,P|170:20|235:40,2,140,4|8|8,0:0|0:0|0:0,0:0:0:0:
296,117,127725,1,8,0:0:0:0:
484,183,128038,6,0,P|422:212|357:193,2,140,8|8|8,0:0|0:0|0:0,0:0:0:0:
268,234,128975,1,8,0:0:0:0:
179,275,129288,6,0,B|130:266|130:266|30:295,1,140,8|8,0:0|0:0,0:0:0:0:
179,109,129913,2,0,B|130:118|130:118|30:89,1,140,8|8,0:0|0:0,0:0:0:0:
224,19,130538,6,0,P|270:69|272:138,1,140,8|8,0:0|0:0,0:0:0:0:
224,364,131163,2,0,P|270:314|272:245,1,140,8|8,0:0|0:0,0:0:0:0:
48,192,131788,5,12,0:0:0:0:
28,192,133663,5,0,0:0:0:0:
172,155,133871,2,0,L|162:106,1,46.6666666666667
147,35,134288,5,4,0:0:0:0:
168,16,134913,2,0,L|270:33,1,93.3333333333333,0|0,3:0|3:0,0:0:0:0:
280,52,135538,5,8,0:0:0:0:
411,121,135746,1,0,0:0:0:0:
375,132,135850,1,8,0:0:0:0:
235,194,136058,1,0,0:0:0:0:
279,209,136163,1,8,0:0:0:0:
450,264,136371,1,0,0:0:0:0:
396,280,136475,1,8,0:0:0:0:
191,336,136788,5,4,0:0:0:0:
190,336,146788,6,0,P|201:291|189:246,1,93.3333333333333,4|0,0:0|0:0,0:0:0:0:
32,286,147100,2,0,P|75:303|119:292,1,93.3333333333333,8|0,0:0|0:0,0:0:0:0:
260,200,147413,1,0,0:0:0:0:
80,222,147621,1,0,0:0:0:0:
49,200,147725,2,0,L|2:212,1,46.6666666666667,8|0,0:0|0:0,0:0:0:0:
72,59,147933,1,0,0:0:0:0:
99,85,148038,6,0,P|145:89|187:68,1,93.3333333333333
338,14,148350,2,0,P|293:0|248:11,1,93.3333333333333,8|0,0:0|0:0,0:0:0:0:
325,191,148663,2,0,P|360:161|378:119,1,93.3333333333333
386,82,148975,1,8,0:0:0:0:
405,234,149183,1,0,0:0:0:0:
429,262,149288,6,0,P|435:316|412:357,1,93.3333333333333
269,315,149600,2,0,P|309:292|355:298,1,93.3333333333333,8|0,0:0|0:0,0:0:0:0:
502,370,149913,1,0,0:0:0:0:
382,204,150121,1,0,0:0:0:0:
410,180,150225,2,0,L|420:131,1,46.6666666666667,8|0,0:0|0:0,0:0:0:0:
324,373,150433,1,0,0:0:0:0:
292,353,150538,6,0,L|273:261,1,93.3333333333333,0|0,0:0|0:0,0:0:0:0:
200,167,150850,2,0,P|245:157|289:173,1,93.3333333333333,8|0,0:0|0:0,0:0:0:0:
117,157,151163,2,0,P|87:96|111:22,1,140,0|8,0:0|0:0,0:0:0:0:
242,240,151683,1,0,0:0:0:0:
222,271,151788,6,0,P|182:295|136:291,1,93.3333333333333,4|0,0:0|0:0,0:0:0:0:
61,140,152100,2,0,L|77:232,1,93.3333333333333,8|0,0:0|0:0,0:0:0:0:
57,314,152413,1,0,0:0:0:0:
165,215,152621,1,0,0:0:0:0:
392,321,152933,6,0,P|335:357|269:338,1,140
332,185,153350,2,0,P|337:231|323:276,1,93.3333333333333,8|0,0:0|0:0,0:0:0:0:
415,199,153663,2,0,P|404:131|417:62,1,140,0|8,0:0|0:0,0:0:0:0:
248,171,154288,6,0,P|202:173|163:148,1,93.3333333333333,0|0,0:0|0:0,0:0:0:0:
205,8,154600,2,0,P|229:47|228:93,1,93.3333333333333,8|0,0:0|0:0,0:0:0:0:
98,205,154913,1,0,0:0:0:0:
148,69,155121,1,0,0:0:0:0:
33,261,155433,6,0,B|54:286|88:291|88:291|118:318|98:364,1,140
15,179,155850,2,0,P|41:140|83:120,1,93.3333333333333,8|0,0:0|0:0,0:0:0:0:
300,151,156163,1,8,0:0:0:0:
120,126,156371,1,8,0:0:0:0:
156,131,156475,1,8,0:0:0:0:
192,136,156579,1,8,0:0:0:0:
228,141,156683,1,8,0:0:0:0:
264,145,156788,6,0,P|291:98|280:44,1,112,4|0,0:0|0:0,0:0:0:0:
248,239,157413,2,0,P|221:286|232:340,1,112,8|0,0:0|0:0,0:0:0:0:
422,187,158038,6,0,L|435:260,1,74.6666666666667,2|0,0:0|0:0,0:0:0:0:
374,314,158350,2,0,P|337:315|304:300,1,74.6666666666667,2|0,0:0|0:0,0:0:0:0:
247,239,158663,2,0,P|212:251|175:249,1,74.6666666666667,8|0,0:0|0:0,0:0:0:0:
102,213,158975,2,0,B|107:168|107:168|101:139,1,74.6666666666667,2|0,0:0|0:0,0:0:0:0:
34,262,159288,6,0,B|27:325|27:325|35:372,1,112,2|0,0:0|0:0,0:0:0:0:
34,122,159913,2,0,B|27:59|27:59|35:11,1,112,8|0,0:0|0:0,0:0:0:0:
270,89,160538,6,0,P|310:102|348:97,1,74.6666666666667,2|0,0:0|0:0,0:0:0:0:
409,51,160850,2,0,B|449:70|449:70|483:105,1,74.6666666666667,2|0,0:0|0:0,0:0:0:0:
424,161,161163,2,0,P|418:200|428:243,1,74.6666666666667,8|0,0:0|0:0,0:0:0:0:
479,302,161475,2,0,L|405:334,1,74.6666666666667,2|0,0:0|0:0,0:0:0:0:
239,329,161788,6,0,L|342:285,1,112,0|8,0:0|0:0,0:0:0:0:
273,55,162413,2,0,L|204:84,1,74.6666666666667,2|0,0:0|0:0,0:0:0:0:
133,43,162725,2,0,P|122:78|128:114,1,74.6666666666667,8|0,0:0|0:0,0:0:0:0:
61,278,163038,6,0,P|77:226|68:171,2,112,2|8|2,0:0|0:0|0:0,0:0:0:0:
23,102,163975,1,8,0:0:0:0:
360,252,164288,5,0,0:0:0:0:
405,241,164392,1,0,0:0:0:0:
450,230,164496,1,0,0:0:0:0:
495,219,164600,2,0,L|532:186,2,46.6666666666667,0|0|0,0:0|0:0|0:0,0:0:0:0:
292,200,164913,5,0,0:0:0:0:
247,189,165017,1,0,0:0:0:0:
202,178,165121,1,0,0:0:0:0:
157,167,165225,2,0,L|120:134,2,46.6666666666667,0|0|0,0:0|0:0|0:0,0:0:0:0:
380,152,165538,6,0,B|422:136|422:136|461:107,1,93.3333333333333,4|0,0:0|0:0,0:0:0:0:
272,300,165850,2,0,B|229:315|229:315|190:344,1,93.3333333333333,8|0,0:0|0:0,0:0:0:0:
340,372,166163,1,8,0:0:0:0:
312,80,166371,1,8,0:0:0:0:
280,60,166788,5,0,0:0:0:0:
201,90,167100,1,0,0:0:0:0:
122,119,167413,1,0,0:0:0:0:
43,149,167725,1,8,0:0:0:0:
83,340,168038,5,4,0:0:0:0:
102,192,175538,5,12,0:0:0:0:
145,119,176788,5,8,0:0:0:0:
99,109,176892,1,0,0:0:0:0:
54,122,176996,1,0,0:0:0:0:
24,157,177100,2,0,L|14:209,1,46.6666666666667,8|0,0:0|0:0,0:0:0:0:
102,192,177308,5,8,0:0:0:0:
110,146,177412,1,0,0:0:0:0:
119,100,177516,1,0,0:0:0:0:
128,54,177620,1,0,0:0:0:0:
137,8,177724,1,8,0:0:0:0:
92,237,178038,6,0,P|130:277|189:286,1,111.999996582031,4|0,0:0|0:0,0:0:0:0:
257,145,178350,2,0,P|204:158|169:201,1,111.999996582031,8|0,0:0|0:0,0:0:0:0:
200,373,178663,1,0,0:0:0:0:
299,163,178871,1,0,0:0:0:0:
341,178,178975,2,0,P|401:175|438:131,1,111.999996582031,8|0,0:0|0:0,0:0:0:0:
251,232,179288,6,0,B|234:268|245:300|245:300|288:326|285:386,2,167.999994873047,0|8|0,0:0|0:0|0:0,0:0:0:0:
363,100,180121,1,0,0:0:0:0:
397,70,180225,2,0,L|285:48,1,111.999996582031,8|0,0:0|0:0,0:0:0:0:
451,136,180538,6,0,P|480:89|475:35,1,111.999996582031
400,210,180850,2,0,P|426:258|476:281,1,111.999996582031,8|0,0:0|0:0,0:0:0:0:
362,128,181163,2,0,B|302:109|259:163|259:163|248:212,1,167.999994873047,0|8,0:0|0:0,0:0:0:0:
45,366,181683,1,0,0:0:0:0:
75,333,181788,6,0,B|88:266|88:266|81:222,1,111.999996582031
6,74,182100,2,0,B|-6:141|-6:141|0:184,1,111.999996582031,8|0,0:0|0:0,0:0:0:0:
162,261,182413,1,0,0:0:0:0:
311,35,182725,1,8,0:0:0:0:
267,29,182829,1,0,0:0:0:0:
223,23,182933,1,0,0:0:0:0:
179,17,183038,6,0,P|161:74|183:129,1,111.999996582031,4|0,0:0|0:0,0:0:0:0:
272,242,183350,2,0,L|162:261,1,111.999996582031,8|0,0:0|0:0,0:0:0:0:
40,204,183663,1,0,0:0:0:0:
217,152,183871,1,0,0:0:0:0:
259,166,183975,2,0,L|388:144,1,111.999996582031,8|0,0:0|0:0,0:0:0:0:
177,121,184288,6,0,B|99:112|99:112|-7:133,2,167.999994873047,0|8|0,0:0|0:0|0:0,0:0:0:0:
412,160,185121,1,0,0:0:0:0:
443,128,185225,2,0,P|462:75|441:17,1,111.999996582031,8|0,0:0|0:0,0:0:0:0:
370,177,185538,6,0,L|390:289,1,111.999996582031,0|0,0:0|0:0,0:0:0:0:
270,117,185850,2,0,L|231:222,1,111.999996582031,8|0,0:0|0:0,0:0:0:0:
170,57,186163,2,0,P|88:87|19:33,1,167.999994873047,0|8,0:0|0:0,0:0:0:0:
309,94,186683,1,0,0:0:0:0:
346,68,186788,6,0,P|394:95|448:85,1,111.999996582031,0|0,0:0|0:0,0:0:0:0:
500,157,187100,2,0,B|508:215|508:215|495:278,1,111.999996582031,8|0,0:0|0:0,0:0:0:0:
420,314,187413,1,8,0:0:0:0:
377,327,187517,1,8,0:0:0:0:
334,340,187621,1,0,0:0:0:0:
252,303,187725,1,8,0:0:0:0:
208,292,187829,1,8,0:0:0:0:
164,282,187933,2,0,L|117:293,1,27.9999991455078
76,303,188038,6,0,L|97:189,1,111.999996582031,4|0,0:0|0:0,0:0:0:0:
28,23,188350,2,0,P|14:77|33:129,1,111.999996582031,8|0,0:0|0:0,0:0:0:0:
185,191,188663,1,0,0:0:0:0:
372,122,188871,1,0,0:0:0:0:
335,97,188975,2,0,P|280:89|231:114,1,111.999996582031,8|0,0:0|0:0,0:0:0:0:
415,135,189288,6,0,B|474:144|501:104|501:104|497:55|519:28,2,167.999994873047,0|8|0,0:0|0:0|0:0,0:0:0:0:
185,191,190121,1,0,0:0:0:0:
145,212,190225,2,0,P|90:216|42:189,1,111.999996582031,8|0,0:0|0:0,0:0:0:0:
212,155,190538,6,0,L|333:143,1,111.999996582031
372,322,190850,2,0,L|306:231,1,111.999996582031,8|0,0:0|0:0,0:0:0:0:
436,101,191163,2,0,L|390:203,1,111.999996582031
306,231,191475,1,8,0:0:0:0:
143,54,191683,1,0,0:0:0:0:
102,35,191788,6,0,P|41:42|0:78,1,111.999996582031
59,224,192100,2,0,P|83:175|76:120,1,111.999996582031,8|0,0:0|0:0,0:0:0:0:
143,254,192413,1,8,0:0:0:0:
184,272,192517,1,8,0:0:0:0:
228,272,192621,1,0,0:0:0:0:
306,231,192725,1,8,0:0:0:0:
341,203,192829,2,0,L|400:208,1,55.9999982910157,8|0,0:0|0:0,0:0:0:0:
271,259,193038,5,8,0:0:0:0:
186,36,194288,5,0,0:0:0:0:
120,347,195538,5,0,0:0:0:0:
419,84,196788,5,0,0:0:0:0:
424,105,197413,5,0,0:0:0:0:
429,126,197725,1,0,0:0:0:0:
435,147,198038,5,4,0:0:0:0:
435,147,200538,5,4,0:0:0:0:
435,147,201788,5,8,0:0:0:0:
353,70,201996,1,0,0:0:0:0:
377,41,202100,1,8,0:0:0:0:
219,54,202308,1,8,0:0:0:0:
199,11,202412,1,0,0:0:0:0:
76,117,202621,1,0,0:0:0:0:
23,96,202725,1,8,0:0:0:0:
22,335,203038,6,0,P|76:319|125:331,1,93.3333333333333,4|0,0:0|0:0,0:0:0:0:
283,272,203350,2,0,P|240:287|194:282,1,93.3333333333333,8|0,0:0|0:0,0:0:0:0:
336,186,203663,2,0,B|365:244|365:244|378:318,1,140,0|8,0:0|0:0,0:0:0:0:
176,198,204183,1,0,0:0:0:0:
202,171,204288,6,0,P|220:120|210:78,1,93.3333333333333
63,65,204600,2,0,P|91:102|135:119,1,93.3333333333333,8|0,0:0|0:0,0:0:0:0:
289,37,204913,2,0,B|372:17|372:17|446:32,1,140,0|8,0:0|0:0,0:0:0:0:
474,246,205538,6,0,B|462:295|462:295|467:354,1,93.3333333333333
386,217,205850,2,0,B|398:167|398:167|393:108,1,93.3333333333333,8|0,0:0|0:0,0:0:0:0:
184,273,206163,2,0,P|227:290|272:284,1,93.3333333333333
307,269,206475,1,8,0:0:0:0:
223,82,206683,1,0,0:0:0:0:
245,112,206788,6,0,L|237:205,1,93.3333333333333
149,261,207100,2,0,L|157:354,1,93.3333333333333,8|0,0:0|0:0,0:0:0:0:
19,202,207413,1,8,0:0:0:0:
55,192,207517,1,0,0:0:0:0:
83,168,207621,1,8,0:0:0:0:
99,135,207725,1,8,0:0:0:0:
98,97,207829,1,0,0:0:0:0:
82,64,207933,1,8,0:0:0:0:
54,40,208038,6,0,P|99:51|142:35,1,93.3333333333333,0|0,0:0|0:0,0:0:0:0:
183,160,208350,2,0,P|214:127|223:82,1,93.3333333333333,8|0,0:0|0:0,0:0:0:0:
372,156,208663,2,0,P|354:89|306:39,1,140,0|8,0:0|0:0,0:0:0:0:
344,245,209183,1,0,0:0:0:0:
378,260,209288,6,0,B|430:252|430:252|470:261,1,93.3333333333333
316,330,209600,2,0,B|264:338|264:338|225:329,1,93.3333333333333,8|0,0:0|0:0,0:0:0:0:
188,241,209913,2,0,P|144:230|98:236,1,93.3333333333333
20,287,210225,1,8,0:0:0:0:
225,234,210433,1,0,0:0:0:0:
254,210,210538,6,0,L|267:70,1,140,2|8,0:0|0:0,0:0:0:0:
336,230,211163,2,0,P|314:270|274:292,1,93.3333333333333
169,190,211475,2,0,P|191:149|231:127,1,93.3333333333333,8|0,0:0|0:0,0:0:0:0:
237,298,211788,5,8,0:0:0:0:
200,303,211892,1,8,0:0:0:0:
163,308,211996,1,0,0:0:0:0:
126,314,212100,1,8,0:0:0:0:
370,212,212308,1,0,0:0:0:0:
407,218,212412,1,8,0:0:0:0:
194,134,212621,1,0,0:0:0:0:
157,139,212725,1,8,0:0:0:0:
120,144,212829,1,0,0:0:0:0:
83,150,212933,1,0,0:0:0:0:
46,156,213038,6,0,B|92:174|92:174|123:204,1,93.3333333333333,12|0,0:0|0:0,0:0:0:0:
42,339,213350,2,0,B|34:290|34:290|45:248,1,93.3333333333333,8|0,0:0|0:0,0:0:0:0:
210,55,213663,2,0,B|223:128|223:128|206:192,1,140,8|8,0:0|0:0,0:0:0:0:
394,347,214183,1,0,0:0:0:0:
427,329,214288,6,0,P|479:326|519:354,1,93.3333333333333,8|0,0:0|0:0,0:0:0:0:
314,300,214600,2,0,L|336:209,1,93.3333333333333,8|0,0:0|0:0,0:0:0:0:
380,41,214913,2,0,L|415:177,1,140,8|8,0:0|0:0,0:0:0:0:
197,334,215538,6,0,P|242:341|286:324,1,93.3333333333333,8|0,0:0|0:0,0:0:0:0:
120,301,215850,2,0,P|84:330|67:373,1,93.3333333333333,8|0,0:0|0:0,0:0:0:0:
236,258,216163,2,0,P|241:212|222:169,1,93.3333333333333,8|0,0:0|0:0,0:0:0:0:
74,184,216475,1,8,0:0:0:0:
192,148,216683,1,0,0:0:0:0:
175,114,216788,6,0,B|184:69|184:69|214:26,1,93.3333333333333,8|0,0:0|0:0,0:0:0:0:
354,94,217100,2,0,B|311:109|311:109|264:105,1,93.3333333333333,8|0,0:0|0:0,0:0:0:0:
417,151,217413,2,0,B|461:136|461:136|508:140,1,93.3333333333333,8|0,0:0|0:0,0:0:0:0:
435,305,217725,2,0,B|400:274|400:274|380:231,1,93.3333333333333,8|0,0:0|0:0,0:0:0:0:
192,148,218038,6,0,P|146:139|101:148,1,93.3333333333333,12|0,0:0|0:0,0:0:0:0:
255,203,218350,2,0,P|224:238|210:282,1,93.3333333333333,8|0,0:0|0:0,0:0:0:0:
324,154,218663,2,0,P|303:88|263:31,1,140,8|8,0:0|0:0,0:0:0:0:
67,165,219183,1,0,0:0:0:0:
42,193,219288,6,0,L|29:285,1,93.3333333333333,8|0,0:0|0:0,0:0:0:0:
159,365,219600,2,0,L|146:273,1,93.3333333333333,8|0,0:0|0:0,0:0:0:0:
192,146,219913,2,0,P|236:133|280:147,1,93.3333333333333,8|0,0:0|0:0,0:0:0:0:
369,279,220225,1,8,0:0:0:0:
313,164,220433,1,0,0:0:0:0:
345,182,220538,6,0,P|416:195|476:148,1,140,8|8,0:0|0:0,0:0:0:0:
167,32,221163,2,0,L|160:126,1,93.3333333333333,8|0,0:0|0:0,0:0:0:0:
215,200,221475,2,0,P|215:249|185:295,1,93.3333333333333,8|0,0:0|0:0,0:0:0:0:
46,251,221788,6,0,P|85:227|132:226,1,93.3333333333333,8|0,0:0|0:0,0:0:0:0:
256,348,222100,2,0,P|302:346|341:322,1,93.3333333333333,8|0,0:0|0:0,0:0:0:0:
489,153,222413,1,8,0:0:0:0:
481,116,222517,1,8,0:0:0:0:
474,79,222621,1,0,0:0:0:0:
467,42,222725,1,8,0:0:0:0:
390,207,222933,1,0,0:0:0:0:
355,193,223038,6,0,P|304:214|278:263,1,112
184,200,223663,1,0,0:0:0:0:
184,200,223975,1,0,0:0:0:0:
184,200,224288,2,0,P|147:206|113:194,1,74.6666666666667,0|0,0:0|0:0,0:0:0:0:
51,152,224808,1,0,0:0:0:0:
51,152,225225,6,0,L|41:35,2,112,0|0|0,0:0|0:0|0:0,0:0:0:0:
144,215,226163,2,0,L|137:290,1,74.6666666666667,0|0,0:0|0:0,0:0:0:0:
131,364,226683,1,0,0:0:0:0:
