osu file format v10

[General]
AudioFilename: whatohyeah.mp3
AudioLeadIn: 0
PreviewTime: 69178
Countdown: 0
SampleSet: Soft
StackLeniency: 0.3
Mode: 0
LetterboxInBreaks: 0

[Editor]
Bookmarks: 4103,43939,48944,106678,124178,134022,174178
DistanceSpacing: 1
BeatDivisor: 4
GridSize: 4

[Metadata]
Title:Paintings? Oh, yeah.
TitleUnicode:Paintings? Oh, yeah.
Artist:96Neko
ArtistUnicode:96Neko
Creator:Charles445
Version:Insane
Source:Nico Nico Douga
Tags:Piano papiyon ChouchouP kuroneko kouri kuma8 W8A8W ib garry mary _lrj_ lrj
BeatmapID:173015
BeatmapSetID:57393

[Difficulty]
HPDrainRate:6
CircleSize:4
OverallDifficulty:7
ApproachRate:9
SliderMultiplier:1.8
SliderTickRate:1

[Events]
//Background and Video events
Video,0,"whatohyeahibdougavideo.flv"
0,0,"ohlookanibbg.jpg"
//Break Periods
2,54456,63188
2,106957,123657
//Storyboard Layer 0 (Background)
//Storyboard Layer 1 (Fail)
//Storyboard Layer 2 (Pass)
//Storyboard Layer 3 (Foreground)
//Storyboard Sound Samples
//Background Colour Transformations
3,100,163,162,255

[TimingPoints]
1757,312.5,4,2,1,100,1,0
43788,-100,4,2,1,50,0,0
44257,-100,4,2,1,100,0,1
54257,-100,4,2,1,100,0,0
93007,-151.515151515152,4,2,1,100,0,0
94257,-100,4,2,1,100,0,1
99178,-71.4285714285714,4,2,2,100,0,1
100272,-100,4,2,1,100,0,1
104257,-100,4,2,1,100,0,0
106717,-100,4,2,1,75,0,0
123944,-133.333333333333,4,2,1,70,0,0
134178,-117.647058823529,4,2,1,80,0,0
139178,-117.647058823529,4,2,1,50,0,0
139491,-117.647058823529,4,2,1,55,0,0
139803,-117.647058823529,4,2,1,60,0,0
140116,-117.647058823529,4,2,1,65,0,0
140428,-117.647058823529,4,2,1,70,0,0
140741,-117.647058823529,4,2,1,75,0,0
141053,-117.647058823529,4,2,1,80,0,0
141366,-117.647058823529,4,2,1,85,0,0
141600,-117.647058823529,4,2,1,90,0,0
141991,-111.111111111111,4,2,1,93,0,0
142303,-105.263157894737,4,2,1,96,0,0
142616,-100,4,2,1,99,0,0
144257,-100,4,2,1,100,0,1
164257,-100,4,2,1,100,0,0

[Colours]
Combo1 : 251,244,132
Combo2 : 255,128,128
Combo3 : 130,130,253

[HitObjects]
133,85,4257,6,0,B|85:93|61:137,2,90,4|0|8,0:0|0:0|0:0,0:0:0
145,173,4725,2,0,B|107:203|108:254,2,90,0|0|8,0:0|0:0|0:0,0:0:0
199,243,5194,2,0,B|181:288|208:331,2,90
280,276,5663,2,0,B|288:324|332:348,2,90,0|8|0,0:0|0:0|0:0,0:0:0
360,236,6132,5,0,0:0:0
439,196,6288,1,8,0:0:0
377,128,6444,1,0,0:0:0
455,88,6600,1,8,0:0:0
395,21,6757,6,0,B|343:5|305:32,2,90,0|0|8,0:0|0:0|0:0,0:0:0
344,96,7225,2,0,B|292:112|254:85,2,90,0|0|8,0:0|0:0|0:0,0:0:0
304,176,7694,1,0,0:0:0
312,264,7850,1,0,0:0:0
376,328,8007,6,0,B|424:352|472:332,1,90
312,264,8319,2,0,B|264:240|216:260,1,90,8|0,0:0|0:0,0:0:0
64,324,8632,2,0,B|112:348|160:328,1,90,0|8,0:0|0:0,0:0:0
120,232,8944,1,0,0:0:0
180,144,9100,1,8,0:0:0
256,68,9257,6,0,B|296:44|352:64,2,90,4|0|8,0:0|0:0|0:0,0:0:0
308,140,9725,2,0,B|348:164|404:144,2,90,0|0|8,0:0|0:0|0:0,0:0:0
256,68,10194,2,0,B|216:44|160:64,2,90
204,140,10662,2,0,B|164:164|108:144,2,90,0|8|0,0:0|0:0|0:0,0:0:0
300,224,11132,6,0,B|360:292,1,90,0|8,0:0|0:0,0:0:0
212,224,11444,2,0,B|152:292,1,90,0|8,0:0|0:0,0:0:0
60,232,11757,6,0,B|36:192|52:144,2,90,0|0|8,0:0|0:0|0:0,0:0:0
140,184,12225,2,0,B|134:137|168:100,2,90,0|0|8,0:0|0:0|0:0,0:0:0
232,174,12694,2,0,B|246:129|293:110,1,90
380,120,13007,5,0,0:0:0
324,192,13163,1,8,0:0:0
412,204,13319,1,0,0:0:0
352,272,13475,1,0,0:0:0
440,284,13632,1,8,0:0:0
384,352,13788,5,8,0:0:0
256,372,13944,1,8,0:0:0
128,352,14100,1,8,0:0:0
64,264,14257,6,0,B|32:220|64:156,1,90,4|0,0:0|0:0,0:0:0
96,88,14569,1,8,0:0:0
176,136,14725,2,0,B|218:182|294:182|336:136,1,180
416,88,15194,2,0,B|416:180,1,90,8|0,0:0|0:0,0:0:0
416,269,15507,5,0,0:0:0
336,312,15663,2,0,B|276:352|220:288|160:320,1,180,0|0,0:0|0:0,0:0:0
100,256,16132,1,0,0:0:0
164,192,16288,2,0,B|224:152|280:216|340:184,1,180,8|0,0:0|0:0,0:0:0
412,132,16757,6,0,B|432:88|412:44,1,90
332,88,17069,1,8,0:0:0
244,88,17225,2,0,B|56:88,1,180
104,168,17694,1,8,0:0:0
59,247,17850,6,0,B|48:312|108:364|173:344,1,180
256,304,18319,1,8,0:0:0
338,344,18475,2,0,B|404:364|464:312|452:247,2,180,0|8|0,0:0|0:0|0:0,0:0:0
256,304,19257,6,0,B|148:272,1,90,4|0,0:0|0:0,0:0:0
84,252,19569,1,8,0:0:0
156,196,19725,2,0,B|228:136|198:31,1,180
304,88,20194,2,0,B|268:118|282:170,1,90,8|0,0:0|0:0,0:0:0
324,248,20507,5,0,0:0:0
404,292,20663,2,0,B|364:384|256:360,1,180
188,248,21132,1,0,0:0:0
108,292,21288,2,0,B|148:384|256:360,1,180,8|0,0:0|0:0,0:0:0
324,248,21757,5,0,0:0:0
364,168,21913,2,0,B|376:120|348:84,1,90,0|8,0:0|0:0,0:0:0
264,116,22225,2,0,B|184:160|88:124,1,180
28,192,22694,1,8,0:0:0
88,260,22850,6,0,B|184:224|264:268,1,180
336,320,23319,2,0,B|384:344|436:320,1,90,8|0,0:0|0:0,0:0:0
492,264,23632,1,0,0:0:0
392,204,23788,5,8,0:0:0
296,140,23944,1,8,0:0:0
288,24,24100,1,8,0:0:0
192,88,24257,6,0,B|152:116|96:104,1,90,4|0,0:0|0:0,0:0:0
20,76,24569,1,8,0:0:0
48,160,24725,2,0,B|80:256|8:336,1,180
104,344,25194,1,8,0:0:0
192,328,25350,1,0,0:0:0
272,288,25507,6,0,B|300:248|272:200,1,90,2|0,0:0|0:0,0:0:0
156,156,25819,2,0,B|128:196|156:244,1,90,10|0,0:0|0:0,0:0:0
273,203,26132,2,0,B|301:163|273:115,1,90,2|8,0:0|0:0,0:0:0
157,71,26444,2,0,B|129:111|157:159,1,90,2|2,0:0|0:0,0:0:0
275,118,26757,6,0,B|368:88,1,90
448,68,27069,1,8,0:0:0
428,156,27225,2,0,B|378:339,1,180
288,272,27694,1,8,0:0:0
216,324,27850,6,0,B|152:368|112:296|43:337,1,180
44,248,28319,1,8,0:0:0
76,164,28475,2,0,B|116:71|229:69,2,180,0|8|0,0:0|0:0|0:0,0:0:0
164,192,29257,5,4,0:0:0
232,256,29413,2,0,B|319:306|402:254,1,180
468,192,29882,1,0,0:0:0
402,129,30038,2,0,B|319:77|232:128,1,180
163,191,30507,6,0,B|127:223|139:279,1,90,2|0,0:0|0:0,0:0:0
255,285,30819,2,0,B|287:321|343:309,1,90,10|0,0:0|0:0,0:0:0
349,193,31132,2,0,B|385:161|373:105,1,90,2|8,0:0|0:0,0:0:0
257,99,31444,1,0,0:0:0
144,116,31600,6,0,B|48:140|24:236,1,180,2|0,0:0|0:0,0:0:0
102,281,32069,1,8,0:0:0
172,336,32225,2,0,B|256:392|340:336,1,180
256,276,32694,2,0,B|256:180,1,90,8|0,0:0|0:0,0:0:0
332,232,33007,5,0,0:0:0
420,256,33163,1,0,0:0:0
492,204,33319,1,8,0:0:0
488,116,33475,1,0,0:0:0
408,160,33632,2,0,B|359:170|324:135,1,90,8|8,0:0|0:0,0:0:0
188,32,33944,2,0,B|237:22|272:57,1,90,8|8,0:0|0:0,0:0:0
176,132,34257,5,4,0:0:0
176,132,34413,2,0,B|84:208,1,90,0|8,0:0|0:0,0:0:0
232,208,34725,1,0,0:0:0
232,208,34882,2,0,B|140:284,1,90
288,284,35194,1,8,0:0:0
288,284,35351,2,0,B|196:360,1,90
380,308,35663,5,2,0:0:0
468,284,35819,1,8,0:0:0
496,200,35975,1,0,0:0:0
464,116,36132,2,0,B|416:54|356:110|303:50,1,180,2|8,0:0|0:0,0:0:0
132,208,36757,5,0,0:0:0
132,208,36913,2,0,B|88:228|44:208,1,90,0|8,0:0|0:0,0:0:0
212,144,37225,1,0,0:0:0
212,144,37381,2,0,B|256:124|300:144,1,90
468,208,37694,1,8,0:0:0
468,208,37850,2,0,B|424:228|380:208,1,90
256,216,38163,5,2,0:0:0
180,264,38319,1,8,0:0:0
260,308,38475,1,8,0:0:0
184,356,38632,2,0,B|85:376|17:309,1,180,10|8,0:0|0:0,0:0:0
112,147,39257,5,4,0:0:0
112,147,39413,2,0,B|132:104|180:92,1,90,0|0,0:0|0:0,0:0:0
332,92,39725,1,0,0:0:0
332,92,39882,2,0,B|380:104|400:147,1,90,8|0,0:0|0:0,0:0:0
340,252,40194,2,0,B|256:308|172:252,1,180,8|0,0:0|0:0,0:0:0
256,200,40663,5,10,0:0:0
188,140,40819,1,0,0:0:0
256,80,40975,1,8,0:0:0
188,20,41132,2,0,B|90:8|30:88,1,180,2|8,0:0|0:0,0:0:0
120,276,41757,5,0,0:0:0
120,276,41913,2,0,B|128:324|180:344,1,90,0|8,0:0|0:0,0:0:0
208,192,42225,1,0,0:0:0
208,192,42381,2,0,B|200:144|148:124,1,90,0|0,0:0|0:0,0:0:0
264,272,42694,1,8,0:0:0
264,272,42850,2,0,B|272:320|324:340,1,90
408,280,43163,5,8,0:0:0
340,192,43319,1,8,0:0:0
440,148,43476,1,8,0:0:0
372,64,43632,1,8,0:0:0
140,64,43944,5,0,0:0:0
56,256,44257,5,4,0:0:0
124,316,44413,1,0,0:0:0
212,340,44569,2,0,B|260:356|300:332,1,90,8|0,0:0|0:0,0:0:0
412,232,44882,2,0,B|364:216|324:240,1,90
184,164,45194,2,0,B|232:180|272:156,1,90,8|0,0:0|0:0,0:0:0
384,56,45506,6,0,B|296:56,1,90
192,64,45819,1,8,0:0:0
100,108,45975,2,0,B|32:172|64:276,1,180
152,332,46444,2,0,B|186:300|170:248,1,90,8|0,0:0|0:0,0:0:0
184,164,46757,6,0,B|276:200|356:144,1,180,2|10,0:0|0:0,0:0:0
420,84,47225,1,0,0:0:0
436,172,47382,2,0,B|470:359,1,180,2|10,0:0|0:0,0:0:0
376,320,47850,1,0,0:0:0
304,280,48007,6,0,B|260:252|200:280,1,90
136,312,48319,1,8,0:0:0
56,272,48475,1,0,0:0:0
28,188,48632,2,0,B|8:140|36:100,1,90
100,44,48944,2,8,B|148:0,3,45
160,48,49257,6,0,B|232:108|332:76,1,180,4|8,0:0|0:0,0:0:0
416,48,49725,1,0,0:0:0
452,132,49882,2,0,B|480:232|412:304,1,180,0|8,0:0|0:0,0:0:0
360,228,50350,1,0,0:0:0
292,168,50507,6,0,B|252:128|192:144,1,90
120,152,50819,1,8,0:0:0
144,240,50975,2,0,B|184:336|324:320,1,180
380,324,51444,2,0,B|480:324,1,90,8|0,0:0|0:0,0:0:0
448,236,51757,6,0,B|416:196|425:151,1,90,2|0,0:0|0:0,0:0:0
272,84,52069,2,0,B|304:124|294:168,1,90,10|0,0:0|0:0,0:0:0
192,252,52382,2,0,B|124:188|147:82,1,180,2|10,0:0|0:0,0:0:0
44,168,52850,1,8,0:0:0
48,264,53007,6,0,B|51:316|104:336,1,90
192,252,53319,2,0,B|220:296|275:289,1,90,8|0,0:0|0:0,0:0:0
316,178,53632,2,0,B|360:206|407:175,1,90
395,57,53944,2,0,B|303:12|207:56,1,180,8|4,0:0|0:0,0:0:0
168,96,63788,5,8,0:0:0
84,128,63944,1,0,0:0:0
56,212,64100,1,8,0:0:0
96,292,64257,6,0,B|128:336|188:332,1,90,4|0,0:0|0:0,0:0:0
256,296,64569,1,8,0:0:0
339,332,64725,2,0,B|440:336|480:240,1,180
484,152,65194,1,8,0:0:0
400,184,65350,6,0,B|360:208|292:184,1,90
228,156,65663,1,0,0:0:0
148,200,65819,1,8,0:0:0
84,136,65975,2,0,B|56:96|76:48,1,90
148,200,66288,2,0,B|176:240|156:288,1,90,8|0,0:0|0:0,0:0:0
244,328,66600,1,0,0:0:0
340,344,66757,6,0,B|387:353|424:324,1,90
489,261,67069,1,8,0:0:0
404,232,67225,2,0,B|328:212|356:134|280:109,1,180
192,92,67694,1,8,0:0:0
112,132,67850,6,0,B|72:152|24:136,2,90
180,192,68319,1,8,0:0:0
112,252,68475,2,0,B|72:232|24:248,1,90
172,328,68788,2,0,B|212:348|260:332,1,90,8|2,0:0|0:0,0:0:0
344,300,69100,1,0,0:0:0
408,236,69257,6,0,B|440:192|412:144,1,90,4|0,0:0|0:0,0:0:0
360,80,69569,1,8,0:0:0
275,112,69725,2,0,B|200:160|102:128,1,180
36,192,70194,1,8,0:0:0
102,255,70350,6,0,B|200:224|276:272,1,180
348,328,70819,1,8,0:0:0
432,300,70975,2,0,B|476:280|484:228,1,90
432,84,71288,2,0,B|476:104|484:156,1,90,8|0,0:0|0:0,0:0:0
392,200,71600,1,0,0:0:0
292,236,71757,6,0,B|252:260|204:246,1,90
116,220,72069,1,8,0:0:0
184,148,72225,2,0,B|244:64|352:76,1,180
432,84,72694,1,8,0:0:0
476,164,72850,6,0,B|520:244|488:344,2,180
412,228,73632,1,8,0:0:0
360,324,73788,5,8,0:0:0
256,352,73944,1,8,0:0:0
152,324,74100,1,8,0:0:0
100,228,74257,6,0,B|72:184|100:128,1,90,4|0,0:0|0:0,0:0:0
132,60,74569,1,8,0:0:0
184,136,74725,2,0,B|196:236|285:284,1,180
360,324,75194,1,8,0:0:0
428,264,75350,1,0,0:0:0
440,176,75507,6,0,B|444:128|408:95,1,90,2|0,0:0|0:0,0:0:0
296,48,75819,2,0,B|292:96|327:128,1,90,10|0,0:0|0:0,0:0:0
276,252,76132,2,0,B|280:204|244:171,1,90,2|8,0:0|0:0,0:0:0
148,120,76444,1,2,0:0:0
52,168,76600,6,0,B|8:212|32:304|88:320,1,180,2|0,0:0|0:0,0:0:0
172,296,77069,1,8,0:0:0
256,332,77225,1,0,0:0:0
340,296,77382,1,0,0:0:0
426,319,77538,1,0,0:0:0
488,256,77694,1,8,0:0:0
416,196,77850,6,0,B|320:148|336:48,1,180
256,96,78319,1,8,0:0:0
176,48,78475,2,0,B|192:148|96:196,1,180,0|8,0:0|0:0,0:0:0
48,272,78944,2,0,B|8:296,2,45,2|2|2,0:0|0:0|0:0,0:0:0
140,268,79257,6,0,B|188:256|232:284,1,90,4|0,0:0|0:0,0:0:0
304,324,79569,1,8,0:0:0
392,304,79725,2,0,B|480:272|488:164,1,180
488,76,80194,1,8,0:0:0
412,124,80350,6,0,B|352:176|292:116|240:156,1,180
160,208,80819,1,8,0:0:0
76,172,80975,2,0,B|32:140|40:92,1,90
160,208,81288,2,0,B|204:240|196:288,1,90,8|0,0:0|0:0,0:0:0
128,344,81600,1,0,0:0:0
196,284,81757,6,0,B|236:264|284:276,1,90
360,324,82069,1,8,0:0:0
428,268,82225,2,0,B|488:192|444:96,2,180
344,176,83007,6,0,B|300:152|257:173,1,90
109,281,83319,2,0,B|153:305|195:283,1,90,8|0,0:0|0:0,0:0:0
292,356,83632,2,2,B|385:389|478:310|460:208,1,270,0|0,0:0|0:0,0:0:0
440,100,84257,5,4,0:0:0
440,100,84413,2,0,B|407:55|351:57,1,90,0|8,0:0|0:0,0:0:0
312,140,84725,1,0,0:0:0
312,140,84881,2,0,B|266:107|214:126,1,90
202,217,85194,1,8,0:0:0
202,217,85350,2,0,B|148:199|104:234,1,90
122,325,85663,5,2,0:0:0
208,364,85819,1,8,0:0:0
304,364,85975,1,0,0:0:0
392,324,86132,2,0,B|466:271|446:163,1,180,2|8,0:0|0:0,0:0:0
204,68,86757,5,0,0:0:0
204,68,86913,2,0,B|112:80,1,90,0|8,0:0|0:0,0:0:0
308,112,87225,1,0,0:0:0
308,112,87382,2,0,B|400:124,1,90
204,156,87694,2,0,B|13:180,1,180,8|0,0:0|0:0,0:0:0
48,280,88163,5,2,0:0:0
100,352,88319,1,8,0:0:0
188,372,88475,1,8,0:0:0
280,372,88632,2,0,B|380:372|420:276,1,180,10|8,0:0|0:0,0:0:0
296,84,89257,5,4,0:0:0
296,84,89413,2,0,B|260:56|212:68,1,90
32,96,89725,1,0,0:0:0
32,96,89881,2,0,B|68:124|116:112,1,90
236,176,90194,2,0,B|332:208|428:148,1,180,8|0,0:0|0:0,0:0:0
484,104,90663,5,2,0:0:0
504,192,90819,1,0,0:0:0
484,280,90975,1,0,0:0:0
412,336,91132,2,0,B|321:378|238:335,1,180,2|8,0:0|0:0,0:0:0
80,168,91757,5,0,0:0:0
80,168,91913,2,0,B|58:124|84:83,1,90,0|8,0:0|0:0,0:0:0
176,132,92225,2,0,B|222:224|167:310,1,180
88,336,92694,1,8,0:0:0
4,304,92850,1,0,0:0:0
259,280,93163,5,8,0:0:0
332,266,93319,1,8,0:0:0
406,253,93475,1,8,0:0:0
480,240,93632,2,2,B|512:234,4,29.6999999093628
200,108,94257,6,0,B|168:68|120:72,1,90,4|0,0:0|0:0,0:0:0
40,200,94569,2,0,B|72:240|120:236,1,90,8|0,0:0|0:0,0:0:0
292,240,94882,2,0,B|260:200|212:204,1,90
132,332,95194,2,0,B|164:372|212:368,1,90,8|0,0:0|0:0,0:0:0
344,336,95507,6,0,B|388:324|432:352,2,90,0|0|8,0:0|0:0|0:0,0:0:0
292,240,95975,2,0,B|248:156|288:64,1,180
412,104,96444,2,0,B|432:144|416:192,1,90,8|0,0:0|0:0,0:0:0
292,240,96757,6,0,B|216:280|108:268,1,180,2|10,0:0|0:0,0:0:0
64,192,97225,1,0,0:0:0
116,115,97382,2,0,B|216:104|292:144,1,180,2|10,0:0|0:0,0:0:0
412,104,97850,1,0,0:0:0
480,200,98007,6,0,B|504:244|476:284,1,90
368,332,98319,2,0,B|344:288|372:248,1,90,8|0,0:0|0:0,0:0:0
264,216,98632,2,0,B|230:312|131:324,1,180,0|8,0:0|0:0,0:0:0
124,80,99257,6,2,B|128:76|128:76|132:80|132:80|136:76|136:76|140:80|140:80|144:76|144:76|148:80|148:80|152:76|152:76|156:80|156:80|160:76|160:76|164:80|164:80|168:76|168:76|172:80|172:80|176:76|176:76|180:80|180:80|184:76|184:76|188:80|188:80|192:76|192:76|196:80|196:80|200:76|200:76|204:80|204:80|208:76|208:76|212:80|212:80|216:76|216:76|220:80|220:80|224:76|224:76|228:80|228:80|232:76|232:76|236:80|236:80|240:76|240:76|244:80|244:80|248:76|248:76|252:80|252:80|256:76|256:76|260:80|260:80|264:76|264:76|268:80|268:80|272:76|272:76|276:80|276:80|280:76|280:76|284:80|284:80|288:76|288:76|292:80|292:80|296:76|296:76|300:80|300:80|304:76|304:76|308:80|308:80|312:76|312:76|316:80|316:80|320:76|320:76|324:80|324:80|328:76|328:76|332:80|332:80|336:76|336:76|340:80|340:80|344:76|344:76|348:80|348:80|352:76|352:76|356:80|356:80|360:76|360:76|364:80|364:80|368:76|368:76|372:80|372:80|376:76|376:76|380:80|380:80|384:76|384:76|388:80|388:80|396:80,2,377.999988464356,0|0|0,0:0|0:0|0:0,0:0:0
408,188,100507,6,0,B|464:208|464:264,1,90
376,276,100819,1,8,0:0:0
296,316,100975,2,0,B|196:356|120:304,2,180
248,240,101757,6,0,B|216:136|112:120,1,180,2|10,0:0|0:0,0:0:0
48,76,102225,1,0,0:0:0
132,40,102382,2,0,B|220:-4|312:44,1,180,2|10,0:0|0:0,0:0:0
376,96,102850,1,0,0:0:0
408,180,103007,6,0,B|436:280,1,90
344,244,103319,2,0,B|256:208|168:244,2,180,8|0|8,0:0|0:0|0:0,0:0:0
256,192,104257,12,0,106757,0:0:0
156,192,124257,5,4,0:0:0
316,192,124569,2,0,B|396:192|440:124,2,135.000005149842
200,264,125507,2,0,B|132:324|80:272|12:340,2,202.500007724762
316,192,126757,6,0,B|376:152|360:72,1,135.000005149842
228,92,127382,2,0,B|188:32|108:48,1,135.000005149842
128,180,128007,6,0,B|39:239|63:358,2,202.500007724762
220,280,129257,5,0,0:0:0
352,300,129569,2,0,B|432:312|480:256,1,135.000005149842
500,128,130194,1,0,0:0:0
368,160,130507,6,0,B|256:188|172:140,2,202.500007724762
376,296,131757,5,0,0:0:0
252,356,132069,1,0,0:0:0
132,296,132382,1,0,0:0:0
108,164,132694,1,0,0:0:0
212,56,133007,6,0,B|284:16|368:56,1,135.000005149842
448,136,133632,1,0,0:0:0
476,200,133789,1,8,0:0:0
464,268,133945,1,8,0:0:0
420,324,134101,1,8,0:0:0
352,352,134257,6,0,B|312:360|276:344,1,76.5000014591217,4|0,0:0|0:0,0:0:0
204,324,134569,2,0,B|125:308|54:339,1,153.000002918243,2|0,0:0|0:0,0:0:0
24,268,135038,1,0,0:0:0
60,200,135194,2,0,B|148:68,1,153.000002918243
212,108,135663,1,0,0:0:0
280,72,135819,1,2,0:0:0
348,104,135975,2,0,B|416:148|400:240,1,153.000002918243,2|0,0:0|0:0,0:0:0
380,312,136444,1,2,0:0:0
184,320,136757,6,0,B|144:324|114:296,1,76.5000014591217
176,240,137069,2,0,B|104:207|95:120,1,153.000002918243,2|0,0:0|0:0,0:0:0
104,44,137538,1,0,0:0:0
176,72,137694,2,0,B|252:100|327:67,1,153.000002918243,0|2,0:0|0:0,0:0:0
392,32,138163,5,2,0:0:0
428,100,138319,1,2,0:0:0
360,136,138475,2,0,B|290:174|265:252,1,153.000002918243
256,328,138944,1,2,0:0:0
464,228,139257,6,8,B|496:200|500:163,1,76.5000014591217
420,164,139569,2,8,B|436:128|422:90,1,76.5000014591217
352,128,139882,2,8,B|348:88|319:62,1,76.5000014591217
276,128,140194,2,8,B|256:92|216:85,1,76.5000014591217
208,164,140507,2,8,B|172:144|135:154,1,76.5000014591217
166,227,140819,2,8,B|124:224|97:253,1,76.5000014591217
158,303,141131,2,8,B|120:320|110:358,1,76.5000014591217
192,380,141444,1,8,0:0:0
364,232,141757,6,8,B|392:200|388:162,1,76.5000014591217
316,52,142069,2,8,B|283:84|290:125,1,80.9999975280763,8|8,0:0|0:0,0:0:0
164,228,142382,2,8,B|198:193|190:151,1,85.4999977169037,8|8,0:0|0:0,0:0:0
116,48,142694,2,8,B|79:84|87:129,1,90,8|8,0:0|0:0,0:0:0
256,192,143007,12,0,143944,0:0:0
144,216,144257,6,0,B|196:308|292:300,1,180,4|8,0:0|0:0,0:0:0
376,268,144725,1,0,0:0:0
368,176,144882,2,0,B|316:84|220:92,1,180,0|8,0:0|0:0,0:0:0
136,124,145350,1,0,0:0:0
144,216,145507,6,0,B|160:268|128:308,2,90,0|0|8,0:0|0:0|0:0,0:0:0
56,196,145975,2,0,B|4:116|52:20,1,180
140,36,146444,2,0,B|236:48,1,90,8|0,0:0|0:0,0:0:0
320,60,146757,5,2,0:0:0
400,104,146913,1,0,0:0:0
440,184,147069,2,0,B|464:228|440:276,1,90,10|0,0:0|0:0,0:0:0
340,336,147382,2,0,B|316:292|340:244,1,90,2|0,0:0|0:0,0:0:0
258,188,147694,1,10,0:0:0
164,224,147850,6,0,B|68:260|0:188,1,180
80,144,148319,1,8,0:0:0
20,80,148475,1,0,0:0:0
104,48,148632,2,0,B|192:8|279:48,1,180,0|8,0:0|0:0,0:0:0
412,248,149257,6,0,B|463:321,1,90,4|0,0:0|0:0,0:0:0
340,300,149569,2,0,B|256:356|172:300,1,180,8|0,0:0|0:0,0:0:0
100,248,150038,1,0,0:0:0
96,160,150194,2,0,B|100:112|144:88,1,90,8|0,0:0|0:0,0:0:0
228,60,150507,5,0,0:0:0
304,108,150663,1,0,0:0:0
376,52,150819,1,8,0:0:0
444,108,150975,2,0,B|500:192|444:276,1,180
372,192,151444,2,0,B|280:192,1,90,8|0,0:0|0:0,0:0:0
212,144,151757,6,0,B|128:96|40:136,1,180,2|10,0:0|0:0,0:0:0
120,192,152225,1,0,0:0:0
212,240,152382,2,0,B|300:280|384:232,1,180,2|10,0:0|0:0,0:0:0
452,172,152850,1,8,0:0:0
492,252,153007,6,0,B|476:328|397:304|376:381,2,180,0|8|0,0:0|0:0|0:0,0:0:0
452,172,153788,1,0,0:0:0
412,92,153944,2,8,B|386:43,3,45
352,72,154257,6,0,B|272:24|172:56,1,180,4|8,0:0|0:0,0:0:0
96,92,154725,1,0,0:0:0
176,136,154882,2,0,B|240:204|216:304,1,180,0|8,0:0|0:0,0:0:0
152,364,155350,1,0,0:0:0
104,284,155507,6,0,B|72:240|92:184,1,90
176,136,155819,1,8,0:0:0
260,88,155975,2,0,B|348:48|440:96,1,180
372,160,156444,2,0,B|350:198|303:217,1,90,8|0,0:0|0:0,0:0:0
380,268,156757,6,0,B|308:340|200:320,1,180,2|10,0:0|0:0,0:0:0
128,304,157225,1,0,0:0:0
188,236,157382,2,0,B|220:196|200:148,1,90,2|0,0:0|0:0,0:0:0
120,48,157694,2,0,B|88:88|108:136,1,90,10|0,0:0|0:0,0:0:0
256,48,158007,6,0,B|297:23|344:36,1,90
424,72,158319,1,8,0:0:0
468,152,158475,1,0,0:0:0
476,244,158632,2,0,B|448:336|340:343,1,180,0|8,0:0|0:0,0:0:0
256,304,159100,1,0,0:0:0
171,343,159257,6,0,B|64:336|36:244,1,180,4|8,0:0|0:0,0:0:0
120,208,159725,1,0,0:0:0
176,140,159882,2,0,B|204:100|184:48,1,90
288,148,160194,2,0,B|260:188|280:240,1,90,8|0,0:0|0:0,0:0:0
392,160,160507,6,0,B|420:120|400:68,2,90,0|0|8,0:0|0:0|0:0,0:0:0
368,276,160975,2,0,B|324:364|216:350,1,180
132,328,161444,1,8,0:0:0
200,268,161600,1,0,0:0:0
112,244,161757,6,0,B|16:208|24:100,1,180,2|10,0:0|0:0,0:0:0
92,44,162225,1,0,0:0:0
172,84,162382,2,0,B|256:140|340:84,1,180,2|10,0:0|0:0,0:0:0
420,44,162850,1,0,0:0:0
412,136,163007,6,0,B|380:205|456:241|408:325,1,180,0|8,0:0|0:0,0:0:0
328,296,163475,1,0,0:0:0
240,268,163632,2,0,B|170:236|134:312|50:264,1,180,0|8,0:0|0:0,0:0:0
120,200,164100,1,0,0:0:0
196,148,164257,6,0,B|240:128|243:76,1,90,4|0,0:0|0:0,0:0:0
356,124,164569,2,0,B|312:144|308:195,1,90,8|0,0:0|0:0,0:0:0
408,252,164882,2,0,B|452:232|455:180,1,90
444,92,165194,1,8,0:0:0
372,40,165350,1,0,0:0:0
284,28,165507,5,0,0:0:0
196,28,165663,2,0,B|92:28,1,90,0|8,0:0|0:0,0:0:0
156,104,165975,2,0,B|188:192|156:280,1,180
106,356,166444,2,0,B|196:356,1,90,8|0,0:0|0:0,0:0:0
288,352,166757,6,0,B|344:352|376:296,1,90,2|0,0:0|0:0,0:0:0
296,272,167069,2,0,B|345:246|348:182,1,90,10|0,0:0|0:0,0:0:0
266,197,167382,2,0,B|298:151|272:92,1,90,2|0,0:0|0:0,0:0:0
205,142,167694,2,0,B|213:86|163:46,1,90,10|8,0:0|0:0,0:0:0
124,120,168007,5,8,0:0:0
36,136,168163,1,0,0:0:0
8,220,168319,1,8,0:0:0
56,296,168475,1,0,0:0:0
144,276,168632,2,2,B|200:256|252:312|320:276,1,180,0|8,0:0|0:0,0:0:0
396,228,169100,1,8,0:0:0
320,176,169257,5,4,0:0:0
396,128,169413,1,0,0:0:0
320,76,169569,2,0,B|280:52|233:60,1,90,8|0,0:0|0:0,0:0:0
80,96,169882,2,0,B|120:120|166:111,1,90
268,212,170194,2,0,B|228:188|181:196,1,90,8|0,0:0|0:0,0:0:0
76,224,170507,6,0,B|28:260|36:316,1,90
128,300,170819,1,8,0:0:0
200,360,170975,2,0,B|292:396|384:344,1,180
420,260,171444,1,8,0:0:0
388,176,171600,1,0,0:0:0
256,192,171757,12,4,174257,0:0:0
