osu file format v12

[General]
AudioFilename: 96.mp3
AudioLeadIn: 0
PreviewTime: 65080
Countdown: 0
SampleSet: Soft
StackLeniency: 0.7
Mode: 0
LetterboxInBreaks: 1
CountdownOffset: 3

[Editor]
Bookmarks: 3880,15400,17320,19000,32680,34360,49960,65320,80680,86440,88120,103480,103720,118120,118840,119080,134440,149800,165160,198280,213160,213640,236200,243400,243640,259720,259960,263560
DistanceSpacing: 0.9
BeatDivisor: 2
GridSize: 4

[Metadata]
Title:Interviewer
TitleUnicode:インタビュア
Artist:96Neko
ArtistUnicode:96猫
Creator:- Miomio Chii -
Version:Normal
Source:KuwagataP
Tags:Vocaloid2 Vocaloid Megurine Luka MmC happy623
BeatmapID:275713
BeatmapSetID:96961

[Difficulty]
HPDrainRate:5
CircleSize:3
OverallDifficulty:4
ApproachRate:5
SliderMultiplier:1
SliderTickRate:2

[Events]
//Background and Video events
0,0,"29932898.png",0,0
//Break Periods
2,80920,86960
2,150519,164000
2,196120,197120
//Storyboard Layer 0 (Background)
//Storyboard Layer 1 (Fail)
//Storyboard Layer 2 (Pass)
//Storyboard Layer 3 (Foreground)
//Storyboard Sound Samples
//Background Colour Transformations
3,100,163,162,255

[TimingPoints]
3920,480,4,2,1,50,1,0
17360,-100,4,3,0,50,0,0
19280,-100,4,2,1,50,0,0
27440,-100,4,3,0,50,0,0
28400,-100,4,2,1,50,0,0
31760,-100,4,3,0,50,0,0
34640,-100,4,2,1,50,0,0
50000,-100,4,3,0,50,0,0
53360,-100,4,2,1,50,0,0
53840,-100,4,3,0,50,0,0
58640,-100,4,2,1,50,0,0
59600,-100,4,3,0,50,0,0
61520,-100,4,2,1,50,0,0
63440,-100,4,3,0,50,0,0
64400,-100,4,2,1,50,0,0
64880,-100,4,3,0,50,0,0
65360,-66.6666666666667,4,2,1,70,0,1
68720,-66.6666666666667,4,3,0,70,0,1
69200,-66.6666666666667,4,2,1,70,0,1
72560,-66.6666666666667,4,3,0,70,0,1
73040,-66.6666666666667,4,2,1,70,0,1
76400,-66.6666666666667,4,3,0,70,0,1
76880,-66.6666666666667,4,2,1,70,0,1
78320,-66.6666666666667,4,3,0,70,0,1
78800,-66.6666666666667,4,2,1,70,0,1
80720,-66.6666666666667,4,2,1,50,0,0
88160,-100,4,2,1,60,0,0
100160,-100,4,1,1,60,0,0
103760,-100,4,2,1,60,0,0
119120,-100,4,1,1,60,0,0
134480,-100,4,2,1,80,0,1
150320,-100,4,2,1,50,0,0
165200,-100,4,1,1,50,0,0
180560,-100,4,2,1,50,0,0
198320,-66.6666666666667,4,2,1,70,0,1
213200,-66.6666666666667,4,2,1,70,0,0
213680,-66.6666666666667,4,2,1,70,0,1
236240,-100,4,2,1,60,0,0
244400,-133.333333333333,4,2,1,60,0,0

[Colours]
Combo1 : 255,255,0
Combo2 : 255,128,192
Combo3 : 255,128,255
Combo4 : 255,0,255
Combo5 : 255,0,128
Combo6 : 255,202,121

[HitObjects]
256,192,15440,12,0,18320,0:0:0:0:
204,192,19280,5,0,0:0:0:0:
168,108,19760,2,0,P|124:136|112:184,1,100
204,192,20720,2,0,P|220:244|204:288,1,100,0|2,0:0|0:0,0:0:0:0:
288,308,21680,2,0,P|336:312|384:296,1,100
420,272,22400,1,0,0:0:0:0:
452,244,22640,1,0,0:0:0:0:
376,192,23120,6,0,P|340:156|324:108,1,100,2|0,0:0|0:0,0:0:0:0:
236,116,24080,2,0,P|248:172|268:212,1,100
188,252,25040,2,0,P|168:208|152:156,1,100,2|0,0:0|0:0,0:0:0:0:
68,192,26000,2,0,P|48:240|48:256,2,50
140,248,26960,6,0,P|188:252|248:272,1,100,6|0,0:0|0:0,0:0:0:0:
276,292,27680,1,0,0:0:0:0:
320,296,27920,2,0,P|376:276|400:244,1,100
320,204,28880,2,0,P|308:152|320:104,2,100,2|0|0,0:0|0:0|0:0,0:0:0:0:
276,216,30080,1,0,0:0:0:0:
232,228,30320,2,0,P|184:248|136:236,1,100,0|2,0:0|0:0,0:0:0:0:
96,228,31040,5,0,0:0:0:0:
68,196,31280,2,0,P|64:164|56:144,2,50
152,160,32240,2,0,P|248:188|388:144,1,250
388,288,33920,2,0,P|348:332|264:364,2,150
316,236,35840,5,0,0:0:0:0:
272,228,36080,1,0,0:0:0:0:
228,240,36320,1,0,0:0:0:0:
228,152,36800,2,0,P|272:128|312:96,2,100
140,172,38240,1,0,0:0:0:0:
144,128,38480,6,0,B|172:84|172:84|180:36,1,100,2|0,0:0|0:0,0:0:0:0:
224,24,39200,1,0,0:0:0:0:
264,44,39440,2,0,B|292:92|292:92|336:104,1,100
384,176,40400,2,0,P|364:224|348:240,3,50
296,280,41600,1,0,0:0:0:0:
256,300,41840,1,0,0:0:0:0:
212,300,42080,1,0,0:0:0:0:
172,280,42320,6,0,P|144:236|112:144,1,150,2|0,0:0|0:0,0:0:0:0:
192,104,43520,2,0,P|244:116|288:104,1,100
364,152,44480,1,0,0:0:0:0:
388,188,44720,1,0,0:0:0:0:
400,232,44960,2,0,P|392:284|336:364,2,150,0|0|2,0:0|0:0|0:0,0:0:0:0:
312,220,46880,5,0,0:0:0:0:
268,208,47120,1,0,0:0:0:0:
224,216,47360,1,0,0:0:0:0:
148,264,47840,1,0,0:0:0:0:
108,244,48080,2,0,P|88:192|80:96,1,150,2|0,0:0|0:0,0:0:0:0:
304,84,50000,6,0,L|404:84,1,100
420,172,50960,1,0,0:0:0:0:
424,260,51440,1,0,0:0:0:0:
348,308,51920,2,0,L|248:308,1,100
160,308,52880,2,0,P|100:292|72:268,2,100,0|0|4,0:0|0:0|0:0,0:0:0:0:
148,220,54320,5,0,0:0:0:0:
196,144,54800,1,0,0:0:0:0:
268,88,55280,1,0,0:0:0:0:
312,80,55520,1,0,0:0:0:0:
356,88,55760,2,0,P|396:120|416:164,1,100
328,172,56720,2,0,P|320:224|328:272,1,100
244,304,57680,6,0,L|144:304,1,100,4|0,0:0|0:0,0:0:0:0:
76,244,58640,2,0,P|52:196|56:152,1,100
92,124,59360,1,0,0:0:0:0:
136,132,59600,2,0,B|180:160|280:160|332:132,1,200
372,112,60800,1,0,0:0:0:0:
408,140,61040,2,0,P|436:184|428:232,1,100,0|4,0:0|0:0,0:0:0:0:
348,272,62000,6,0,P|296:288|152:272,1,200
120,188,63440,2,0,P|124:156|160:100,3,100
256,196,65360,6,0,P|328:216|400:200,1,150.000005722046,4|0,0:0|0:0,0:0:0:0:
468,192,66080,2,0,B|448:264|488:264|472:340,1,150.000005722046
404,344,66800,1,0,0:0:0:0:
276,296,67280,2,0,P|200:280|128:296,1,150.000005722046,4|0,0:0|0:0,0:0:0:0:
68,272,68000,2,0,P|48:200|64:128,1,150.000005722046
124,96,68720,1,0,0:0:0:0:
248,152,69200,6,0,L|400:152,1,150.000005722046,4|0,0:0|0:0,0:0:0:0:
444,200,69920,1,0,0:0:0:0:
472,260,70160,2,0,L|320:260,1,150.000005722046
188,248,71120,2,0,P|152:188|148:160,1,75.0000028610231,4|0,0:0|0:0,0:0:0:0:
212,160,71600,2,0,P|224:108|252:76,1,75.0000028610231
296,124,72080,2,0,P|348:100|432:128,1,150.000005722046
352,240,73040,6,0,L|288:280,1,75.0000028610231,4|0,0:0|0:0,0:0:0:0:
232,304,73520,1,0,0:0:0:0:
108,252,74000,2,0,L|172:208,1,75.0000028610231
224,172,74480,1,0,0:0:0:0:
328,84,74960,6,0,P|392:116|428:184,3,150.000005722046,4|0|0|0,0:0|0:0|0:0|0:0,0:0:0:0:
328,276,76880,5,4,0:0:0:0:
264,300,77120,2,0,P|204:308|168:296,1,75.0000028610231
128,276,77600,2,0,P|100:236|96:196,1,75.0000028610231
92,144,78080,1,0,0:0:0:0:
92,144,78320,1,0,0:0:0:0:
220,192,78800,6,0,P|324:140|368:140,1,150.000005722046,4|0,0:0|0:0,0:0:0:0:
424,152,79520,2,0,P|456:216|436:292,1,150.000005722046
372,308,80240,2,0,P|257:288|221:263,1,150.000005722046,2|4,0:0|0:0,0:0:0:0:
256,192,88160,5,0,0:0:0:0:
224,160,88400,2,0,P|184:128|136:128,1,100,2|0,0:0|0:0,0:0:0:0:
64,180,89360,2,0,P|104:212|152:216,1,100
236,284,90320,2,0,L|248:332,2,50,2|0|0,0:0|0:0|0:0,0:0:0:0:
312,236,91280,2,0,L|356:260,2,50
224,212,92240,6,0,P|260:160|296:148,1,100,2|0,0:0|0:0,0:0:0:0:
348,76,93200,2,0,P|388:112|384:156,1,100
408,240,94160,1,2,0:0:0:0:
388,280,94400,1,0,0:0:0:0:
352,304,94640,1,0,0:0:0:0:
268,268,95120,1,0,0:0:0:0:
268,224,95360,1,0,0:0:0:0:
296,188,95600,1,0,0:0:0:0:
268,268,96080,6,0,P|232:304|184:320,1,100,2|0,0:0|0:0,0:0:0:0:
180,228,97040,2,0,P|128:240|100:276,1,100
48,204,98000,2,0,P|48:156|68:108,1,100,2|0,0:0|0:0,0:0:0:0:
96,72,98720,1,0,0:0:0:0:
128,40,98960,2,0,P|164:8|216:4,1,100
256,24,99680,1,2,0:0:0:0:
276,288,100160,2,0,B|297:219|367:264|443:139|345:67|283:121|283:121|273:142|259:142|245:142|234:121|234:121|185:67|67:125|130:261|214:219|234:278,1,650
360,340,103760,6,0,P|444:336|476:352,1,100,2|0,0:0|0:0,0:0:0:0:
468,252,104720,2,0,P|508:276|520:288,2,50
380,240,105680,2,0,P|332:260|284:252,1,100,2|0,0:0|0:0,0:0:0:0:
244,236,106400,1,0,0:0:0:0:
200,220,106640,2,0,P|148:212|104:228,1,100
60,148,107600,6,0,P|108:136|152:112,1,100,2|0,0:0|0:0,0:0:0:0:
192,92,108320,1,0,0:0:0:0:
236,76,108560,1,0,0:0:0:0:
320,104,109040,2,0,P|368:120|404:156,1,100,0|2,0:0|0:0,0:0:0:0:
340,220,110000,2,0,P|328:268|332:284,2,50
248,224,110960,1,0,0:0:0:0:
244,312,111440,6,0,P|188:284|168:252,1,100,2|0,0:0|0:0,0:0:0:0:
88,208,112400,2,0,L|52:244,2,50
168,164,113360,2,0,P|216:152|252:116,1,100,2|0,0:0|0:0,0:0:0:0:
288,88,114080,1,0,0:0:0:0:
324,116,114320,2,0,P|356:156|404:168,1,100
368,252,115280,6,0,P|332:288|284:304,1,100,2|0,0:0|0:0,0:0:0:0:
240,304,116000,2,0,P|200:268|156:264,1,100
112,268,116720,2,0,P|76:232|64:184,1,100,0|2,0:0|0:0,0:0:0:0:
156,188,117680,2,0,P|224:168|260:180,1,100
348,328,119120,6,0,P|396:296|448:288,1,100,2|0,0:0|0:0,0:0:0:0:
392,208,120080,2,0,P|352:168|308:156,1,100
364,84,121040,2,0,P|400:60|456:48,1,100,2|0,0:0|0:0,0:0:0:0:
440,136,122000,2,0,L|460:184,2,50
360,176,122960,6,0,P|324:216|284:236,1,100,2|0,0:0|0:0,0:0:0:0:
196,264,123920,2,0,P|160:304|116:320,1,100
32,288,124880,2,0,P|60:248|108:232,1,100,2|0,0:0|0:0,0:0:0:0:
180,176,125840,2,0,P|212:136|260:128,1,100
260,216,126800,5,2,0:0:0:0:
292,248,127040,1,0,0:0:0:0:
332,268,127280,1,0,0:0:0:0:
384,340,127760,2,0,P|412:304|420:252,1,100
412,160,128720,2,0,B|368:136|216:128|116:160,1,300,2|0,0:0|0:0,0:0:0:0:
148,244,130640,6,0,P|196:232|248:228,1,100,2|0,0:0|0:0,0:0:0:0:
336,228,131600,2,0,P|384:232|436:244,1,100
376,316,132560,2,0,B|324:332|228:304|228:304|176:320,1,200,2|0,0:0|0:0,0:0:0:0:
108,264,134000,1,0,0:0:0:0:
160,188,134480,6,0,L|200:96,1,100,2|0,0:0|0:0,0:0:0:0:
260,164,135440,2,0,L|316:80,1,100,2|0,0:0|0:0,0:0:0:0:
364,156,136400,2,0,L|440:92,1,100,2|0,0:0|0:0,0:0:0:0:
468,176,137360,2,0,L|492:220,2,50,2|0|0,0:0|0:0|0:0,0:0:0:0:
400,236,138320,6,0,P|344:264|304:268,1,100,2|0,0:0|0:0,0:0:0:0:
264,272,139040,1,0,0:0:0:0:
220,272,139280,2,0,P|176:300|128:308,1,100,2|0,0:0|0:0,0:0:0:0:
132,220,140240,2,0,P|132:168|144:120,2,100,2|0|2,0:0|0:0|0:0,0:0:0:0:
164,252,141440,1,0,0:0:0:0:
208,264,141680,1,0,0:0:0:0:
256,340,142160,6,0,L|360:336,1,100,2|0,0:0|0:0,0:0:0:0:
400,332,142880,2,0,P|432:316|444:296,1,50,2|0,0:0|0:0,0:0:0:0:
468,272,143360,2,0,P|484:244|484:212,1,50
496,136,144080,2,0,P|444:144|392:220,1,150,2|0,0:0|0:0,0:0:0:0:
356,248,145040,1,2,0:0:0:0:
312,264,145280,1,0,0:0:0:0:
268,248,145520,1,0,0:0:0:0:
312,168,146000,6,0,P|328:124|368:92,1,100,2|0,0:0|0:0,0:0:0:0:
400,176,146960,2,0,P|416:224|400:272,1,100,2|0,0:0|0:0,0:0:0:0:
324,312,147920,5,2,0:0:0:0:
280,320,148160,1,0,0:0:0:0:
236,320,148400,1,0,0:0:0:0:
192,308,148640,1,0,0:0:0:0:
156,280,148880,2,0,P|116:240|100:200,1,100,2|2,0:0|0:0,0:0:0:0:
12,200,149840,6,0,P|28:152|72:120,1,100
256,192,165200,6,0,P|316:176|356:176,1,100
428,228,166160,1,2,0:0:0:0:
292,344,167120,6,0,P|232:348|192:340,1,100
112,304,168080,1,2,0:0:0:0:
160,132,169040,6,0,P|212:92|252:88,2,100,0|0|2,0:0|0:0|0:0,0:0:0:0:
288,256,170960,2,0,P|344:240|376:212,2,100,0|0|2,0:0|0:0|0:0,0:0:0:0:
112,220,172880,6,0,P|104:172|112:120,1,100
172,56,173840,1,2,0:0:0:0:
196,236,174800,2,0,P|224:288|256:312,1,100
344,328,175760,1,2,0:0:0:0:
452,184,176720,5,0,0:0:0:0:
452,184,176960,1,2,0:0:0:0:
388,120,177440,1,0,0:0:0:0:
388,120,177680,1,2,0:0:0:0:
320,176,178160,1,0,0:0:0:0:
320,176,178400,1,2,0:0:0:0:
252,236,178880,6,0,B|204:256|204:256|152:228|88:228|56:252|56:252|16:232,1,250,0|2,0:0|0:0,0:0:0:0:
60,152,180560,6,0,P|88:104|92:60,1,100,2|0,0:0|0:0,0:0:0:0:
128,36,181280,1,0,0:0:0:0:
212,64,181760,2,0,P|248:76|264:88,1,50
344,112,182480,2,0,P|364:160|364:208,1,100,2|0,0:0|0:0,0:0:0:0:
344,248,183200,1,0,0:0:0:0:
372,332,183680,2,0,P|340:336|320:336,1,50
240,296,184400,5,2,0:0:0:0:
204,212,184880,1,0,0:0:0:0:
204,212,185120,1,0,0:0:0:0:
292,220,185600,2,0,P|328:240|344:244,1,50
348,152,186320,1,2,0:0:0:0:
312,68,186800,1,0,0:0:0:0:
312,68,187040,1,0,0:0:0:0:
260,140,187520,2,0,L|208:140,1,50
140,196,188240,6,0,P|108:240|24:288,1,150,2|0,0:0|0:0,0:0:0:0:
92,348,189440,1,0,0:0:0:0:
92,348,189680,1,0,0:0:0:0:
152,284,190160,2,0,P|200:280|288:232,1,150,2|0,0:0|0:0,0:0:0:0:
344,160,191360,1,0,0:0:0:0:
344,160,191600,1,0,0:0:0:0:
408,224,192080,6,0,P|384:268|380:272,1,50,2|0,0:0|0:0,0:0:0:0:
340,276,192560,2,0,P|316:320|308:328,1,50
272,328,193040,2,0,P|228:352|132:344,1,150,0|2,0:0|0:0,0:0:0:0:
132,252,194240,1,0,0:0:0:0:
132,208,194480,1,2,0:0:0:0:
112,168,194720,1,0,0:0:0:0:
72,144,194960,2,0,P|72:96|104:56,1,100,2|2,0:0|0:0,0:0:0:0:
192,72,195920,5,4,0:0:0:0:
256,192,198320,6,0,P|336:184|396:216,1,150.000005722046,2|0,0:0|0:0,0:0:0:0:
416,280,199040,1,0,0:0:0:0:
380,336,199280,1,0,0:0:0:0:
180,264,199760,1,0,0:0:0:0:
180,264,200000,6,0,P|136:204|68:176,1,150.000005722046,2|0,0:0|0:0,0:0:0:0:
64,108,200720,2,0,P|124:60|196:56,1,150.000005722046,2|0,0:0|0:0,0:0:0:0:
312,124,201680,1,2,0:0:0:0:
372,244,202160,2,0,P|296:252|240:300,1,150.000005722046,2|0,0:0|0:0,0:0:0:0:
176,308,202880,2,0,P|132:308|104:296,1,75.0000028610231,0|2,0:0|0:0,0:0:0:0:
120,160,203600,6,0,P|140:84|208:40,1,150.000005722046,0|2,0:0|0:0,0:0:0:0:
320,88,204560,1,0,0:0:0:0:
352,220,205040,1,0,0:0:0:0:
352,220,205520,1,2,0:0:0:0:
256,316,206000,6,0,L|180:332,2,75.0000028610231
132,256,206960,2,0,P|112:200|112:176,1,75.0000028610231,2|0,0:0|0:0,0:0:0:0:
104,116,207440,2,0,B|204:56|296:56|316:80,1,225.000008583069,0|2,0:0|0:0,0:0:0:0:
344,140,208400,1,0,0:0:0:0:
388,268,208880,2,0,P|400:316|392:344,2,75.0000028610231,0|2|2,0:0|0:0|0:0,0:0:0:0:
260,312,209840,6,0,P|192:316|112:300,1,150.000005722046,2|0,0:0|0:0,0:0:0:0:
144,160,210800,2,0,P|148:232|112:300,1,150.000005722046,0|2,0:0|0:0,0:0:0:0:
240,260,211760,2,0,P|312:260|340:244,1,75.0000028610231,2|0,0:0|0:0,0:0:0:0:
380,252,212240,2,0,P|436:236|456:216,1,75.0000028610231
484,168,212720,1,2,0:0:0:0:
400,64,213200,1,2,0:0:0:0:
316,172,213680,6,0,P|244:200|168:200,1,150.000005722046,6|0,0:0|0:0,0:0:0:0:
108,228,214400,1,0,0:0:0:0:
40,240,214640,2,0,P|16:284|12:312,2,75.0000028610231
204,344,215600,1,2,0:0:0:0:
272,336,215840,1,0,0:0:0:0:
328,296,216080,2,0,P|372:272|388:244,2,75.0000028610231,0|0|2,0:0|0:0|0:0,0:0:0:0:
292,164,217040,5,0,0:0:0:0:
208,60,217520,2,0,P|152:60|132:72,1,75.0000028610231,6|0,0:0|0:0,0:0:0:0:
124,136,218000,2,0,P|88:160|72:188,1,75.0000028610231
48,252,218480,1,2,0:0:0:0:
124,344,218960,5,0,0:0:0:0:
192,336,219200,2,0,P|256:296|328:300,1,150.000005722046,2|0,0:0|0:0,0:0:0:0:
396,292,219920,2,0,P|436:232|440:156,1,150.000005722046,2|0,0:0|0:0,0:0:0:0:
344,60,220880,1,2,0:0:0:0:
300,188,221360,6,0,P|252:208|216:212,1,75.0000028610231,6|0,0:0|0:0,0:0:0:0:
168,180,221840,2,0,P|120:164|96:168,1,75.0000028610231
32,192,222320,1,0,0:0:0:0:
116,300,222800,1,0,0:0:0:0:
116,300,223040,6,0,P|160:284|192:288,1,75.0000028610231,0|2,0:0|0:0,0:0:0:0:
248,320,223520,2,0,P|288:328|324:320,1,75.0000028610231
384,296,224000,1,2,0:0:0:0:
384,296,224240,1,0,0:0:0:0:
420,168,224720,2,0,P|384:104|244:72,1,225.000008583069
288,200,225920,1,2,0:0:0:0:
288,200,226160,1,2,0:0:0:0:
124,320,226880,5,0,0:0:0:0:
80,268,227120,2,0,P|64:204|64:164,1,75.0000028610231,2|0,0:0|0:0,0:0:0:0:
132,192,227600,2,0,P|152:152|160:96,1,75.0000028610231,2|0,0:0|0:0,0:0:0:0:
216,88,228080,2,0,P|280:60|424:100,1,225.000008583069,2|6,0:0|0:0,0:0:0:0:
256,192,229040,12,0,232400,0:0:0:0:
256,192,232880,12,4,236240,0:0:0:0:
444,192,236720,6,0,P|408:232|272:280,1,200,2|0,0:0|0:0,0:0:0:0:
184,276,238160,1,0,0:0:0:0:
96,280,238640,2,0,B|68:208|128:156|104:84,1,200,2|0,0:0|0:0,0:0:0:0:
192,76,240080,2,0,P|252:60|288:72,1,100,0|2,0:0|0:0,0:0:0:0:
352,140,241040,2,0,B|392:188|328:208|360:232,1,100
280,316,242000,5,0,0:0:0:0:
168,320,242480,2,0,P|132:280|312:108,1,350,2|10,0:0|0:0,0:0:0:0:
300,108,244400,1,0,0:0:0:0:
360,140,244880,1,0,0:0:0:0:
384,204,245360,1,2,0:0:0:0:
348,260,245840,1,0,0:0:0:0:
288,288,246320,2,0,L|180:332,1,112.500004291535,2|0,0:0|0:0,0:0:0:0:
132,288,247520,1,2,0:0:0:0:
132,288,247760,5,2,0:0:0:0:
132,288,248000,1,0,0:0:0:0:
132,288,248240,2,0,P|104:200|120:108,1,187.500007152558,2|0,0:0|0:0,0:0:0:0:
180,84,249920,2,0,L|216:72,1,37.5000014305115,2|0,0:0|0:0,0:0:0:0:
276,100,250640,1,0,0:0:0:0:
300,124,250880,1,0,0:0:0:0:
312,156,251120,1,2,0:0:0:0:
372,188,251600,5,2,0:0:0:0:
396,252,252080,2,0,P|312:296|48:248,1,375.000014305115,2|0,0:0|0:0,0:0:0:0:
56,180,254960,1,0,0:0:0:0:
100,128,255440,2,0,P|180:80|368:132,1,300.000011444092,2|0,0:0|0:0,0:0:0:0:
324,192,257840,2,0,P|224:148|128:200,1,225.000008583069,2|0,0:0|0:0,0:0:0:0:
108,224,259520,1,0,0:0:0:0:
92,256,259760,1,0,0:0:0:0:
128,312,260240,6,0,P|192:312|224:320,1,75.0000028610231,0|2,0:0|0:0,0:0:0:0:
268,300,261200,1,0,0:0:0:0:
268,300,261440,1,0,0:0:0:0:
328,264,261920,2,0,P|368:224|380:192,1,75.0000028610231
388,176,262640,1,2,0:0:0:0:
376,144,262880,2,4,L|384:100,2,37.5000014305115
