osu file format v12

[General]
AudioFilename: 96.mp3
AudioLeadIn: 0
PreviewTime: 65080
Countdown: 0
SampleSet: Soft
StackLeniency: 0.7
Mode: 0
LetterboxInBreaks: 1
CountdownOffset: 3

[Editor]
Bookmarks: 3880,19280,34640,57680,65360,88160,99920,100160,103280,103760,118880,119120,134240,134440,152720,165200,180320,180560,213560,213680,236000,236240,263360
DistanceSpacing: 1.2
BeatDivisor: 4
GridSize: 4

[Metadata]
Title:Interviewer
TitleUnicode:インタビュア
Artist:96Neko
ArtistUnicode:96猫
Creator:- Miomio Chii -
Version:Hard Collab
Source:KuwagataP
Tags:Vocaloid2 Vocaloid Megurine Luka MmC happy623
BeatmapID:275712
BeatmapSetID:96961

[Difficulty]
HPDrainRate:7
CircleSize:4
OverallDifficulty:6
ApproachRate:7
SliderMultiplier:1.6
SliderTickRate:1

[Events]
//Background and Video events
0,0,"29932898.png",0,0
//Break Periods
2,81880,87260
2,152920,164300
2,196120,197180
//Storyboard Layer 0 (Background)
//Storyboard Layer 1 (Fail)
//Storyboard Layer 2 (Pass)
//Storyboard Layer 3 (Foreground)
Sprite,Foreground,Centre,"sb2.png",320,240 F,0,19160,19280,0,1 R,0,19160,28880,-0.379871,0.0990969 M,0,19160,34520,170,190,175,210 S,0,19160,117200,0.6283872 F,0,19280,34400,1 R,0,28880,30800,0.0990969,0.1767575 R,0,30800,34520,0.1767575,-0.08258059 F,0,34400,34520,1,0.009032288 R,0,34520,65360,-0.08258059,0.08258085 F,0,34520,88280,0.009032288 M,0,34520,88400,175,210 R,0,65360,72560,0.08258085,-0.0990967 R,0,72560,88400,-0.0990967 F,0,88280,88400,0.009032288,1 F,0,88400,99800,1 R,0,88400,99920,-0.0990967,0.04954863 M,0,88400,118760,175,210,181,216 F,0,99800,99920,1,0 F,0,99920,103760,0,0.008333325 R,0,99920,103760,0.04954863 F,0,103760,103880,0.008333325,1 R,0,103760,118880,0.04954863,-0.2147095 F,0,103880,118760,1 S,0,117200,117440,0.6283872,0.6531616 S,0,117440,117680,0.6531616,0.5623228 S,0,117680,117920,0.5623228,0.6118711 S,0,117920,118040,0.6118711,0.5540646 S,0,118040,118160,0.5540646,0.6118709 S,0,118160,134480,0.6118709 F,0,118760,118880,1,0 M,0,118760,134480,181,216 F,0,118880,,0 F,0,118880,134360,0 R,0,118880,134480,-0.2147095,-0.4624512 F,0,134360,134480,0,1 S,0,134480,134600,0.6118709,0.6614193 M,0,134480,152720,181,216,186,211 F,0,134480,152720,1 R,0,134480,152840,-0.4624512,0.1486456 S,0,134600,134720,0.6614193,0.6036129 S,2,134720,180440,0.6036129,0.5623228 F,0,152720,152840,1,0 M,0,152720,180320,186,211 F,0,152840,180320,0 R,0,152840,180320,0.1486456,0.3963879 F,0,180320,180440,0,1 M,0,180320,213440,186,211,195,219 R,0,180320,213560,0.3963879,-0.0990958 S,0,180440,180560,0.5623228,0.6036129 F,0,180440,195440,1,0.9886364 S,0,180560,198320,0.6036129 F,0,195440,195800,0.9886364,0.8727508 F,0,195800,195920,0.8727508,0.5340793 F,0,195920,198320,0.5340793,0.80506 F,0,198320,198440,0.80506,1 S,0,198320,198440,0.6036129,0.6614195 S,0,198440,198560,0.6614195,0.6036129 F,0,198440,213440,1,0.975 S,0,198560,202160,0.6036129 S,0,202160,202280,0.6036129,0.6283871 S,0,202280,202400,0.6283871,0.6036129 S,0,202400,205880,0.6036129 S,0,205880,206000,0.6036129,0.6118709 S,0,206000,206001,0.6118709,0.6200601 S,0,206001,206120,0.6200601,0.6036129 S,0,206120,209720,0.6036129 S,0,209720,209840,0.6036129,0.620129 S,0,209840,209851,0.620129,0.6036129 S,0,209851,209960,0.6036129 S,0,209960,212720,0.6036129 S,0,212720,212840,0.6036129,0.6531614 S,0,212840,212960,0.6531614,0.6036131 S,0,212960,213200,0.6036131,0.6531614 S,0,213200,213320,0.6531614,0.6036129 S,0,213320,262760,0.6036129 F,0,213440,213560,0.975,0 M,0,213440,236120,195,219 F,0,213560,236120,0 R,0,213560,236120,-0.0990958,-0.3468375 F,0,236120,236240,0,1 M,0,236120,263240,195,219,209,212 R,0,236120,263360,-0.3468375,0.06606592 F,0,236240,263240,1 S,0,262760,262880,0.6036129,0.6696774 S,0,262880,263000,0.6696774,0.6036129 S,0,263000,263120,0.6036129,0.6614195 S,0,263120,263240,0.6614195,0.6036129 F,0,263240,263360,1,0 S,0,263240,263360,0.6036129,0.6449034
Sprite,Foreground,Centre,"sb1.png",320,240 R,0,33980,57690,-0.165236,0.1847368 R,0,34002,,0.2312256 R,0,34002,57690,0.2312256,0.1847368 F,0,34520,34640,0,1 M,2,34640,35600,495,240,495,244 S,0,34640,65240,0.5623227 F,0,34640,81680,1,0.95 M,0,35600,67280,495,244,496,250 R,0,42320,,0.5852709 R,0,42320,57690,0.5852709,0.1847368 R,0,57690,81680,0.1847368,-0.2880186 R,0,57690,81680,0.1847368,-0.2880186 R,0,57690,81680,0.1847368,-0.2880186 R,0,57690,81680,0.1847368,-0.2880186 R,0,57690,81680,0.1847368,-0.2549858 S,0,65240,65360,0.5623227,0.603613 R,0,65360,,3.402879 S,0,65360,65480,0.603613,0.5623227 R,0,65360,81680,3.402879,-0.2880186 S,0,65480,213560,0.5623227 M,0,67280,81680,496,250,495,237 R,0,81680,,-0.2880186 F,0,81680,81800,0.95,0 R,0,81680,100160,-0.2549858,-0.2555059 F,0,81800,100040,0 F,0,100040,100160,0,1 F,0,100160,103280,1,0.9833333 R,0,100160,103280,-0.2555059,0.2289509 F,0,103280,103400,0.9833333,0 R,0,103280,119120,0.2289509,-0.2793133 F,0,103400,,0 F,0,103400,,0 F,0,103400,,0 F,0,103400,,0 F,0,119120,122960,1 R,0,119120,126800,-0.2793133,0.214812 F,0,122960,,1 F,0,122960,,1 F,0,122960,,1 F,0,122960,,1 F,0,122960,,1 F,0,122960,,1 F,0,122960,,1 F,0,122960,123080,1,0 F,0,123200,126800,1,0.9844813 F,0,126800,126920,0.9844813,0 R,0,126800,134240,0.214812,-0.2907618 F,0,126920,127040,0,0.9834467 F,0,127040,134000,0.9834467,1 F,0,134000,134233,1,0.9524395 F,0,134233,,0.9524395 F,0,134233,134240,0.9524395,0.2929752 F,0,134233,134360,0.9524395,0 F,0,134240,134360,0.2929752,0 R,0,134240,165200,-0.2907618,0.2386114 F,0,134360,165080,0,0.02988136 F,0,165080,165200,0.02988136,1 R,0,165200,172880,0.2386114,-0.2270069 F,0,165200,180080,1 R,0,172880,180080,-0.2270069,0.1189269 F,0,180080,180200,1,0 F,0,180080,180200,0.008000016,0 R,0,180080,213680,0.1189269,-0.1936816 F,0,180200,213560,0,0.0004000009 F,0,213560,213680,0.0004000009,1 S,0,213560,213680,0.5623227,0.611871 S,0,213680,213800,0.611871,0.5623227 R,0,213680,220880,-0.1936816,0.06965391 F,0,213680,236000,1,0.9502873 S,0,213800,217400,0.5623227 S,0,217400,217520,0.5623227,0.5705807 S,0,217520,217640,0.5705807,0.5623227 S,0,217640,221240,0.5623227 R,0,220880,226640,0.06965391,-0.2911357 S,0,221240,221360,0.5623227,0.5705807 S,0,221360,221364,0.5705807,0.5623227 S,0,221364,221480,0.5623227 S,0,221480,225080,0.5623227 S,0,225080,225200,0.5623227,0.5788389 S,0,225200,225320,0.5788389,0.5623227 S,0,225320,228440,0.5623227 R,0,226640,236000,-0.2911357,-0.01651643 S,0,228440,228560,0.5623227,0.5705807 S,0,228560,,0.5705807 S,0,228560,228800,0.5705807,0.5650753 S,0,228800,229040,0.5650753,0.5623227 F,0,236000,236120,0.9502873,0
//Storyboard Sound Samples
//Background Colour Transformations
3,100,163,162,255

[TimingPoints]
3920,480,4,3,0,50,1,0
19400,-100,4,2,1,50,0,0
20240,-100,4,3,0,50,0,0
20360,-100,4,2,1,50,0,0
21200,-100,4,3,0,50,0,0
21320,-100,4,2,1,50,0,0
22160,-100,4,3,0,50,0,0
22280,-100,4,2,1,50,0,0
22640,-100,4,3,0,50,0,0
22760,-100,4,2,1,50,0,0
23120,-100,4,3,0,50,0,0
23360,-100,4,2,1,50,0,0
23600,-100,4,3,0,50,0,0
23720,-100,4,2,1,50,0,0
24080,-100,4,3,0,50,0,0
24320,-100,4,2,1,50,0,0
25040,-100,4,3,0,50,0,0
25400,-100,4,2,1,50,0,0
25520,-100,4,3,0,50,0,0
25760,-100,4,2,1,50,0,0
26000,-100,4,3,0,50,0,0
26120,-100,4,2,1,50,0,0
26480,-100,4,3,0,50,0,0
26600,-100,4,2,1,50,0,0
26960,-100,4,3,0,50,0,0
27080,-100,4,2,1,50,0,0
27920,-100,4,3,0,50,0,0
28040,-100,4,2,1,50,0,0
28880,-100,4,3,0,50,0,0
29000,-100,4,2,1,50,0,0
29840,-100,4,3,0,50,0,0
29960,-100,4,2,1,50,0,0
30320,-100,4,3,0,50,0,0
30440,-100,4,2,1,50,0,0
30800,-100,4,3,0,50,0,0
30920,-100,4,2,1,50,0,0
31040,-100,4,1,1,50,0,0
31760,-100,4,3,1,50,0,0
31880,-100,4,2,1,50,0,0
32480,-100,4,1,1,50,0,0
32720,-100,4,3,0,50,0,0
32840,-100,4,2,1,50,0,0
33680,-100,4,3,0,50,0,0
33800,-100,4,2,1,50,0,0
34640,-100,4,3,0,50,0,0
34760,-100,4,2,1,50,0,0
35120,-100,4,3,0,50,0,0
35480,-100,4,2,1,50,0,0
36080,-100,4,3,0,50,0,0
36440,-100,4,2,1,50,0,0
37040,-100,4,3,0,50,0,0
37160,-100,4,2,1,50,0,0
38000,-100,4,3,0,50,0,0
38120,-100,4,2,1,50,0,0
38480,-100,4,3,0,50,0,0
38600,-100,4,2,1,50,0,0
38960,-100,4,3,0,50,0,0
39320,-100,4,2,1,50,0,0
39920,-100,4,3,0,50,0,0
40040,-100,4,2,1,50,0,0
40880,-100,4,3,0,50,0,0
41000,-100,4,2,1,50,0,0
41840,-100,4,3,0,50,0,0
42200,-100,4,2,1,50,0,0
42320,-100,4,3,0,50,0,0
42440,-100,4,2,1,50,0,0
42800,-100,4,3,0,50,0,0
43160,-100,4,2,1,50,0,0
43760,-100,4,3,0,50,0,0
43880,-100,4,2,1,50,0,0
44240,-100,4,3,0,50,0,0
44360,-100,4,2,1,50,0,0
44720,-100,4,3,0,50,0,0
45080,-100,4,2,1,50,0,0
45440,-100,4,3,0,50,0,0
45560,-100,4,2,1,50,0,0
45920,-100,4,3,0,50,0,0
46040,-100,4,2,1,50,0,0
46160,-100,4,3,0,50,0,0
46280,-100,4,2,1,50,0,0
46400,-100,4,3,0,50,0,0
46520,-100,4,2,1,50,0,0
46880,-100,4,3,0,50,0,0
49160,-100,4,2,1,50,0,0
52640,-100,4,3,0,50,0,0
52760,-100,4,2,1,50,0,0
53120,-100,4,3,0,50,0,0
53240,-100,4,2,1,50,0,0
53600,-100,4,3,0,50,0,0
53960,-100,4,2,1,50,0,0
55520,-100,4,2,2,50,0,0
55640,-100,4,2,1,50,0,0
56000,-100,4,3,0,50,0,0
56120,-100,4,2,1,50,0,0
56240,-100,4,3,0,50,0,0
56840,-100,4,2,1,50,0,0
57680,-100,4,3,0,50,0,0
58400,-100,4,2,1,50,0,0
58640,-100,4,3,0,50,0,0
59000,-100,4,2,1,50,0,0
59120,-100,4,3,0,50,0,0
59240,-100,4,2,1,50,0,0
59360,-100,4,3,0,50,0,0
59480,-100,4,2,1,50,0,0
60320,-100,4,3,0,50,0,0
60440,-100,4,2,1,50,0,0
60800,-100,4,3,0,50,0,0
60920,-100,4,2,1,50,0,0
61520,-100,4,3,0,50,0,0
62600,-100,4,2,1,50,0,0
63440,-100,4,3,0,50,0,0
64280,-100,4,2,1,50,0,0
64640,-100,4,3,0,50,0,0
65360,-66.6666666666667,4,2,1,80,0,1
72320,-66.6666666666667,4,3,0,80,0,1
72680,-66.6666666666667,4,2,1,80,0,1
76160,-66.6666666666667,4,3,0,80,0,1
76520,-66.6666666666667,4,2,1,80,0,1
76880,-66.6666666666667,4,3,0,80,0,1
77000,-66.6666666666667,4,2,1,80,0,1
77360,-66.6666666666667,4,3,0,80,0,1
77480,-66.6666666666667,4,2,1,80,0,1
77840,-66.6666666666667,4,3,0,80,0,1
78200,-66.6666666666667,4,2,1,80,0,1
80720,-100,4,2,1,55,0,0
81680,-100,4,2,1,15,0,0
88160,-100,4,3,1,55,0,0
88520,-100,4,2,1,55,0,0
89120,-100,4,3,1,55,0,0
89480,-100,4,2,1,55,0,0
90320,-100,4,3,1,55,0,0
90440,-100,4,2,1,55,0,0
91280,-100,4,3,1,55,0,0
91400,-100,4,2,1,55,0,0
91760,-100,4,3,1,55,0,0
91880,-100,4,2,1,55,0,0
92240,-100,4,3,1,55,0,0
92360,-100,4,2,1,55,0,0
93200,-100,4,3,1,55,0,0
93320,-100,4,2,1,55,0,0
93920,-100,4,3,1,55,0,0
94280,-100,4,2,1,55,0,0
95120,-100,4,3,1,55,0,0
95840,-100,4,2,1,55,0,0
96080,-100,4,3,1,55,0,0
96200,-100,4,2,1,55,0,0
97040,-100,4,3,1,55,0,0
97160,-100,4,2,1,55,0,0
98000,-100,4,3,1,55,0,0
98120,-100,4,2,1,55,0,0
98960,-100,4,3,1,55,0,0
99080,-100,4,2,1,55,0,0
100160,-200,4,1,1,55,0,0
103760,-100,4,2,1,55,0,0
104240,-100,4,3,1,55,0,0
104360,-100,4,2,1,55,0,0
105200,-100,4,3,1,55,0,0
105320,-100,4,2,1,55,0,0
106160,-100,4,3,1,55,0,0
106280,-100,4,2,1,55,0,0
107120,-100,4,3,1,55,0,0
107240,-100,4,2,1,55,0,0
107600,-100,4,3,1,55,0,0
107720,-100,4,2,1,55,0,0
108080,-100,4,3,1,55,0,0
108200,-100,4,2,1,55,0,0
109040,-100,4,3,1,55,0,0
109160,-100,4,2,1,55,0,0
110000,-100,4,3,1,55,0,0
110120,-100,4,2,1,55,0,0
110960,-100,4,3,1,55,0,0
111080,-100,4,2,1,55,0,0
111440,-100,4,3,1,55,0,0
111560,-100,4,2,1,55,0,0
111920,-100,4,3,1,55,0,0
112040,-100,4,2,1,55,0,0
112400,-100,4,3,1,55,0,0
112520,-100,4,2,1,55,0,0
112880,-100,4,3,1,55,0,0
113240,-100,4,2,1,55,0,0
113840,-100,4,3,1,55,0,0
113960,-100,4,2,1,55,0,0
115280,-100,4,1,1,55,0,0
115520,-100,4,2,1,55,0,0
116000,-100,4,3,1,55,0,0
116360,-100,4,2,1,55,0,0
117920,-100,4,1,1,55,0,0
118160,-100,4,2,1,45,0,0
119360,-100,4,1,1,45,0,0
119840,-100,4,2,1,45,0,0
120800,-100,4,3,1,45,0,0
121160,-100,4,2,1,46,0,0
123200,-100,4,1,1,45,0,0
123560,-100,4,2,1,45,0,0
126560,-100,4,3,1,55,0,0
126680,-100,4,2,1,55,0,0
127040,-100,4,1,1,55,0,0
127400,-100,4,2,1,55,0,0
128720,-100,4,3,1,55,0,0
128840,-100,4,2,1,55,0,0
130640,-100,4,3,1,55,0,0
130760,-100,4,2,1,55,0,0
131600,-100,4,3,1,55,0,0
131720,-100,4,2,1,55,0,0
134480,-66.6666666666667,4,2,1,80,0,1
149840,-100,4,2,1,60,0,0
152720,-100,4,2,1,20,0,0
152840,-100,4,2,1,60,0,0
165200,-200,4,2,1,40,0,0
180560,-100,4,2,1,50,0,0
191840,-100,4,2,1,50,0,0
192080,-100,4,2,1,40,0,0
192320,-100,4,2,1,30,0,0
192560,-100,4,2,1,20,0,0
193040,-100,4,2,1,30,0,0
193280,-100,4,2,1,50,0,0
193520,-100,4,2,1,70,0,0
193760,-100,4,2,1,90,0,0
194240,-100,4,3,1,75,0,0
194600,-100,4,3,1,60,0,0
195440,-100,4,3,1,70,0,0
195560,-100,4,2,1,70,0,0
195680,-100,4,3,1,80,0,0
195920,-100,4,2,1,75,0,0
198320,-66.6666666666667,4,2,1,80,0,1
213200,-100,4,2,1,65,0,0
213680,-100,4,2,1,65,0,1
236240,-133.333333333333,4,2,1,70,0,0
259760,-100,4,2,1,30,0,0
260000,-200,4,2,1,19,0,0
262880,-100,4,2,1,39,0,0
263120,-100,4,2,1,50,0,0
263360,-100,4,2,1,66,0,0

[Colours]
Combo1 : 255,255,0
Combo2 : 255,128,192
Combo3 : 255,128,255
Combo4 : 255,0,255
Combo5 : 255,0,128
Combo6 : 255,202,121

[HitObjects]
256,192,17360,12,0,19040,0:0:0:0:
424,280,19280,5,0,0:0:0:0:
424,112,19520,1,0,0:0:0:0:
328,232,19760,1,0,0:0:0:0:
328,160,20000,1,0,0:0:0:0:
224,192,20240,2,0,B|192:168|168:208|136:192,1,80
147,195,20720,1,0,0:0:0:0:
72,120,20960,6,0,P|48:200|80:272,1,160
76,267,21680,1,0,0:0:0:0:
76,267,21920,1,0,0:0:0:0:
224,272,22160,2,0,B|248:256|264:288|304:272,1,80
224,120,22640,2,0,B|248:136|264:104|304:128,1,80
301,126,23120,5,0,0:0:0:0:
304,272,23360,2,0,L|304:192,1,80
424,168,23840,2,0,B|344:208|376:256|304:272,1,160
306,270,24560,1,0,0:0:0:0:
288,200,24800,6,0,P|256:168|224:160,1,80
224,240,25280,1,0,0:0:0:0:
224,240,25520,1,0,0:0:0:0:
224,160,25760,2,0,B|256:128|208:120|240:80,1,80
368,88,26240,2,0,B|400:120|352:128|384:168,1,80
380,163,26720,1,0,0:0:0:0:
416,240,26960,6,0,P|384:264|344:272,1,80,0|0,0:0|0:0,0:0:0:0:
456,312,27440,2,0,P|424:336|384:344,1,80
344,272,27920,2,0,P|304:208|224:200,1,160
224,200,28640,6,0,B|200:232|168:184|152:200,1,80
104,136,29120,2,0,P|120:88|144:80,1,80
104,248,29600,2,0,P|120:296|144:304,1,80
225,199,30080,2,0,L|224:160,1,40
223,159,30320,2,0,P|224:120|232:80,1,80
384,112,30800,5,0,0:0:0:0:
328,160,31040,1,0,0:0:0:0:
352,232,31280,1,0,0:0:0:0:
432,232,31520,1,0,0:0:0:0:
448,160,31760,1,0,0:0:0:0:
384,112,32000,1,0,0:0:0:0:
328,160,32240,1,0,0:0:0:0:
352,232,32480,1,0,0:0:0:0:
432,232,32720,5,0,0:0:0:0:
448,160,32960,1,0,0:0:0:0:
392,176,33200,2,0,B|368:256|432:256|392:336,1,160,2|0,0:0|0:0,0:0:0:0:
336,288,33920,2,0,P|296:280|264:256,1,80,2|0,0:0|0:0,0:0:0:0:
168,288,34400,1,2,0:0:0:0:
72,264,34640,6,0,P|48:224|64:160,1,80
80,104,35120,1,0,0:0:0:0:
168,64,35360,2,0,B|184:112|163:155|163:155|136:176|136:176|120:208,1,160
208,240,36080,1,0,0:0:0:0:
272,176,36320,2,0,B|300:208|296:248|296:248|400:288,1,160
464,320,37040,1,0,0:0:0:0:
456,224,37280,2,0,L|368:192,1,80
276,78,37760,2,0,L|352:104,1,80
376,192,38240,1,0,0:0:0:0:
256,160,38480,5,0,0:0:0:0:
192,232,38720,1,0,0:0:0:0:
96,256,38960,1,0,0:0:0:0:
88,160,39200,2,0,B|64:120|64:120|128:96|120:16,1,160
24,32,39920,1,0,0:0:0:0:
120,32,40160,2,0,P|152:64|200:64,1,80
248,144,40640,2,0,P|216:168|196:202,1,80
366,331,41120,6,0,B|352:296|369:266|369:266|288:224,1,160
464,312,41840,1,0,0:0:0:0:
472,216,42080,1,0,0:0:0:0:
464,168,42200,1,0,0:0:0:0:
440,128,42320,2,0,L|376:72,1,80
304,136,42800,2,0,L|208:104,1,80
200,200,43280,2,0,L|104:216,1,80
152,304,43760,2,0,L|56:352,2,80
248,320,44480,1,0,0:0:0:0:
248,320,44720,1,0,0:0:0:0:
360,248,44960,6,0,P|352:176|320:152,1,80,0|0,0:0|0:0,0:0:0:0:
424,200,45440,2,0,P|380:176|324:176,1,80,0|0,0:0|0:0,0:0:0:0:
498,132,45920,2,0,P|408:136|344:176,1,160
256,168,46640,5,0,0:0:0:0:
296,256,46880,1,0,0:0:0:0:
112,296,47360,1,0,0:0:0:0:
120,200,47600,1,0,0:0:0:0:
32,232,47840,1,0,0:0:0:0:
104,56,48320,1,0,0:0:0:0:
200,56,48560,1,0,0:0:0:0:
144,136,48800,1,0,0:0:0:0:
264,288,49280,5,0,0:0:0:0:
280,296,49520,1,0,0:0:0:0:
296,304,49760,1,0,0:0:0:0:
312,312,50000,2,0,P|352:328|400:312,1,80
432,232,50480,2,0,P|392:216|344:232,1,80
264,192,50960,2,0,P|256:232|280:272,1,80
456,216,51440,2,0,P|464:176|440:136,1,80
256,104,51920,2,0,P|168:80|96:128,1,160
232,264,52640,2,0,L|208:320,1,40
344,232,53120,2,0,L|368:280,1,40
408,128,53600,2,0,L|464:136,2,40
336,64,54080,5,0,0:0:0:0:
240,64,54320,1,0,0:0:0:0:
160,112,54560,1,0,0:0:0:0:
120,200,54800,1,0,0:0:0:0:
128,296,55040,1,0,0:0:0:0:
200,360,55280,2,0,L|280:384,1,80
256,288,55760,6,0,L|368:256,1,80
264,200,56240,2,0,L|336:144,1,80
400,88,56720,1,0,0:0:0:0:
320,32,56960,1,0,0:0:0:0:
264,112,57200,1,0,0:0:0:0:
344,168,57440,1,0,0:0:0:0:
360,264,57680,6,0,L|408:344,1,80
110,332,58160,2,0,L|152:264,1,80
208,184,58640,1,0,0:0:0:0:
304,184,58880,1,0,0:0:0:0:
256,104,59120,1,0,0:0:0:0:
192,32,59360,2,0,P|160:56|144:104,1,80
320,32,59840,2,0,P|352:56|368:104,1,80
384,184,60320,6,0,L|408:232,1,40
256,248,60800,2,0,L|256:288,1,40
128,184,61280,2,0,L|104:232,1,40
128,184,61520,2,0,P|160:272|104:336,1,160
384,322,62480,2,0,P|352:272|384:184,1,160
448,256,63200,5,0,0:0:0:0:
464,272,63680,1,0,0:0:0:0:
312,256,63920,1,0,0:0:0:0:
360,136,64160,1,0,0:0:0:0:
224,160,64400,1,0,0:0:0:0:
84,307,64640,2,0,P|96:264|120:240,2,80
224,264,65360,6,0,B|240:224|230:204|230:204|256:184|256:144,1,120.000004577637
376,80,65840,2,0,B|360:120|369:139|369:139|344:160|344:200,1,120.000004577637
472,264,66320,2,0,B|438:265|438:265|416:280|392:264|392:264|384:288|360:304,1,120.000004577637
240,344,66800,1,0,0:0:0:0:
120,264,67040,6,0,P|56:160|152:72,1,240.000009155274
264,80,67760,1,0,0:0:0:0:
248,224,68000,1,0,0:0:0:0:
360,312,68240,1,0,0:0:0:0:
320,128,68480,1,0,0:0:0:0:
312,200,68720,1,0,0:0:0:0:
368,240,68960,1,0,0:0:0:0:
424,368,69200,6,0,B|423:337|448:316|448:316|439:297|455:257,1,120.000004577637
400,128,69679,2,0,B|401:159|375:179|375:179|385:199|369:239,1,120.000004577637
256,248,70160,2,0,L|232:176,2,60.0000022888184
168,296,70640,1,0,0:0:0:0:
92,172,70880,6,0,P|168:80|300:92,1,240.000009155274
408,152,71600,1,0,0:0:0:0:
272,192,71840,1,0,0:0:0:0:
200,320,72080,1,0,0:0:0:0:
368,216,72320,1,0,0:0:0:0:
304,248,72560,1,0,0:0:0:0:
264,304,72800,1,0,0:0:0:0:
400,336,73040,5,0,0:0:0:0:
448,200,73280,1,0,0:0:0:0:
368,80,73520,1,0,0:0:0:0:
224,64,73760,6,0,P|272:120|264:192,1,120.000004577637
152,344,74240,2,0,P|104:288|112:216,1,120.000004577637
96,104,74720,6,0,B|144:128|144:128|168:152|136:192|192:208|232:232|232:232|232:296,1,240.000009155274
368,320,75440,2,0,B|368:272|368:272|400:272|448:192,1,120.000004577637
408,88,75920,2,0,B|408:136|408:136|376:136|328:216,1,120.000004577637
232,264,76400,2,0,L|240:336,2,60.0000022888184
216,120,76880,5,0,0:0:0:0:
96,200,77120,1,0,0:0:0:0:
240,192,77360,1,0,0:0:0:0:
120,120,77600,1,0,0:0:0:0:
144,264,77840,1,0,0:0:0:0:
280,304,78080,2,0,P|336:336|408:304,1,120.000004577637
360,216,78560,6,0,P|304:184|253:197,1,120.000004577637
144,216,79040,2,0,P|200:184|252:197,1,120.000004577637
112,320,79520,1,0,0:0:0:0:
256,312,79760,1,0,0:0:0:0:
344,200,80000,1,0,0:0:0:0:
208,160,80240,1,0,0:0:0:0:
256,24,80480,1,0,0:0:0:0:
384,96,80720,6,0,B|352:136|312:128|360:152|328:171|328:171|376:184|336:240|336:240|304:264|256:240|256:240|280:296|240:304,1,320
248,192,88160,5,0,0:0:0:0:
328,112,88400,6,0,B|360:104|384:128|416:112,1,80
328,264,88880,2,0,B|360:272|384:248|416:264,1,80
400,192,89360,2,0,B|368:168|368:168|320:192|248:192,1,160
251,191,90080,1,0,0:0:0:0:
256,104,90320,38,0,B|240:80|272:72|248:24,1,80
256,280,90800,2,0,B|240:304|272:312|248:360,1,80
152,192,91280,1,0,0:0:0:0:
360,192,91520,1,0,0:0:0:0:
256,192,91760,1,0,0:0:0:0:
256,192,92000,1,0,0:0:0:0:
312,96,92240,6,0,B|328:80|368:96|376:56,1,80
200,96,92720,2,0,B|184:80|144:96|136:56,1,80
256,192,93200,1,0,0:0:0:0:
256,192,93440,2,0,B|280:232|280:232|352:216|376:280,1,160
304,304,94160,5,0,0:0:0:0:
208,304,94400,1,0,0:0:0:0:
136,192,94640,2,0,P|104:160|64:160,1,80
376,192,95120,2,0,P|408:160|448:160,1,80
256,192,95600,2,0,L|256:160|256:112,1,80
184,152,96080,6,0,L|184:232,1,80
328,152,96560,2,0,L|328:232,1,80
256,264,97040,1,0,0:0:0:0:
256,264,97280,2,0,P|272:304|304:320,1,80
256,264,97760,2,0,P|240:304|208:320,1,80
184,160,98240,38,0,B|227:159|227:159|256:120|280:160|280:160|328:160,1,160
192,76,98960,2,0,P|160:44|127:35,1,80
324,72,99439,2,0,P|356:40|388:31,1,80
256,56,99920,1,2,0:0:0:0:
332,116,100160,6,0,B|292:172|231:149|231:149|204:188,1,160
176,224,101360,1,0,0:0:0:0:
152,264,101600,1,0,0:0:0:0:
168,312,101840,1,0,0:0:0:0:
216,328,102080,2,0,L|312:328,1,80
368,280,103760,6,0,P|376:240|368:200,1,80
296,248,104240,2,0,P|288:208|296:168,1,80
368,200,104720,2,0,P|376:160|368:120,1,80
296,168,105200,2,0,P|278:132|242:113,1,80
244,114,105680,6,0,P|192:120|168:136,1,80
32,320,106160,1,0,0:0:0:0:
216,320,106400,1,0,0:0:0:0:
72,232,106640,1,0,0:0:0:0:
176,232,106880,1,0,0:0:0:0:
128,152,107120,1,0,0:0:0:0:
232,152,107360,1,0,0:0:0:0:
368,112,107600,6,0,P|408:120|440:144,1,80
368,176,108080,2,0,P|408:184|440:208,1,80
368,240,108560,2,0,P|408:248|440:272,1,80
368,304,109040,2,0,P|408:307|443:327,1,80
296,260,109520,5,0,0:0:0:0:
296,96,109760,1,0,0:0:0:0:
216,224,110000,1,0,0:0:0:0:
216,128,110240,1,0,0:0:0:0:
144,176,110480,2,0,B|120:152|96:208|40:176,1,80
68,185,110960,1,0,0:0:0:0:
84,280,111200,1,0,0:0:0:0:
184,296,111440,6,0,L|264:296,1,80
216,224,111920,2,0,L|296:224,1,80
248,152,112400,2,0,L|328:152,1,80
288,80,112880,2,0,P|280:40|256:8,1,80
196,80,113360,5,0,0:0:0:0:
104,96,113600,2,0,P|82:130|43:141,1,80
264,104,114080,2,0,P|285:138|324:149,1,80
192,152,114560,2,0,B|224:224|168:224|200:312,1,160
400,288,115280,5,0,0:0:0:0:
400,288,115520,2,0,P|432:248|432:208,1,80
360,224,116000,2,0,B|336:184|312:208|288:184,1,80
292,187,116480,1,0,0:0:0:0:
216,220,116720,1,0,0:0:0:0:
160,160,116960,1,0,0:0:0:0:
240,80,117200,5,0,0:0:0:0:
160,160,117440,2,0,L|160:240,2,80,0|2|0,0:0|0:0|0:0,0:0:0:0:
152,304,118400,1,0,0:0:0:0:
248,288,118640,1,0,0:0:0:0:
336,320,118880,1,0,0:0:0:0:
408,264,119120,5,0,0:0:0:0:
368,120,119360,2,0,L|338:45,1,80
336,200,119840,2,0,L|280:144,1,80
208,80,120320,1,0,0:0:0:0:
120,112,120560,1,0,0:0:0:0:
168,192,120800,1,0,0:0:0:0:
168,192,121040,6,0,P|128:216|112:256,1,80
160,328,121520,2,0,P|200:304|216:264,1,80
288,208,122000,1,0,0:0:0:0:
344,136,122240,1,0,0:0:0:0:
424,192,122480,1,0,0:0:0:0:
360,264,122720,1,0,0:0:0:0:
456,280,122960,6,0,P|440:312|384:336,1,80
456,104,123440,2,0,P|440:72|384:48,1,80
368,136,123920,2,0,L|264:136,1,80
304,232,124400,2,0,L|200:232,1,80
148,288,124880,6,0,B|112:224|152:172|152:172|112:116,2,160
232,344,126080,1,0,0:0:0:0:
304,280,126320,1,0,0:0:0:0:
224,232,126560,1,0,0:0:0:0:
136,192,126800,2,0,P|168:152|200:136,1,80
376,192,127280,2,0,P|344:152|312:136,1,80
256,64,127760,6,0,B|192:40|136:80|136:80|96:96,1,160
48,168,128480,1,0,0:0:0:0:
88,256,128720,1,0,0:0:0:0:
176,280,128960,1,0,0:0:0:0:
268,284,129200,1,0,0:0:0:0:
356,260,129440,1,0,0:0:0:0:
396,172,129680,2,0,L|372:68,1,80
260,140,130160,2,0,L|172:108,1,80
216,240,130640,5,0,0:0:0:0:
216,240,130880,2,0,P|168:208|168:152,1,80
336,112,131600,1,0,0:0:0:0:
336,112,131840,2,0,P|384:80|384:24,2,80
112,280,132800,5,0,0:0:0:0:
304,264,133040,1,0,0:0:0:0:
160,144,133280,1,0,0:0:0:0:
304,264,133520,5,0,0:0:0:0:
360,344,133760,1,0,0:0:0:0:
456,352,134000,1,0,0:0:0:0:
512,276,134240,1,0,0:0:0:0:
408,272,134480,6,0,P|432:216|432:152,1,120.000004577637,4|0,0:0|0:0,0:0:0:0:
352,200,134960,2,0,P|336:144|336:80,1,120.000004577637
432,160,135440,2,0,P|448:104|448:40,1,120.000004577637,2|0,0:0|0:0,0:0:0:0:
336,80,135920,1,0,0:0:0:0:
224,192,136160,1,0,0:0:0:0:
224,192,136400,6,0,P|164:212|112:192,1,120.000004577637,2|0,0:0|0:0,0:0:0:0:
168,120,136880,2,0,P|216:96|280:120,1,120.000004577637
276,116,137360,1,2,0:0:0:0:
224,192,137600,1,0,0:0:0:0:
344,192,137840,1,2,0:0:0:0:
224,192,138080,1,2,0:0:0:0:
88,80,138320,6,0,P|72:144|72:200,1,120.000004577637,4|0,0:0|0:0,0:0:0:0:
152,128,138800,2,0,P|160:192|160:248,1,120.000004577637
80,160,139280,2,0,P|80:224|96:280,1,120.000004577637,2|0,0:0|0:0,0:0:0:0:
94,277,139760,1,0,0:0:0:0:
216,304,140000,6,0,P|280:304|328:272,1,120.000004577637,0|2,0:0|0:0,0:0:0:0:
192,224,140480,2,0,P|256:224|296:184,1,120.000004577637
160,152,140960,2,0,P|216:152|264:112,1,120.000004577637,0|2,0:0|0:0,0:0:0:0:
184,72,141440,1,0,0:0:0:0:
336,72,141680,1,2,0:0:0:0:
448,232,141920,1,2,0:0:0:0:
448,232,142160,6,0,P|400:272|344:264,1,120.000004577637,4|0,0:0|0:0,0:0:0:0:
346,265,142640,2,0,P|288:296|240:280,1,120.000004577637
239,279,143120,2,0,P|176:288|128:264,1,120.000004577637,2|0,0:0|0:0,0:0:0:0:
168,200,143600,1,0,0:0:0:0:
280,184,143840,1,0,0:0:0:0:
400,168,144080,6,0,P|392:104|344:88,1,120.000004577637,2|0,0:0|0:0,0:0:0:0:
400,168,144560,2,0,P|464:160|488:112,1,120.000004577637
400,168,145040,2,0,B|344:176|368:208|296:232,1,120.000004577637,2|0,0:0|0:0,0:0:0:0:
300,230,145520,1,2,0:0:0:0:
312,144,145760,1,2,0:0:0:0:
224,72,146000,6,0,B|192:48|168:72|168:72|144:48|112:72,1,120.000004577637,4|0,0:0|0:0,0:0:0:0:
112,168,146480,2,0,P|168:192|224:168,1,120.000004577637
112,168,146960,1,2,0:0:0:0:
220,172,147200,1,0,0:0:0:0:
120,288,147440,1,0,0:0:0:0:
200,288,147680,1,0,0:0:0:0:
280,288,147920,6,0,P|344:272|392:232,1,120.000004577637,4|0,0:0|0:0,0:0:0:0:
385,239,148400,2,0,P|440:208|456:152,1,120.000004577637
456,155,148880,2,0,P|456:96|424:48,1,120.000004577637,2|0,0:0|0:0,0:0:0:0:
416,48,149360,2,0,L|176:48,1,240.000009155274,8|2,0:0|0:0,0:0:0:0:
175,48,150080,1,0,0:0:0:0:
256,192,150320,12,0,152720,0:0:0:0:
256,192,165200,5,0,0:0:0:0:
184,136,165440,2,0,L|128:144,1,40
120,304,166160,2,0,L|64:312,2,40
204,260,166880,1,0,0:0:0:0:
296,248,167120,2,0,P|336:248|384:272,2,80
184,160,168560,5,0,0:0:0:0:
232,72,168800,1,0,0:0:0:0:
304,136,169040,2,0,L|376:176,1,80
320,256,169760,1,0,0:0:0:0:
320,256,170000,2,0,L|392:296,1,80
304,344,170720,1,0,0:0:0:0:
208,328,170960,6,0,P|168:304|160:264,2,80
272,200,172400,1,0,0:0:0:0:
328,120,172640,1,0,0:0:0:0:
248,64,172880,2,0,L|160:64,1,80
160,160,173600,1,0,0:0:0:0:
160,160,173840,2,0,L|72:160,1,80
112,248,174560,1,0,0:0:0:0:
184,312,174800,5,0,0:0:0:0:
248,240,175040,1,0,0:0:0:0:
344,264,175280,2,0,L|392:296,2,40
408,192,176000,2,0,L|456:208,2,40
384,96,176720,5,0,0:0:0:0:
288,80,176960,2,0,L|232:88,2,40
264,176,177680,2,0,L|224:200,2,40
344,232,178400,1,0,0:0:0:0:
344,232,178640,6,0,B|320:280|259:280|259:280|256:304|224:328,1,160
176,248,180080,1,0,0:0:0:0:
400,96,180560,5,0,0:0:0:0:
400,248,180800,1,0,0:0:0:0:
308,172,181040,1,2,0:0:0:0:
212,92,181280,1,0,0:0:0:0:
212,252,181520,1,0,0:0:0:0:
124,176,181760,1,0,0:0:0:0:
32,100,182000,2,0,B|64:180|8:180|48:260,1,160,2|0,0:0|0:0,0:0:0:0:
124,176,182720,5,0,0:0:0:0:
212,92,182960,1,2,0:0:0:0:
212,252,183200,1,0,0:0:0:0:
308,172,183440,1,0,0:0:0:0:
400,96,183680,1,0,0:0:0:0:
400,248,183920,1,2,0:0:0:0:
308,172,184160,1,0,0:0:0:0:
96,96,184400,6,0,P|80:64|40:48,1,80
176,168,184880,2,0,P|192:128|224:112,1,80,2|0,0:0|0:0,0:0:0:0:
96,224,185360,2,0,P|72:176|48:160,1,80
176,288,185840,2,0,P|200:256|240:248,1,80,2|0,0:0|0:0,0:0:0:0:
176,32,186320,6,0,P|192:72|224:96,1,80
96,96,186800,2,0,P|88:136|64:168,1,80,2|0,0:0|0:0,0:0:0:0:
176,168,187280,2,0,P|192:208|224:232,1,80
96,240,187760,2,0,P|80:280|48:304,1,80,2|0,0:0|0:0,0:0:0:0:
196,96,188240,6,0,P|172:136|180:176,1,80
252,136,188720,2,0,P|260:184|244:216,1,80,2|0,0:0|0:0,0:0:0:0:
175,167,189200,2,0,P|156:208|172:248,1,80
244,216,189680,2,0,P|260:264|244:296,1,80,2|0,0:0|0:0,0:0:0:0:
124,352,190160,2,0,L|44:352,1,80
88,264,190640,2,0,L|8:264,1,80,2|0,0:0|0:0,0:0:0:0:
136,180,191120,2,0,L|56:180,1,80
248,160,191600,1,2,0:0:0:0:
248,160,191840,1,0,0:0:0:0:
344,160,192080,5,4,0:0:0:0:
344,184,192320,1,4,0:0:0:0:
344,208,192560,1,4,0:0:0:0:
344,232,192800,1,4,0:0:0:0:
344,256,193040,1,4,0:0:0:0:
344,280,193280,1,4,0:0:0:0:
344,304,193520,1,4,0:0:0:0:
344,328,193760,1,4,0:0:0:0:
224,128,194240,5,8,0:0:0:0:
168,56,194480,2,0,L|200:32,2,40,0|0|4,0:0|0:0|0:0,0:0:0:0:
88,72,194960,1,4,0:0:0:0:
136,136,195200,1,0,0:0:0:0:
48,160,195440,1,0,0:0:0:0:
112,224,195680,2,0,P|144:256|176:256,1,80
464,48,198080,5,0,0:0:0:0:
464,48,198320,6,0,L|464:168,1,120.000004577637,4|0,0:0|0:0,0:0:0:0:
392,88,198800,2,0,L|392:208,1,120.000004577637
296,216,199280,1,2,0:0:0:0:
236,112,199520,1,0,0:0:0:0:
136,176,199760,6,0,P|76:153|24:176,1,120.000004577637
136,176,200240,2,0,P|108:234|128:287,1,120.000004577637,2|0,0:0|0:0,0:0:0:0:
136,176,200720,2,0,P|194:202|247:181,1,120.000004577637
136,176,201200,2,0,P|167:120|151:65,1,120.000004577637,2|0,0:0|0:0,0:0:0:0:
153,68,201560,1,0,0:0:0:0:
153,68,201680,5,2,0:0:0:0:
240,128,201920,1,2,0:0:0:0:
124,232,202160,2,0,P|196:232|244:216,1,120.000004577637,4|0,0:0|0:0,0:0:0:0:
244,216,202640,2,0,P|173:199|130:173,1,120.000004577637
132,176,203120,2,0,P|201:156|242:127,1,120.000004577637,2|0,0:0|0:0,0:0:0:0:
300,56,203600,5,0,0:0:0:0:
208,56,203840,1,0,0:0:0:0:
208,56,204080,2,0,P|144:72|104:112,1,120.000004577637,2|0,0:0|0:0,0:0:0:0:
248,144,204560,1,0,0:0:0:0:
248,144,204680,1,0,0:0:0:0:
248,144,204800,1,0,0:0:0:0:
248,144,205040,2,0,L|368:144,1,120.000004577637,2|0,0:0|0:0,0:0:0:0:
312,216,205520,6,0,L|376:216,2,60.0000022888184
232,264,206000,2,0,L|112:264,1,120.000004577637,4|0,0:0|0:0,0:0:0:0:
111,264,206480,2,0,L|112:144,1,120.000004577637
112,144,206960,2,0,P|136:80|184:40,1,120.000004577637,2|0,0:0|0:0,0:0:0:0:
256,144,207440,5,0,0:0:0:0:
256,144,207560,1,0,0:0:0:0:
256,144,207680,2,0,B|296:104|312:144|312:144|336:112|352:136,1,120.000004577637,0|2,0:0|0:0,0:0:0:0:
350,133,208160,2,0,B|400:176|376:208|376:208|392:240,1,120.000004577637,0|2,0:0|0:0,0:0:0:0:
288,256,208640,1,2,0:0:0:0:
160,264,208880,2,0,P|96:256|48:224,1,120.000004577637,2|0,0:0|0:0,0:0:0:0:
48,224,209360,6,0,L|48:104,1,120.000004577637,2|0,0:0|0:0,0:0:0:0:
48,104,209840,1,4,0:0:0:0:
192,136,210080,2,0,L|256:136,2,60.0000022888184
328,136,210560,2,0,L|392:136,2,60.0000022888184
264,280,211040,2,0,L|264:160,1,120.000004577637,0|2,0:0|0:0,0:0:0:0:
176,128,211520,5,0,0:0:0:0:
344,280,211760,1,2,0:0:0:0:
344,136,212000,1,0,0:0:0:0:
184,280,212240,1,2,0:0:0:0:
256,192,212480,1,0,0:0:0:0:
256,64,212720,1,2,0:0:0:0:
256,336,212960,1,2,0:0:0:0:
408,208,213200,1,2,0:0:0:0:
112,208,213440,1,2,0:0:0:0:
256,192,213680,5,0,0:0:0:0:
176,240,213920,2,0,P|200:272|192:336,1,80
309,310,214400,2,0,P|312:272|336:240,1,80
376,152,214880,2,0,P|400:120|402:81,1,80
109,81,215360,2,0,P|112:120|136:152,1,80
208,88,215840,1,0,0:0:0:0:
264,168,216080,1,0,0:0:0:0:
224,256,216320,1,0,0:0:0:0:
296,320,216560,2,0,L|392:328,1,80
448,264,217040,6,0,L|448:304,2,40
448,168,217520,1,0,0:0:0:0:
368,112,217760,1,0,0:0:0:0:
336,200,218000,2,0,P|328:240|288:272,1,80
232,200,218480,2,0,P|204:226|196:266,1,80
56,336,218960,5,0,0:0:0:0:
56,336,219200,2,0,B|96:280|70:244|70:244|96:232|88:200|88:200|144:176|96:144|96:144|128:112|112:88|112:88|144:48,1,320
200,128,220400,1,0,0:0:0:0:
184,224,220640,1,0,0:0:0:0:
248,296,220880,2,0,P|272:328|336:336,1,80
336,248,221360,6,0,L|432:272,2,80
264,184,222080,1,0,0:0:0:0:
176,136,222320,2,0,L|80:112,2,80
142,258,223040,2,0,B|174:235|174:235|208:240|208:240|216:208|216:208|264:184,1,160
344,136,223760,1,0,0:0:0:0:
400,216,224000,1,0,0:0:0:0:
320,264,224240,2,0,P|288:288|240:304,1,80
192,120,224720,6,0,P|224:96|261:82,1,80
128,192,225200,2,0,B|152:232|136:264|136:264|184:280|192:360,1,160
384,192,226160,2,0,B|360:152|376:120|376:120|328:104|320:24,1,160
256,192,226880,12,0,228560,0:0:0:0:
176,256,228800,5,0,0:0:0:0:
120,176,229040,2,0,P|96:144|104:88,1,80
168,40,229520,2,0,P|192:72|184:128,1,80
319,110,230000,2,0,P|320:72|344:40,1,80
416,105,230480,2,0,P|416:144|392:176,1,80
312,224,230960,5,0,0:0:0:0:
336,320,231200,1,0,0:0:0:0:
256,272,231440,1,0,0:0:0:0:
176,320,231680,1,0,0:0:0:0:
200,224,231920,1,0,0:0:0:0:
256,144,232160,2,0,P|248:96|208:64,1,80
136,64,232640,6,0,P|144:112|184:144,1,80,0|0,0:0|0:0,0:0:0:0:
120,216,233120,1,0,0:0:0:0:
72,296,233360,1,0,0:0:0:0:
440,296,233840,5,0,0:0:0:0:
392,216,234080,1,0,0:0:0:0:
347,134,234320,2,0,P|368:112|376:64,1,80,0|0,0:0|0:0,0:0:0:0:
280,72,234800,2,0,B|256:104|261:136|261:136|264:160|240:177|240:177|256:232,1,160
280,312,235520,1,0,0:0:0:0:
192,352,235760,2,0,P|176:304|192:264,1,80
112,248,236240,5,0,0:0:0:0:
152,160,236480,1,0,0:0:0:0:
224,232,236720,2,0,B|232:160|296:176|296:176|304:104|400:120,1,240.000009155274
376,200,238160,1,0,0:0:0:0:
320,256,238640,2,0,P|448:208|312:152,1,360.000013732911
200,200,240560,2,0,L|136:200,2,60.0000022888184
160,112,241520,6,0,L|160:48,2,60.0000022888184
160,296,242480,2,0,P|184:320|264:344,1,120.000004577637
264,343,243200,1,0,0:0:0:0:
264,343,243440,2,0,P|328:336|376:304,1,120.000004577637
312,208,244400,6,0,B|304:200|304:200|320:200|320:200|304:192|304:192|320:192|320:192|304:184|304:184|320:184|320:184|304:176|304:176|320:176|320:176|304:168|304:168|320:168|320:168|288:152|304:96,1,240.000009155274
216,144,245840,1,0,0:0:0:0:
120,96,246320,2,0,B|112:104|112:104|128:104|128:104|112:112|112:112|128:112|128:112|112:120|112:120|128:120|128:120|112:128|112:128|128:128|128:128|112:136|112:136|128:136|128:136|96:152|112:208,1,240.000009155274
216,144,247760,1,0,0:0:0:0:
288,282,248240,6,0,B|330:282|336:261|336:261|378:272|368:240|368:240|405:224|410:202|410:202|405:181|368:165|368:165|389:133|336:122|336:122|330:101|277:111,1,360.000013732911
272,200,250160,2,0,B|230:200|224:179|224:179|182:190|192:158|192:158|155:142|150:120|150:120|155:99|192:83|192:83|171:51|224:40|224:40|230:19|283:29,1,360.000013732911
256,192,252080,12,0,254960,0:0:0:0:
404,156,255920,6,0,P|244:72|104:156,1,360.000013732911
360,196,257840,2,0,P|253:147|147:196,1,240.000009155274
184,256,259280,6,0,L|184:224,3,30.0000011444092
232,112,260000,6,0,L|272:112,1,40
344,208,260480,2,0,L|384:208,1,40
328,296,261200,2,0,L|368:296,1,40
192,296,261920,2,0,L|152:296,1,40
168,208,262400,2,0,L|128:208,1,40
256,72,262880,5,4,0:0:0:0:
168,208,263120,1,4,0:0:0:0:
356,208,263360,1,4,0:0:0:0:
