osu file format v12

[General]
AudioFilename: 96.mp3
AudioLeadIn: 0
PreviewTime: 65080
Countdown: 0
SampleSet: Soft
StackLeniency: 0.7
Mode: 0
LetterboxInBreaks: 1
CountdownOffset: 3

[Editor]
Bookmarks: 3880,15400,17320,19000,32680,34360,49960,65320,80680,86440,88120,103480,103720,118120,118840,119080,134440,149800,165160,198280,213160,213640,236200,243400,243640,259720,259960,263560
DistanceSpacing: 0.9
BeatDivisor: 2
GridSize: 4

[Metadata]
Title:Interviewer
TitleUnicode:インタビュア
Artist:96Neko
ArtistUnicode:96猫
Creator:- Miomio Chii -
Version:Easy
Source:KuwagataP
Tags:Vocaloid2 Vocaloid Megurine Luka MmC happy623
BeatmapID:267007
BeatmapSetID:96961

[Difficulty]
HPDrainRate:2
CircleSize:3
OverallDifficulty:2
ApproachRate:2
SliderMultiplier:1
SliderTickRate:1

[Events]
//Background and Video events
0,0,"29932898.png",0,0
//Break Periods
2,80920,86840
2,150520,163640
//Storyboard Layer 0 (Background)
//Storyboard Layer 1 (Fail)
//Storyboard Layer 2 (Pass)
//Storyboard Layer 3 (Foreground)
//Storyboard Sound Samples
//Background Colour Transformations
3,100,163,162,255

[TimingPoints]
3920,480,4,2,1,50,1,0
17360,-100,4,3,0,60,0,0
19280,-100,4,2,1,50,0,0
27440,-100,4,3,0,60,0,0
28400,-100,4,2,1,50,0,0
31760,-100,4,3,0,60,0,0
34640,-100,4,2,1,50,0,0
50000,-100,4,3,0,60,0,0
53360,-100,4,2,1,50,0,0
53840,-100,4,3,0,60,0,0
58640,-100,4,2,1,50,0,0
59600,-100,4,3,0,60,0,0
61520,-100,4,2,1,50,0,0
63440,-100,4,3,0,60,0,0
64400,-100,4,2,1,50,0,0
64880,-100,4,3,0,60,0,0
65360,-83.3333333333333,4,2,1,70,0,1
68720,-83.3333333333333,4,3,0,70,0,1
69200,-83.3333333333333,4,2,1,70,0,1
72560,-83.3333333333333,4,3,0,70,0,1
73040,-83.3333333333333,4,2,1,70,0,1
76400,-83.3333333333333,4,3,0,70,0,1
76880,-83.3333333333333,4,2,1,70,0,1
78320,-83.3333333333333,4,3,0,70,0,1
78800,-83.3333333333333,4,2,1,70,0,1
80720,-83.3333333333333,4,2,1,50,0,0
88400,-100,4,2,1,50,0,0
100880,-100,4,1,1,50,0,0
103760,-100,4,2,1,50,0,0
134480,-100,4,2,1,70,0,1
150320,-100,4,2,1,50,0,0
165200,-100,4,1,1,50,0,0
180560,-100,4,2,1,50,0,0
198320,-83.3333333333333,4,2,1,70,0,1
213200,-83.3333333333333,4,2,1,70,0,0
213680,-83.3333333333333,4,2,1,70,0,1
236240,-100,4,2,1,60,0,0
244400,-133.333333333333,4,2,1,60,0,0

[Colours]
Combo1 : 255,255,0
Combo2 : 255,128,192
Combo3 : 255,128,255
Combo4 : 255,0,255
Combo5 : 255,0,128
Combo6 : 255,202,121

[HitObjects]
256,192,15440,12,0,17360,0:0:0:0:
320,296,18320,6,0,P|352:264|368:208,1,100
344,128,19280,2,0,P|288:112|152:144,1,200
104,320,21200,2,0,P|144:256|264:240,1,200
384,112,23120,6,0,B|344:176|344:176|384:240|352:304,2,200
324,44,25520,2,0,P|372:20|428:28,2,100
240,76,26960,5,0,0:0:0:0:
268,156,27440,2,0,P|316:236|256:316,1,200
220,232,28880,2,0,B|148:144|148:312|52:224,2,200
400,288,31760,6,0,P|424:192|392:96,2,200
248,192,34640,5,0,0:0:0:0:
88,272,35600,2,0,B|140:216|140:216|132:144|184:108,1,200
200,288,37520,2,0,P|248:304|296:288,2,100
244,128,39440,6,0,B|284:92|336:116|336:116|384:92|432:120,1,200
380,208,40880,1,0,0:0:0:0:
292,212,41360,2,0,P|244:228|196:208,2,100
168,88,43280,6,0,P|96:144|68:248,2,200
344,136,46160,2,0,P|392:108|436:112,1,100
408,200,47120,2,0,P|456:208|488:248,1,100
408,288,48080,6,0,P|320:324|208:280,1,200
144,136,50000,2,0,B|200:136|200:136|264:48|392:48|448:136|448:136|512:136,1,400
328,176,52880,2,0,P|360:216|368:264,2,100
312,356,54800,2,0,B|180:320|160:264|192:206|292:206|321:268|300:324|163:358,1,400
148,176,57680,2,0,P|240:152|340:184,2,200
68,336,60560,6,0,P|36:296|24:248,1,100
116,256,61520,2,0,P|108:216|132:160,1,100
196,220,62480,2,0,P|228:180|276:172,1,100
280,272,63440,6,0,P|328:288|376:272,2,100
188,256,64880,1,0,0:0:0:0:
252,196,65360,6,0,P|292:188|356:100,1,119.999996337891
248,88,66320,2,0,P|160:120|128:168,1,119.999996337891
84,228,67280,2,0,B|140:248|140:248|200:232,2,119.999996337891
144,136,68720,1,0,0:0:0:0:
252,152,69200,6,0,P|320:124|400:128,1,119.999996337891
320,220,70160,2,0,P|380:212|448:260,1,119.999996337891
336,292,71120,2,0,B|296:308|232:272|252:208,2,119.999996337891
336,180,72560,1,0,0:0:0:0:
408,100,73040,6,0,B|344:36|336:108|272:60,2,119.999996337891
336,180,74480,1,0,0:0:0:0:
228,192,74960,2,0,B|140:184|180:136|92:128,2,119.999996337891
204,88,76400,1,0,0:0:0:0:
308,116,76880,6,0,P|368:124|412:164,2,119.999996337891
232,196,78320,2,0,P|200:156|220:64,2,119.999996337891
308,116,79760,1,0,0:0:0:0:
308,116,80240,2,0,P|356:124|412:204,1,119.999996337891
304,328,88400,6,0,B|304:264|304:264|392:208|336:80|248:88,1,300
248,184,90320,2,0,B|184:192|128:112|128:112|72:112,2,200
100,288,93200,6,0,P|180:304|348:288,2,250
124,200,96080,5,0,0:0:0:0:
212,44,97040,2,0,P|292:28|508:44,1,300
404,192,99440,2,0,P|356:204|296:208,1,100
148,136,100880,6,0,B|204:-12|328:304|424:-12|508:124,1,400
372,244,103760,6,0,P|324:212|284:212,1,100
216,152,104720,2,0,P|160:160|144:196,1,100
228,232,105680,2,0,B|284:248|284:248|332:232,2,100
56,248,107600,6,0,P|88:288|140:300,1,100
136,212,108560,2,0,P|184:204|212:160,1,100
132,120,109520,2,0,B|84:92|84:92|44:116,2,100
220,276,111440,6,0,P|300:268|404:92,1,300
372,8,113360,2,0,B|316:72|316:72|336:168|280:212|188:192,1,300
232,112,115280,1,0,0:0:0:0:
104,240,116240,6,0,P|48:184|64:72,2,200
288,280,119120,6,0,P|336:256|376:272,1,100
328,200,120080,2,0,P|376:176|416:192,1,100
368,120,121040,2,0,P|416:96|456:112,1,100
456,200,122000,2,0,L|456:256,2,50
456,112,122960,6,0,P|408:136|368:120,1,100
416,192,123920,2,0,P|368:216|328:200,1,100
376,272,124880,2,0,P|328:296|288:280,1,100
288,192,125840,2,0,L|288:136,2,50
208,144,126800,6,0,L|104:144,1,100
152,224,127760,2,0,L|48:224,1,100
104,304,128720,2,0,L|0:304,2,100
280,336,130640,6,0,B|328:312|328:312|416:192,1,200
240,248,132560,2,0,B|272:240|272:240|296:212|312:184,2,100
168,84,134480,6,0,B|224:76|224:76|256:44,1,100
304,120,135440,2,0,B|360:112|360:112|392:80,1,100
440,156,136400,2,0,P|456:204|432:300,2,150
352,132,138320,6,0,B|296:124|296:124|264:92,1,100
212,168,139280,2,0,B|156:160|156:160|124:128,1,100
76,204,140240,2,0,P|60:272|96:340,2,150
148,260,142160,6,0,P|204:276|364:260,2,200
296,160,145040,2,0,P|240:144|80:160,2,200,0|0|0,0:0|0:0|0:0,0:0:0:0:
184,300,147920,6,0,P|136:324|40:324,2,150
240,232,149840,2,0,P|272:196|324:192,1,100
176,312,165200,6,0,P|208:280|360:272,1,200
192,192,167120,2,0,P|160:160|8:152,1,200
176,72,169040,6,0,P|208:40|360:32,1,200
312,208,170960,2,0,P|368:224|416:208,2,100
344,32,172880,6,0,B|240:32|240:32|176:104,1,200
0,152,174800,2,0,B|104:152|104:152|168:224,1,200,0|0,0:0|0:0,0:0:0:0:
320,136,176720,6,0,B|368:120|368:120|416:144,2,100
320,320,178640,2,0,B|272:336|272:336|224:312,2,100
192,192,180560,6,0,P|144:168|120:128,1,100
40,176,181520,2,0,P|24:120|40:80,1,100
120,128,182480,6,0,P|160:96|208:112,2,100
184,192,183920,1,0,0:0:0:0:
264,240,184400,6,0,P|312:216|360:224,1,100
376,136,185360,2,0,P|424:160|444:212,1,100
416,284,186320,6,0,P|376:316|328:316,2,100
344,232,187760,1,0,0:0:0:0:
288,160,188240,6,0,L|224:80,1,100
176,160,189200,2,0,L|112:80,1,100
64,160,190160,2,0,B|32:200|32:200|40:248,3,100
112,304,192080,6,0,L|216:304,1,100
300,328,193040,2,0,P|300:272|268:240,1,100
232,220,193760,1,0,0:0:0:0:
100,200,194480,6,0,B|108:144|108:144|204:56|332:128,1,300
288,288,198320,6,0,P|352:248|380:212,1,119.999996337891
276,176,199280,2,0,P|326:119|366:98,1,119.999996337891
388,204,200240,2,0,P|452:164|480:128,1,119.999996337891
376,92,201200,2,0,P|325:35|285:14,1,119.999996337891
272,124,202160,6,0,L|376:184,1,119.999996337891
384,292,203120,2,0,L|280:228,1,119.999996337891
284,336,204080,2,0,L|132:336,1,119.999996337891
100,248,205040,2,0,L|252:248,1,119.999996337891
328,244,206000,6,0,P|392:204|464:212,1,119.999996337891
356,128,206960,2,0,P|312:92|252:80,1,119.999996337891
264,188,207920,2,0,P|196:200|156:268,3,119.999996337891
256,292,209840,6,0,B|336:292|336:292|400:252,1,119.999996337891
428,180,210800,2,0,B|348:180|348:180|284:220,1,119.999996337891
224,144,211760,2,0,P|200:72|136:48,2,119.999996337891
208,252,213200,1,0,0:0:0:0:
308,288,213680,6,0,B|324:228|324:228|324:168,1,119.999996337891
216,180,214640,2,0,B|200:128|200:128|200:60,1,119.999996337891
100,100,215600,2,0,P|76:156|96:240,2,119.999996337891
180,172,217040,1,0,0:0:0:0:
200,280,217520,6,0,B|260:272|260:272|352:296,1,119.999996337891
324,180,218480,2,0,B|380:168|380:168|476:196,1,119.999996337891
428,80,219440,2,0,P|476:60|497:-36,2,119.999996337891
332,132,220880,1,0,0:0:0:0:
256,208,221360,6,0,L|400:248,1,119.999996337891
292,312,222320,2,0,L|436:352,1,119.999996337891
424,236,223280,2,0,P|384:180|416:108,1,119.999996337891
296,180,224240,1,0,0:0:0:0:
192,144,224720,5,0,0:0:0:0:
152,244,225200,2,0,P|224:244|272:300,1,119.999996337891
348,212,226160,2,0,P|292:180|288:100,1,119.999996337891
380,88,227120,6,0,P|272:32|176:96,2,239.999992675781
256,192,229520,12,0,232400,0:0:0:0:
256,192,232880,12,0,235760,0:0:0:0:
256,192,236720,5,0,0:0:0:0:
400,300,237680,2,0,P|252:340|108:300,2,300
256,192,241040,12,0,243440,0:0:0:0:
284,224,244400,6,0,B|252:112|324:112|284:-16,2,225.000008583069
188,320,248240,6,0,B|300:288|300:360|428:320,2,225.000008583069
216,188,252080,2,0,P|48:188|184:76,2,450.000017166138
352,172,258800,2,0,B|288:216|340:256|272:296,1,150.000005722046
188,188,260720,6,0,P|108:172|44:196,1,150.000005722046
76,328,262640,2,0,P|100:288|148:256,2,75.0000028610231
