osu file format v12

[General]
AudioFilename: O.T.N.mp3
AudioLeadIn: 1500
PreviewTime: 41731
Countdown: 1
SampleSet: Normal
StackLeniency: 0.7
Mode: 0
LetterboxInBreaks: 1

[Editor]
DistanceSpacing: 1.1
BeatDivisor: 4
GridSize: 4

[Metadata]
Title:Gigantic O.T.N
TitleUnicode:ギガンティックO.T.N
Artist:96Neko
ArtistUnicode:96Neko
Creator:Fire Cirno
Version:Lv5
Source:
Tags:VOCALOID
BeatmapID:264816
BeatmapSetID:89929

[Difficulty]
HPDrainRate:3
CircleSize:4
OverallDifficulty:3
ApproachRate:5
SliderMultiplier:1.2
SliderTickRate:1

[Events]
//Background and Video events
0,0,"BG.jpg",0,0
Video,0,"video.avi"
//Break Periods
2,64668,73373
2,128772,147899
2,175825,184531
//Storyboard Layer 0 (Background)
//Storyboard Layer 1 (Fail)
//Storyboard Layer 2 (Pass)
//Storyboard Layer 3 (Foreground)
//Storyboard Sound Samples
//Background Colour Transformations
3,100,163,162,255

[TimingPoints]
47,315.789473684211,4,1,1,100,1,0
915,-100,4,1,1,80,0,0
1073,-100,4,1,1,70,0,0
10704,-100,4,2,1,80,0,0
11336,-100,4,1,1,75,0,0
20020,-100,4,1,1,70,0,0
20178,-100,4,2,1,100,0,0
21441,-100,4,1,1,70,0,0
31547,-100,4,2,1,80,0,0
31625,-100,4,2,1,80,0,1
31783,-100,4,2,1,80,0,0
33836,-100,4,2,1,80,0,1
33994,-100,4,2,1,80,0,0
36362,-100,4,2,1,80,0,1
36520,-100,4,2,1,80,0,0
37310,-100,4,2,1,80,0,1
37468,-100,4,2,1,80,0,0
37941,-100,4,2,1,80,0,1
38099,-100,4,2,1,80,0,0
38257,-100,4,2,1,80,0,1
38415,-100,4,2,1,80,0,0
38573,-100,4,2,1,80,0,1
38731,-100,4,2,1,80,0,0
38889,-100,4,2,1,80,0,1
39047,-100,4,2,1,80,0,0
39204,-100,4,2,1,80,0,1
39362,-100,4,2,1,80,0,0
39836,-100,4,2,1,80,0,1
39915,-100,4,2,1,80,0,0
40468,-133.333333333333,4,1,1,100,0,0
41178,-100,4,1,1,100,0,0
41731,-100,4,1,0,55,0,1
42283,-100,4,1,1,70,0,1
42441,-100,4,1,0,55,0,1
43547,-100,4,1,1,70,0,1
43704,-100,4,1,0,55,0,1
44810,-100,4,1,1,70,0,1
44968,-100,4,1,0,55,0,1
46073,-100,4,1,1,70,0,1
46231,-100,4,1,0,55,0,1
47336,-100,4,1,1,70,0,1
47494,-100,4,1,0,55,0,1
48599,-100,4,1,1,70,0,1
48757,-100,4,1,0,55,0,1
49941,-100,4,1,1,70,0,1
50020,-100,4,1,0,55,0,1
51125,-100,4,1,1,70,0,1
51283,-100,4,1,0,55,0,1
51763,-100,4,1,1,70,0,0
51836,-100,4,1,0,55,0,1
52389,-100,4,1,1,70,0,1
52547,-100,4,1,0,55,0,1
53652,-100,4,1,1,70,0,1
53810,-100,4,1,0,55,0,1
54915,-100,4,1,1,70,0,1
55073,-100,4,1,0,55,0,1
56178,-100,4,1,1,70,0,1
56336,-100,4,1,0,55,0,1
57441,-100,4,1,1,70,0,1
57599,-100,4,1,0,55,0,1
58704,-100,4,1,1,70,0,1
58862,-100,4,1,0,55,0,1
59968,-100,4,1,1,70,0,1
60125,-100,4,1,0,55,0,1
61231,-100,4,1,1,70,0,1
61389,-100,4,1,0,55,0,1
61941,-133.333333333333,4,1,1,70,0,1
62336,-100,4,1,1,70,0,1
62494,-133.333333333333,4,1,1,70,0,1
63994,-200,4,2,1,70,0,1
64231,-100,4,1,1,80,0,1
64389,-100,4,1,1,80,0,0
64468,-100,4,1,1,80,0,1
64547,-100,4,1,1,80,0,0
74494,-100,4,1,1,70,0,0
91468,-100,4,1,1,70,0,0
92020,-100,4,1,1,70,0,0
94468,-58.8235294117647,4,1,1,5,0,0
94704,-133.333333333333,4,2,1,80,0,0
98494,-133.333333333333,4,2,1,5,0,0
99283,-133.333333333333,4,2,1,80,0,0
103625,-133.333333333333,4,2,1,80,0,1
103783,-133.333333333333,4,2,1,80,0,0
105599,-100,4,2,1,5,0,0
106073,-100,4,1,1,100,0,0
106152,-100,4,1,0,70,0,1
106704,-100,4,1,1,55,0,1
106862,-100,4,1,0,55,0,1
107968,-100,4,1,1,70,0,1
108125,-100,4,1,0,55,0,1
109231,-100,4,1,1,70,0,1
109389,-100,4,1,0,55,0,1
110494,-100,4,1,1,70,0,1
110652,-100,4,1,0,55,0,1
111757,-100,4,1,1,70,0,1
111915,-100,4,1,0,55,0,1
113020,-100,4,1,1,70,0,1
113178,-100,4,1,0,55,0,1
114362,-100,4,1,1,70,0,1
114441,-100,4,1,0,55,0,1
115547,-100,4,1,1,70,0,1
115704,-100,4,1,0,55,0,1
116178,-100,4,1,1,80,0,0
116257,-100,4,1,0,55,0,1
116810,-100,4,1,1,70,0,1
116968,-100,4,1,0,55,0,1
118073,-100,4,1,1,70,0,1
118231,-100,4,1,0,55,0,1
119336,-100,4,1,1,70,0,1
119494,-100,4,1,0,55,0,1
120599,-100,4,1,1,70,0,1
120757,-100,4,1,0,55,0,1
121862,-100,4,1,1,70,0,1
122020,-100,4,1,0,55,0,1
123125,-100,4,1,1,70,0,1
123283,-100,4,1,0,55,0,1
124389,-100,4,1,1,70,0,1
124547,-100,4,1,0,55,0,1
125652,-100,4,1,1,70,0,1
125810,-100,4,1,0,55,0,1
126599,-100,4,2,1,80,0,1
127862,-100,4,2,1,30,0,1
128336,-100,4,2,1,80,0,1
128494,-100,4,1,1,80,0,1
128652,-100,4,1,1,80,0,1
128810,-100,4,1,1,23,0,1
128889,-100,4,1,1,70,0,0
138283,-100,4,1,1,100,0,0
149020,-100,4,2,1,5,0,0
150125,-100,4,1,1,80,0,0
150362,-100,4,1,0,55,0,1
150915,-100,4,1,1,70,0,1
151073,-100,4,1,0,55,0,1
152178,-100,4,1,1,70,0,1
152336,-100,4,1,0,55,0,1
153441,-100,4,1,1,70,0,1
153599,-100,4,1,0,55,0,1
154704,-100,4,1,1,70,0,1
154862,-100,4,1,0,55,0,1
155968,-100,4,1,1,70,0,1
156125,-100,4,1,0,55,0,1
157231,-100,4,1,1,70,0,1
157389,-100,4,1,0,55,0,1
158573,-100,4,1,1,70,0,1
158652,-100,4,1,0,55,0,1
159836,-100,4,1,1,70,0,1
159915,-100,4,1,0,55,0,1
160231,-100,4,1,1,80,0,1
160389,-100,4,1,1,80,0,0
160468,-100,4,1,0,55,0,1
161020,-100,4,1,1,70,0,1
161178,-100,4,1,0,55,0,1
162283,-100,4,1,1,70,0,1
162441,-100,4,1,0,55,0,1
163625,-100,4,1,1,70,0,1
163704,-100,4,1,0,55,0,1
164810,-100,4,1,1,70,0,1
164968,-100,4,1,0,55,0,1
165125,-100,4,1,0,50,0,1
166073,-100,4,1,1,70,0,1
166231,-100,4,1,0,50,0,1
167336,-100,4,1,1,70,0,1
167494,-100,4,1,0,50,0,1
168599,-100,4,1,1,70,0,1
168757,-100,4,1,0,50,0,1
169862,-100,4,1,1,70,0,1
170020,-100,4,1,0,50,0,1
170573,-133.333333333333,4,1,1,70,0,1
171599,-133.333333333333,4,1,1,5,0,1
172073,-133.333333333333,4,1,1,70,0,1
172231,-133.333333333333,4,1,1,5,0,1
172389,-133.333333333333,4,1,1,70,0,1
172547,-133.333333333333,4,1,1,5,0,1
172704,-133.333333333333,4,1,1,70,0,1
172862,-133.333333333333,4,1,1,5,0,1
173020,-100,4,2,1,80,0,1
175231,-100,4,1,1,80,0,1
175625,-100,4,2,1,100,0,1
175704,-100,4,2,1,100,0,0
185652,-100,4,2,1,80,0,0

[Colours]
Combo1 : 255,128,255
Combo2 : 255,128,192
Combo3 : 40,148,255
Combo4 : 255,128,0
Combo5 : 240,240,0

[HitObjects]
256,192,994,1,2,0:0:0:0:
452,160,1310,6,0,P|392:192|360:232,1,120,0|4,0:0|0:0,0:0:0:0:
188,288,1941,2,0,P|240:244|268:176,1,120,0|4,0:0|0:0,0:0:0:0:
128,80,2573,1,0,0:0:0:0:
128,80,2889,2,0,P|136:160|120:216,2,120,4|4|4,0:0|0:0|0:0,0:0:0:0:
120,212,3836,6,0,P|188:232|216:272,1,120,0|4,0:0|0:0,0:0:0:0:
312,172,4468,2,0,P|284:128|284:40,1,120,0|4,0:0|0:0,0:0:0:0:
172,140,5099,1,0,0:0:0:0:
256,240,5415,2,0,L|256:116,2,120,4|4|4,0:0|0:0|0:0,0:0:0:0:
172,136,6362,6,0,P|136:168|108:232,1,120,0|4,0:0|0:0,0:0:0:0:
224,296,6994,1,0,0:0:0:0:
224,296,7310,1,4,0:0:0:0:
304,180,7625,2,0,P|300:264|316:320,1,120,0|4,0:0|0:0,0:0:0:0:
384,192,8257,1,4,0:0:0:0:
384,192,8573,1,4,0:0:0:0:
296,92,8889,6,0,P|248:72|160:64,1,120,0|4,0:0|0:0,0:0:0:0:
48,184,9520,2,0,P|68:128|124:76,1,120,0|4,0:0|0:0,0:0:0:0:
168,256,10152,2,0,P|160:288|160:320,3,60,0|0|0|0,0:0|0:0|0:0|0:0,0:0:0:0:
168,256,10783,2,0,P|208:196|264:164,1,120
404,80,11415,6,0,P|380:128|372:208,1,120,0|4,0:0|0:0,0:0:0:0:
312,324,12047,1,0,0:0:0:0:
232,204,12362,1,4,0:0:0:0:
152,324,12678,2,0,P|112:264|88:208,1,120,0|4,0:0|0:0,0:0:0:0:
204,128,13310,2,0,P|276:136|336:124,1,120,4|4,0:0|0:0,0:0:0:0:
400,248,13941,6,0,L|400:312,2,60,0|0|4,0:0|0:0|0:0,0:0:0:0:
256,248,14573,2,0,P|272:200|328:144,1,120,0|4,0:0|0:0,0:0:0:0:
200,64,15204,1,4,0:0:0:0:
200,64,15362,1,0,0:0:0:0:
200,64,15520,1,4,0:0:0:0:
112,176,15836,2,0,L|112:240,2,60,4|0|0,0:0|0:0|0:0,0:0:0:0:
196,296,16468,6,0,P|272:232|288:204,1,120,0|4,0:0|0:0,0:0:0:0:
240,80,17099,2,0,L|176:80,2,60,0|0|4,0:0|0:0|0:0,0:0:0:0:
112,148,17731,2,0,P|88:196|80:268,2,120,0|4|4,0:0|0:0|0:0,0:0:0:0:
256,148,18678,1,4,0:0:0:0:
376,68,18994,6,0,P|424:104|468:160,1,120,0|4,0:0|0:0,0:0:0:0:
416,288,19625,1,0,0:0:0:0:
416,288,19941,2,0,P|356:292|288:264,1,120,4|0,0:0|0:0,0:0:0:0:
168,216,20573,1,0,0:0:0:0:
304,172,20889,1,0,0:0:0:0:
168,124,21204,1,0,0:0:0:0:
304,72,21520,6,0,P|356:104|428:116,1,120,0|4,0:0|0:0,0:0:0:0:
392,260,22152,2,0,L|392:324,2,60,0|0|4,0:0|0:0|0:0,0:0:0:0:
252,232,22783,2,0,P|184:192|120:188,1,120,0|4,0:0|0:0,0:0:0:0:
76,316,23415,2,0,L|76:240,2,60,4|0|4,0:0|0:0|0:0,0:0:0:0:
164,200,24047,6,0,P|184:144|188:72,2,120,0|4|0,0:0|0:0|0:0,0:0:0:0:
288,124,24994,1,4,0:0:0:0:
412,196,25310,2,0,P|408:252|424:332,2,120,0|4|4,0:0|0:0|0:0,0:0:0:0:
288,124,26257,1,4,0:0:0:0:
152,172,26573,6,0,P|136:128|116:112,2,60,0|0|4,0:0|0:0|0:0,0:0:0:0:
256,272,27204,2,0,P|284:308|308:320,2,60,0|0|4,0:0|0:0|0:0,0:0:0:0:
116,308,27836,2,0,P|88:240|84:176,1,120,0|4,0:0|0:0,0:0:0:0:
200,108,28468,1,4,0:0:0:0:
200,108,28625,1,0,0:0:0:0:
200,108,28783,1,4,0:0:0:0:
328,176,29099,6,0,P|324:256|296:304,1,120,0|4,0:0|0:0,0:0:0:0:
448,264,29731,1,0,0:0:0:0:
448,264,30047,1,4,0:0:0:0:
428,124,30362,2,0,P|400:88|376:80,2,60,0|0|4,0:0|0:0|0:0,0:0:0:0:
244,92,30994,2,0,L|160:92,2,60,4|0|4,0:0|0:0|0:0,0:0:0:0:
296,228,31625,6,0,L|240:268,2,60,4|0|0,0:0|0:0|0:0,0:0:0:0:
100,192,32257,2,0,L|100:256,2,60
192,80,32889,2,0,P|232:108|256:116,1,60
316,108,33204,2,0,P|352:80|368:56,1,60
432,76,33520,2,0,P|452:108|484:136,1,60
468,196,33836,6,0,P|400:244|376:292,1,120,0|4,0:0|0:0,0:0:0:0:
382,274,34310,1,0,0:0:0:0:
382,274,34468,1,0,0:0:0:0:
248,328,34783,2,0,L|248:264,2,60
104,308,35415,2,0,P|148:280|168:276,1,60
152,204,35731,2,0,P|92:184|76:184,1,60
108,112,36047,2,0,P|168:96|192:100,1,60
236,100,36362,6,0,P|304:108|356:128,1,120,0|4,0:0|0:0,0:0:0:0:
96,260,37310,1,4,0:0:0:0:
380,292,37941,6,0,P|324:272|256:296,1,120,4|4,0:0|0:0,0:0:0:0:
376,192,38573,2,0,P|320:212|263:196,1,120,4|4,0:0|0:0,0:0:0:0:
212,64,39204,2,0,L|156:88,1,60,4|0,0:0|0:0,0:0:0:0:
100,136,39520,2,0,L|76:184|64:208,1,60,4|0,0:0|0:0,0:0:0:0:
256,192,39836,12,0,41099,0:0:0:0:
200,132,41731,6,0,P|152:116|72:104,1,120,4|8,0:0|0:0,0:0:0:0:
128,244,42362,2,0,P|200:256|248:272,1,120,10|0,0:0|0:0,0:0:0:0:
348,168,42994,1,0,0:0:0:0:
348,168,43310,1,8,0:0:0:0:
444,276,43625,2,0,L|444:344,2,60,10|0|8,0:0|0:0|0:0,0:0:0:0:
444,132,44257,6,0,P|384:92|332:80,2,120,4|8|10,0:0|0:0|0:0,0:0:0:0:
312,192,45204,1,8,0:0:0:0:
232,80,45520,2,0,P|160:96|112:140,1,120,0|8,0:0|0:0,0:0:0:0:
212,240,46152,2,0,L|140:240,2,60,10|0|8,0:0|0:0|0:0,0:0:0:0:
348,292,46783,6,0,P|392:248|416:188,1,120,4|8,0:0|0:0,0:0:0:0:
324,84,47415,1,10,0:0:0:0:
180,108,47731,2,0,P|212:148|220:176,1,60,8|0,0:0|0:0,0:0:0:0:
196,224,48047,2,0,P|144:248|92:312,2,120,0|8|10,0:0|0:0|0:0,0:0:0:0:
336,192,48994,1,8,0:0:0:0:
248,80,49310,6,0,P|180:104|116:104,1,120,4|8,0:0|0:0,0:0:0:0:
140,248,49941,2,0,P|208:216|280:216,1,120,10|8,0:0|0:0,0:0:0:0:
392,256,50573,2,0,P|332:300|308:352,1,120,0|8,0:0|0:0,0:0:0:0:
168,320,51204,2,0,L|228:320,2,60,10|0|8,0:0|0:0|0:0,0:0:0:0:
164,176,51836,6,0,P|116:144|80:76,1,120,4|0,0:0|0:0,0:0:0:0:
228,68,52468,1,10,0:0:0:0:
280,68,52625,1,0,0:0:0:0:
332,68,52783,1,8,0:0:0:0:
356,212,53099,2,0,P|324:164|252:132,1,120,0|8,0:0|0:0,0:0:0:0:
172,232,53731,2,0,L|172:152,2,60,10|0|8,0:0|0:0|0:0,0:0:0:0:
204,92,54362,6,0,P|256:64|308:104,2,120,4|8|10,0:0|0:0|0:0,0:0:0:0:
192,236,55310,1,8,0:0:0:0:
324,176,55625,2,0,P|304:212|308:248,1,60
332,292,55941,2,0,P|376:312|408:316,1,60,8|0,0:0|0:0,0:0:0:0:
444,276,56257,2,0,P|464:236|464:200,2,60,10|0|8,0:0|0:0|0:0,0:0:0:0:
392,120,56889,6,0,P|320:92|292:44,1,120,4|0,0:0|0:0,0:0:0:0:
208,172,57520,1,10,0:0:0:0:
88,92,57836,1,8,0:0:0:0:
80,236,58152,2,0,P|112:280|188:304,1,120,0|8,0:0|0:0,0:0:0:0:
308,260,58783,2,0,P|352:208|416:188,1,120,10|0,0:0|0:0,0:0:0:0:
300,84,59415,6,0,P|224:104|168:80,2,120,4|8|10,0:0|0:0|0:0,0:0:0:0:
204,192,60362,2,0,P|228:244|216:312,1,120,8|0,0:0|0:0,0:0:0:0:
88,244,60994,1,8,0:0:0:0:
88,100,61310,2,0,P|132:72|156:68,1,60,10|0,0:0|0:0,0:0:0:0:
212,60,61625,2,0,P|264:60|296:72,1,60,8|0,0:0|0:0,0:0:0:0:
332,104,61941,6,0,P|344:164|328:208,1,90.0000034332277
264,192,62573,1,0,0:0:0:0:
264,192,62731,1,0,0:0:0:0:
188,192,62889,1,0,0:0:0:0:
188,192,63047,1,0,0:0:0:0:
188,264,63204,6,0,L|252:264,1,45.0000017166138
288,264,63520,2,0,L|340:264,1,45.0000017166138
388,264,63836,2,0,L|492:264,1,90.0000034332277
392,148,64468,1,4,0:0:0:0:
172,180,74573,6,0,P|248:152|304:152,1,120,0|4,0:0|0:0,0:0:0:0:
404,236,75204,1,0,0:0:0:0:
404,92,75520,1,4,0:0:0:0:
260,76,75836,2,0,P|188:88|124:120,1,120,0|4,0:0|0:0,0:0:0:0:
120,248,76468,2,0,L|120:172,2,60,4|0|4,0:0|0:0|0:0,0:0:0:0:
264,248,77099,6,0,P|320:284|348:348,1,120,4|0,0:0|0:0,0:0:0:0:
308,192,77731,2,0,P|256:144|244:88,1,120,0|4,0:0|0:0,0:0:0:0:
388,84,78362,1,0,0:0:0:0:
456,212,78678,1,4,0:0:0:0:
360,320,78994,2,0,L|284:320,2,60,4|0|4,0:0|0:0|0:0,0:0:0:0:
296,192,79625,6,0,P|252:140|200:120,1,120,0|4,0:0|0:0,0:0:0:0:
60,124,80257,2,0,L|60:200,2,60,0|0|4,0:0|0:0|0:0,0:0:0:0:
164,224,80889,2,0,P|188:168|256:124,1,120,0|4,0:0|0:0,0:0:0:0:
360,64,81520,2,0,L|384:120,1,60,4|0,0:0|0:0,0:0:0:0:
388,192,81836,2,0,L|364:252,1,60,4|0,0:0|0:0,0:0:0:0:
308,292,82152,6,0,P|264:240|216:220,1,120,0|4,0:0|0:0,0:0:0:0:
252,80,82783,2,0,L|172:80,2,60,0|0|4,0:0|0:0|0:0,0:0:0:0:
124,144,83415,2,0,P|124:216|148:268,1,120,0|4,0:0|0:0,0:0:0:0:
288,252,84047,1,4,0:0:0:0:
288,252,84204,1,0,0:0:0:0:
288,252,84362,1,4,0:0:0:0:
244,116,84678,6,0,P|296:108|364:128,2,120,0|4|0,0:0|0:0|0:0,0:0:0:0:
120,188,85625,1,4,0:0:0:0:
260,216,85941,2,0,P|336:240|388:236,1,120,0|4,0:0|0:0,0:0:0:0:
436,108,86573,2,0,L|436:172,2,60,4|0|4,0:0|0:0|0:0,0:0:0:0:
296,76,87204,6,0,P|232:72|168:76,1,120,0|4,0:0|0:0,0:0:0:0:
140,216,87836,2,0,L|140:284,2,60,0|0|4,0:0|0:0|0:0,0:0:0:0:
276,264,88468,2,0,P|336:248|400:272,1,120,0|4,0:0|0:0,0:0:0:0:
268,184,89099,2,0,L|268:120,2,60,4|0|4,0:0|0:0|0:0,0:0:0:0:
360,72,89731,6,0,P|388:132|392:188,1,120,0|4,0:0|0:0,0:0:0:0:
384,316,90362,2,0,P|356:300|324:300,1,60
256,312,90678,1,4,0:0:0:0:
136,232,90994,2,0,P|172:220|192:244,2,60,0|0|4,0:0|0:0|0:0,0:0:0:0:
248,144,91625,2,0,P|220:156|192:136,2,60,4|0|4,0:0|0:0|0:0,0:0:0:0:
372,72,92257,6,0,P|356:140|380:200,1,120,0|4,0:0|0:0,0:0:0:0:
420,324,92889,2,0,P|396:304|356:296,1,60
300,320,93204,2,0,P|264:312|240:288,1,60,4|0,0:0|0:0,0:0:0:0:
232,228,93520,2,0,P|184:208|112:208,1,120,0|4,0:0|0:0,0:0:0:0:
204,92,94152,2,0,L|272:92,2,60,0|0|0,0:0|0:0|0:0,0:0:0:0:
124,164,94783,6,0,B|100:212|100:212|128:252,1,90.0000034332277
148,288,95257,1,0,0:0:0:0:
200,308,95415,2,0,L|296:308,1,90.0000034332277
332,208,96047,1,0,0:0:0:0:
384,116,96362,2,0,B|408:112|408:112|436:132,2,45.0000017166138
284,72,96994,1,0,0:0:0:0:
188,124,97310,6,0,L|188:180,1,45.0000017166138
220,212,97625,2,0,L|276:212,1,45.0000017166138
308,244,97941,2,0,B|348:272|348:272|344:324,1,90.0000034332277
236,312,98573,1,0,0:0:0:0:
128,312,98889,1,0,0:0:0:0:
128,312,99204,1,0,0:0:0:0:
128,204,99520,1,0,0:0:0:0:
172,100,99836,6,0,L|212:140,1,45.0000017166138
260,132,100152,2,0,L|296:96,1,45.0000017166138
348,104,100468,2,0,B|380:136|380:136|380:196,1,90.0000034332277
312,264,101099,2,0,B|264:252|264:252|220:288,1,90.0000034332277
148,208,101731,2,0,B|148:160|148:160|108:120,1,90.0000034332277
216,84,102362,6,0,L|264:84,1,45.0000017166138
292,128,102678,2,0,L|332:168,1,45.0000017166138
300,208,102994,2,0,L|300:272,1,45.0000017166138
252,276,103310,2,0,L|208:320,1,45.0000017166138
172,288,103625,2,0,B|128:272|128:272|72:292,3,90.0000034332277
104,180,104889,2,0,L|104:124,1,45.0000017166138
156,124,105204,2,0,B|188:92|188:92|248:92,2,90.0000034332277
244,240,106152,6,0,P|304:228|368:232,1,120,4|8,0:0|0:0,0:0:0:0:
396,104,106783,2,0,P|336:124|276:132,1,120,10|8,0:0|0:0,0:0:0:0:
172,56,107415,1,0,0:0:0:0:
100,168,107731,1,8,0:0:0:0:
232,168,108047,2,0,L|296:168,2,60,10|0|8,0:0|0:0|0:0,0:0:0:0:
300,280,108678,6,0,P|232:284|172:304,2,120,4|8|10,0:0|0:0|0:0,0:0:0:0:
376,172,109625,1,8,0:0:0:0:
292,72,109941,2,0,P|272:124|220:168,1,120,0|8,0:0|0:0,0:0:0:0:
96,144,110573,1,10,0:0:0:0:
152,176,110731,1,0,0:0:0:0:
184,232,110889,1,8,0:0:0:0:
296,304,111204,6,0,P|252:284|180:316,1,120,4|8,0:0|0:0,0:0:0:0:
84,224,111836,1,10,0:0:0:0:
120,96,112152,2,0,L|184:96,1,60,8|0,0:0|0:0,0:0:0:0:
244,108,112468,2,0,P|324:128|368:160,2,120,0|8|10,0:0|0:0|0:0,0:0:0:0:
276,236,113415,1,8,0:0:0:0:
376,320,113731,6,0,P|360:268|376:196,1,120,4|8,0:0|0:0,0:0:0:0:
332,80,114362,2,0,P|352:144|328:208,1,120,10|8,0:0|0:0,0:0:0:0:
208,164,114994,2,0,P|148:180|96:224,1,120,0|8,0:0|0:0,0:0:0:0:
196,308,115625,2,8,L|256:308,2,60,10|8|8,0:0|0:0|0:0,0:0:0:0:
80,240,116257,6,0,P|64:184|88:120,1,120,4|8,0:0|0:0,0:0:0:0:
212,92,116889,2,0,L|212:164,1,60,10|0,0:0|0:0,0:0:0:0:
212,220,117204,1,8,0:0:0:0:
324,152,117520,2,0,P|308:212|328:280,1,120,0|8,0:0|0:0,0:0:0:0:
452,264,118152,2,0,L|452:200,2,60,10|0|8,0:0|0:0|0:0,0:0:0:0:
440,132,118783,6,0,P|376:108|324:148,2,120,4|8|10,0:0|0:0|0:0,0:0:0:0:
324,68,119731,1,8,0:0:0:0:
356,196,120047,2,0,P|352:240|336:272,1,60
300,300,120362,2,0,P|272:328|232:336,1,60,8|0,0:0|0:0,0:0:0:0:
212,284,120678,2,0,P|160:256|80:264,1,120,10|8,0:0|0:0,0:0:0:0:
160,140,121310,6,0,P|228:152|288:136,1,120,4|8,0:0|0:0,0:0:0:0:
408,156,121941,1,10,0:0:0:0:
308,72,122257,1,8,0:0:0:0:
304,204,122573,2,0,P|276:264|216:296,1,120,0|8,0:0|0:0,0:0:0:0:
168,176,123204,2,0,P|96:176|44:224,1,120,10|8,0:0|0:0,0:0:0:0:
136,92,123836,6,0,P|200:72|272:72,2,120,4|8|10,0:0|0:0|0:0,0:0:0:0:
240,172,124783,2,0,P|248:224|240:308,1,120,8|0,0:0|0:0,0:0:0:0:
116,320,125415,1,8,0:0:0:0:
80,192,125731,2,0,P|92:152|112:136,1,60,10|0,0:0|0:0,0:0:0:0:
164,108,126047,2,0,P|196:96|240:108,1,60,8|0,0:0|0:0,0:0:0:0:
256,156,126362,6,0,P|292:184|372:192,1,120,4|0,0:0|0:0,0:0:0:0:
420,312,126994,1,0,0:0:0:0:
420,312,127152,1,0,0:0:0:0:
420,312,127310,2,0,L|352:312,1,60
292,312,127625,2,0,L|216:312,1,60
164,308,127941,2,0,L|44:308,2,120
268,120,149099,5,0,0:0:0:0:
268,252,149415,2,0,L|268:132,1,120
152,196,150047,1,0,0:0:0:0:
228,88,150362,6,0,P|292:80|360:88,1,120,4|8,0:0|0:0,0:0:0:0:
428,188,150994,1,10,0:0:0:0:
296,188,151310,1,8,0:0:0:0:
216,292,151625,2,0,P|200:232|224:160,1,120,0|8,0:0|0:0,0:0:0:0:
124,76,152257,2,0,P|156:68|188:80,2,60,10|0|8,0:0|0:0|0:0,0:0:0:0:
128,208,152889,6,0,P|88:248|88:328,2,120,4|8|10,0:0|0:0|0:0,0:0:0:0:
256,168,153836,1,8,0:0:0:0:
356,84,154152,2,0,P|396:124|396:208,1,120,0|8,0:0|0:0,0:0:0:0:
304,272,154783,1,10,0:0:0:0:
268,328,154941,1,0,0:0:0:0:
228,276,155099,1,8,0:0:0:0:
228,144,155415,6,0,P|164:128|120:84,1,120,4|8,0:0|0:0,0:0:0:0:
76,216,156047,1,10,0:0:0:0:
172,304,156362,2,0,P|204:280|240:280,1,60,8|0,0:0|0:0,0:0:0:0:
288,292,156678,2,0,P|348:288|396:244,2,120,0|8|10,0:0|0:0|0:0,0:0:0:0:
348,172,157625,1,8,0:0:0:0:
236,100,157941,6,4,P|176:100|128:148,1,120,4|0,0:0|0:0,0:0:0:0:
160,268,158573,1,10,0:0:0:0:
284,220,158889,1,8,0:0:0:0:
376,316,159204,2,0,P|356:264|384:192,1,120,0|8,0:0|0:0,0:0:0:0:
372,72,159836,1,10,0:0:0:0:
372,72,159994,1,0,0:0:0:0:
372,72,160152,1,8,0:0:0:0:
252,128,160468,6,0,L|252:248,1,120,4|8,0:0|0:0,0:0:0:0:
120,228,161099,2,0,P|96:200|88:172,1,60,10|0,0:0|0:0,0:0:0:0:
84,112,161415,1,8,0:0:0:0:
200,44,161731,2,0,P|260:48|320:80,1,120,0|8,0:0|0:0,0:0:0:0:
372,192,162362,1,10,0:0:0:0:
372,192,162520,1,0,0:0:0:0:
316,224,162678,2,0,P|272:240|256:256,1,60,8|0,0:0|0:0,0:0:0:0:
200,264,162994,6,0,P|152:244|80:272,2,120,12|8|10,0:0|0:0|0:0,0:0:0:0:
264,148,163941,1,8,0:0:0:0:
168,56,164257,2,0,L|116:108,1,60
168,148,164573,2,0,L|168:216,1,60,8|0,0:0|0:0,0:0:0:0:
232,216,164889,2,0,P|268:280|328:312,1,120,10|8,0:0|0:0,0:0:0:0:
408,220,165520,6,0,P|404:156|372:104,1,120,4|8,0:0|0:0,0:0:0:0:
248,72,166152,2,0,P|164:80|120:108,1,120,10|8,0:0|0:0,0:0:0:0:
212,200,166783,1,0,0:0:0:0:
336,240,167099,1,8,0:0:0:0:
256,344,167415,2,0,P|188:320|156:264,1,120,10|8,0:0|0:0,0:0:0:0:
100,164,168047,6,0,P|152:144|216:168,2,120,4|8|10,0:0|0:0|0:0,0:0:0:0:
180,60,168994,1,8,0:0:0:0:
312,80,169310,2,0,P|348:136|424:148,1,120,0|10,0:0|0:0,0:0:0:0:
380,284,169941,2,0,L|332:236,1,60,10|0,0:0|0:0,0:0:0:0:
288,200,170257,2,0,L|224:200,1,60,8|0,0:0|0:0,0:0:0:0:
168,232,170573,6,0,P|128:280|88:292,1,90.0000034332277,4|0,0:0|0:0,0:0:0:0:
52,204,171204,1,0,0:0:0:0:
56,104,171520,2,0,P|88:72|96:72,2,45.0000017166138
144,148,172152,2,0,P|188:144|224:104,1,90.0000034332277
316,96,172783,1,0,0:0:0:0:
376,176,173099,6,0,P|356:220|368:304,1,120
228,300,173731,2,0,L|160:284,1,60
184,220,174047,2,0,L|156:160,1,60
224,160,174362,2,0,P|288:144|320:88,2,120
356,160,175310,2,0,B|336:200|336:200|372:204|372:204|352:264,1,120
316,80,185731,6,0,P|336:136|380:176,1,120,4|4,0:0|0:0,0:0:0:0:
324,296,186362,1,0,0:0:0:0:
192,288,186678,1,0,0:0:0:0:
84,212,186994,1,0,0:0:0:0:
76,80,187310,2,0,P|144:48|216:52,2,120,0|4|0,0:0|0:0|0:0,0:0:0:0:
188,152,188257,6,0,P|256:176|304:232,1,120,4|0,0:0|0:0,0:0:0:0:
336,332,188889,2,0,P|392:304|444:240,1,120
432,132,189520,1,0,0:0:0:0:
316,68,189836,2,0,L|188:68,2,120,0|4|0,0:0|0:0|0:0,0:0:0:0:
292,196,190783,6,0,P|240:240|164:252,1,120,4|0,0:0|0:0,0:0:0:0:
72,192,191415,2,0,P|84:136|140:68,2,120
196,148,192362,1,0,0:0:0:0:
320,96,192678,1,4,0:0:0:0:
448,120,192994,1,0,0:0:0:0:
420,248,193310,6,0,P|344:232|296:248,1,120,4|0,0:0|0:0,0:0:0:0:
180,196,193941,2,0,P|136:152|124:72,1,120
252,80,194573,2,0,P|328:96|376:136,1,120
312,244,195204,2,0,L|312:336,2,90
