osu file format v9

[General]
AudioFilename: 96neko,Len - Happy Synthesizer [English Lyrics].mp3
AudioLeadIn: 0
PreviewTime: -1
Countdown: 1
SampleSet: Normal
StackLeniency: 0.7
Mode: 0
LetterboxInBreaks: 1

[Editor]
DistanceSpacing: 0.8
BeatDivisor: 4
GridSize: 4

[Metadata]
Title:Happy Synthesizer
Artist:96 neko, Kagamine Len
Creator:ilovejeshua
Version:Normal
Source:EasyPop
Tags:kuroneko, 96 neko, len, gumi, luka, Megapoid GUMI & Megurine Luka,

[Difficulty]
HPDrainRate:5
CircleSize:4
OverallDifficulty:6
ApproachRate:5
SliderMultiplier:1.4
SliderTickRate:1

[Events]
//Background and Video events
0,0,"96neko_by_luluseason-d3ab96t.jpg"
//Break Periods
2,11124,25315
//Storyboard Layer 0 (Background)
//Storyboard Layer 1 (Fail)
//Storyboard Layer 2 (Pass)
//Storyboard Layer 3 (Foreground)
//Storyboard Sound Samples
//Background Colour Transformations
3,100,163,162,255

[TimingPoints]
1476,472.44094488189,4,1,0,100,1,0

[HitObjects]
56,56,3365,1,0
116,56,3602,1,0
176,60,3838,2,2,B|252:36|296:76|332:56,1,140
324,172,4783,6,2,B|248:196|204:156|168:176,1,140
40,168,5727,2,0,B|40:252,3,70,0|8|8|0
156,216,6672,5,0
136,332,7145,1,8
264,332,7617,6,0,B|324:264|324:264|272:216,3,140,0|8|0|8
280,112,9507,6,0,B|224:20|156:128,3,140,0|2|0|2
368,96,26515,6,0,B|288:8|216:104|96:32,1,280,8|8
56,128,27932,5,0
196,204,28405,5,0
216,244,28641,5,0
236,276,28877,5,8
256,312,29113,5,0
280,344,29350,6,0,B|356:324|324:224,1,140,0|8
292,128,30294,6,8,B|232:84|232:84|184:136,1,140
108,68,31003,1,0
64,152,31239,1,0
188,128,31476,6,8,B|232:84|232:84|296:136,1,140
388,132,32184,5,0
468,200,32420,2,0,B|468:256,1,35,0|8
392,248,32775,2,8,B|392:304,1,35
64,104,34074,6,2,B|208:44|344:116,1,280
292,132,35255,5,0
252,152,35491,5,0
220,172,35727,5,2
184,192,35963,5,0
152,216,36200,6,0,B|176:296|176:296,5,70,0|2|0|2|0|2
408,248,37853,6,0,B|380:200|380:200|324:264,3,140,0|8|0|8
256,312,39507,1,0
164,260,39743,2,2,B|92:200|176:124,3,140
260,232,41633,6,8,B|400:232|380:16,1,280
260,92,43050,1,0
264,232,43523,6,8,B|124:232|144:16,1,280
260,92,44940,1,0
384,112,45413,6,0,B|348:160,4,35,2|8|2|8|2
448,184,46121,1,0
364,240,46357,2,0,B|244:332,1,140,0|8
168,264,47066,1,2
92,192,47302,2,0,B|204:76|364:192,1,280,0|2
68,84,49192,6,0,B|132:36,3,70,8|0|8|0
216,40,50137,6,0,B|292:104|192:168,1,140,0|8
144,216,50846,5,0
232,276,51082,2,8,B|324:332|372:248,1,140
408,196,51790,5,0
352,108,52027,2,8,B|288:32|216:128,1,140
60,56,52972,5,8
60,56,53208,5,0
60,56,53444,5,8
60,56,53680,5,0
60,56,53916,6,2,B|116:96|36:136|108:192,1,140
192,184,54625,5,0
96,184,54861,6,2,B|152:224|72:264|144:320,1,140
132,309,55570,5,0
132,309,55806,5,8
144,40,56751,6,0,B|64:96|168:172,1,140
224,36,57696,6,0,B|320:96|224:172,1,140
144,156,58641,6,8,B|48:216|144:292,1,140
248,152,59586,6,8,B|344:212|248:288,1,140
184,312,60294,5,0
184,232,60531,2,0,B|236:164|152:144|200:72,3,140,0|2|0|2
264,48,62184,5,0
356,72,62420,2,0,B|424:124|444:40|516:88,3,140,2|0|2|0
224,44,64310,5,8
224,44,64546,2,0,B|220:132,2,70,0|0|8
132,36,65255,2,0,B|88:64,1,35
48,120,65609,2,8,B|112:172|36:192|72:240,1,105
156,216,66200,6,0,B|208:152|228:228|292:188,3,140,8|0|8|0
388,196,67853,1,8
392,336,68090,2,0,B|388:188,3,140,0|0|0|8
376,116,69743,1,0
300,56,69979,1,8
376,116,70216,1,0
300,56,70452,1,8
376,116,70688,1,0
124,56,72105,5,0
124,56,72342,2,0,B|24:92|116:172,1,140
200,168,73168,1,0
124,56,73523,1,8
200,168,73995,5,0
200,168,74232,2,0,B|300:204|208:284,1,140
124,280,75058,1,0
200,168,75413,1,8
320,136,75885,6,0,B|384:104|308:68,2,70,0|4|0
424,152,76594,2,0,B|472:212|416:228|452:300,1,140,0|8
340,296,77302,1,0
240,292,77538,2,0,B|180:340|164:284|96:308,3,140,0|8|0|8
92,244,79664,5,8
92,244,79900,2,0,B|144:188|44:144|120:96,1,140
236,108,80727,1,8
236,240,81082,1,8
380,244,81554,5,2
380,244,81790,2,0,B|328:188|428:144|352:96,1,140
236,108,82617,1,2
236,240,82972,1,2
68,176,83444,6,8,B|148:176,1,70
160,176,83916,2,2,B|240:176,1,70
272,176,84389,2,0,B|348:176,3,70,8|2|2|2
436,112,85334,1,8
440,216,85570,1,2
440,216,85806,1,4
448,104,90767,6,2,B|304:44|168:116,1,280
220,132,91948,5,0
260,152,92184,5,0
292,172,92420,5,2
328,192,92656,5,0
360,216,92893,6,0,B|336:296|336:296,5,70,0|2|0|2|0|2
104,248,94546,6,0,B|132:200|132:200|188:264,3,140,0|8|0|8
256,312,96200,1,0
348,260,96436,2,2,B|420:200|336:124,3,140
252,232,98326,6,8,B|112:232|132:16,1,280
252,92,99743,1,0
248,228,100216,6,8,B|388:228|368:12,1,280
252,88,101633,1,0
128,108,102106,6,0,B|164:156,4,35,2|8|2|8|2
64,180,102814,1,0
148,236,103050,2,0,B|268:328,1,140,0|8
344,260,103759,1,2
420,188,103995,2,0,B|308:72|148:188,1,280,0|2
444,80,105885,6,0,B|380:32,3,70,8|0|8|0
296,36,106830,6,0,B|220:100|320:164,1,140,0|8
368,212,107539,5,0
280,272,107775,2,8,B|188:328|140:244,1,140
104,192,108483,5,0
160,104,108720,2,8,B|224:28|296:124,1,140
452,52,109665,5,8
452,52,109901,5,0
452,52,110137,5,8
452,52,110373,5,0
452,52,110609,6,2,B|396:92|476:132|404:188,1,140
320,180,111318,5,0
416,180,111554,6,2,B|360:220|440:260|368:316,1,140
380,305,112263,5,0
380,305,112499,5,8
368,36,113444,6,0,B|448:92|344:168,1,140
288,32,114389,6,0,B|192:92|288:168,1,140
368,152,115334,6,8,B|464:212|368:288,1,140
264,148,116279,6,8,B|168:208|264:284,1,140
292,260,116987,5,0
328,228,117224,2,0,B|276:160|360:140|312:68,3,140,0|2|0|2
248,44,118877,5,0
156,68,119113,2,0,B|88:120|68:36|-4:84,3,140,2|0|2|4
344,48,121003,6,0,B|392:72|352:100,1,70
272,148,121476,1,8
360,200,121712,1,0
284,268,121948,2,0,B|224:236|164:276|128:232,2,140,8|0|0
360,200,123129,1,0
280,172,123365,1,0
180,136,123601,1,0
88,92,123838,2,0,B|132:60|168:88|236:64,1,140
