osu file format v9

[General]
AudioFilename: 96neko,Len - Happy Synthesizer [English Lyrics].mp3
AudioLeadIn: 0
PreviewTime: -1
Countdown: 1
SampleSet: Normal
StackLeniency: 0.7
Mode: 0
LetterboxInBreaks: 1

[Editor]
DistanceSpacing: 0.8
BeatDivisor: 8
GridSize: 4

[Metadata]
Title:Happy Synthesizer
Artist:96 neko, Kagamine Len
Creator:ilovejeshua
Version:Hard
Source:EasyPop
Tags:kuroneko, 96 neko, happy, synthesizer, len, duet, gumi, luka

[Difficulty]
HPDrainRate:6
CircleSize:4
OverallDifficulty:6
ApproachRate:7
SliderMultiplier:1.4
SliderTickRate:1

[Events]
//Background and Video events
0,0,"96neko_by_luluseason-d3ab96t.jpg"
//Break Periods
2,11124,25615
//Storyboard Layer 0 (Background)
//Storyboard Layer 1 (Fail)
//Storyboard Layer 2 (Pass)
//Storyboard Layer 3 (Foreground)
//Storyboard Sound Samples
//Background Colour Transformations
3,100,163,162,255

[TimingPoints]
1476,472.44094488189,4,1,0,100,1,0

[HitObjects]
96,128,3365,1,8
144,80,3601,1,8
192,128,3838,2,0,B|208:168|248:132,1,70
288,88,4310,5,0
332,128,4546,1,8
376,168,4783,6,0,B|400:200|340:216,1,70
344,216,5137,1,8
276,220,5373,1,0
248,220,5491,1,8
96,128,5727,5,8
144,80,5963,1,0
192,128,6200,2,0,B|208:168|176:188,1,70
252,160,6672,1,8
312,128,6909,1,0
312,128,7027,1,8
388,112,7381,5,0
392,192,7617,6,0,B|332:244,1,70
392,192,8090,6,2,B|440:244,1,70
392,192,8562,6,0,B|448:132,1,70
392,192,9035,6,2,B|328:144,1,70
296,100,9507,5,4
232,80,9743,1,0
172,116,9979,1,4
192,176,10216,2,0,B|196:224|256:200,3,70,0|4|8|4
124,68,26515,6,8,B|148:108|148:108|168:64|168:64|200:108,2,140
60,104,27696,1,0
88,164,27932,1,8
144,216,28168,2,0,B|156:240|184:232|216:208,2,70,8|0|8
88,260,28877,1,0
120,316,29113,1,8
188,316,29350,2,2,B|212:272|212:272|236:320|236:320|268:284,1,140
300,316,30294,5,8
344,284,30531,1,2
388,320,30767,1,0
440,284,31003,1,8
456,236,31239,2,2,B|464:172|396:152|356:156,1,140
312,152,31948,1,0
264,152,32184,1,8
184,168,32420,1,8
176,204,32538,1,8
104,220,32775,1,4
92,256,32893,1,4
124,68,34074,6,8,B|148:108|148:108|168:64|168:64|200:108,2,140
60,104,35255,1,0
88,164,35491,1,8
144,216,35727,2,0,B|156:240|184:232|216:208,2,70,8|0|8
88,260,36436,1,0
120,316,36672,1,8
188,316,36909,2,2,B|212:272|212:272|236:320|236:320|268:284,1,140
392,248,37853,5,8
344,284,38090,1,2
388,320,38326,1,0
440,284,38562,1,8
456,236,38798,2,2,B|464:172|396:152|356:156,1,140
312,152,39507,1,0
264,152,39743,1,8
184,168,39979,1,8
176,204,40097,1,8
104,220,40334,1,4
92,256,40452,1,4
48,52,41633,6,0,B|72:88,1,35
128,56,41987,2,0,B|152:84,1,35,8|0
208,60,42342,2,0,B|232:92,1,35,0|8
260,148,42696,2,2,B|256:196|232:216|232:216,1,70
164,184,43287,1,8
136,168,43405,1,0
112,152,43523,1,0
48,200,43759,1,10
48,200,43877,2,2,B|84:236|84:236,1,52.5
216,256,44350,2,4,B|280:200,2,70
48,332,45413,6,0,B|72:296,1,35
128,328,45767,2,0,B|152:300,1,35
208,324,46122,2,0,B|232:292,1,35
260,236,46476,2,2,B|256:188|232:168|232:168,1,70
164,200,47067,1,0
136,216,47185,1,0
112,232,47303,1,0
48,184,47539,1,2
48,184,47657,2,2,B|84:148|84:148,1,52.5
216,128,48129,2,4,B|280:184,2,70
60,36,49192,6,0,B|136:36,2,70
60,104,49901,1,0
88,164,50137,1,8
144,216,50373,2,0,B|156:240|184:232|216:208,2,70,8|0|8
88,260,51082,1,0
120,316,51318,1,8
188,316,51555,2,2,B|212:272|212:272|236:320|236:320|268:284,2,140
392,248,52972,5,8
344,284,53209,1,2
388,320,53445,1,0
440,284,53681,1,8
456,236,53917,2,2,B|464:172|396:152|356:156,1,140
312,152,54626,1,0
264,152,54862,1,8
184,168,55098,1,8
176,204,55216,1,8
80,252,55452,1,4
176,328,55688,1,4
48,40,56751,5,8
112,40,56987,1,0
168,100,57224,2,0,B|180:132|220:128|232:104,1,70,0|8
200,184,57696,2,0,B|172:216|140:212|116:164,1,105,0|8
108,260,58287,1,0
156,280,58405,1,8
280,292,58641,6,0,B|304:280|336:320|332:280|352:316,2,70,0|8|0
344,228,59350,1,0
248,184,59586,1,8
320,148,59822,1,4
320,148,59940,1,4
48,40,60294,5,8
112,40,60530,1,0
168,100,60767,2,0,B|180:132|220:128|232:104,1,70,0|8
200,184,61239,2,0,B|172:216|140:212|140:184,1,70,0|8
72,216,61712,1,0
108,260,61830,1,0
156,280,61948,1,8
280,292,62184,6,0,B|304:280|336:320|332:280|352:316,2,70,0|8|0
344,228,62893,1,0
248,184,63129,1,8
48,40,64310,5,8
112,40,64546,1,0
168,100,64783,2,0,B|180:132|220:128|232:104,1,70,0|8
200,184,65255,2,0,B|172:216|140:212|116:164,1,105,0|8
108,260,65846,1,0
156,280,65964,1,8
280,292,66200,6,0,B|304:280|336:320|332:280|352:316,2,70,0|8|0
344,228,66909,1,0
248,184,67145,1,8
320,148,67381,1,4
320,148,67499,1,4
168,44,67853,5,0
216,100,68090,2,0,B|244:56|296:104|296:104|308:84|336:80,2,140,8|0|8
160,132,69271,1,0
172,188,69507,1,8
216,224,69743,1,0
276,236,69979,2,4,B|304:204|344:232|336:276|284:292|264:268,1,140
216,320,70688,1,8
72,48,72105,5,0
124,104,72342,2,0,B|164:64|208:60|224:84|236:112,1,140
352,120,73050,1,0
384,72,73168,1,0
440,140,73405,1,0
468,92,73523,1,0
432,264,73995,5,0
356,300,74231,2,0,B|344:252|280:248|248:304,1,140
168,260,74940,1,0
144,304,75058,1,0
68,248,75295,1,0
48,300,75413,1,0
48,40,75885,5,8
112,40,76121,1,0
168,100,76358,2,0,B|180:132|220:128|232:104,1,70,0|8
200,184,76830,2,0,B|172:216|140:212|140:184,1,70,0|8
72,216,77303,1,0
108,260,77421,1,0
156,280,77539,1,8
280,292,77775,2,0,B|304:280|336:320|332:280|352:316,2,70,0|8|0
344,304,79664,5,2
444,248,79901,1,0
356,192,80137,1,2
452,132,80373,1,0
360,64,80609,2,0,B|328:96,1,35,2|0
304,72,80964,2,0,B|344:96,1,35,2|0
88,300,81554,5,2
188,244,81791,1,0
100,188,82027,1,2
196,128,82263,1,0
104,60,82499,2,0,B|72:92,1,35,2|0
48,68,82854,2,0,B|88:92,1,35,2|0
232,56,83444,5,8
320,96,83680,2,2,B|348:116|352:128|348:144|328:160,1,70,10|10
240,184,84153,1,8
152,232,84389,1,2
112,272,84507,1,8
136,320,84625,1,2
240,328,84861,1,8
340,284,85098,2,8,B|312:248|312:248|376:256|376:256|348:212|348:212|404:232,1,210,8|12
124,68,90767,6,8,B|148:108|148:108|168:64|168:64|200:108,2,140
60,104,91948,1,0
88,164,92184,1,8
144,216,92420,2,0,B|156:240|184:232|216:208,2,70,8|0|8
88,260,93129,1,0
120,316,93365,1,8
188,316,93602,2,2,B|212:272|212:272|236:320|236:320|268:284,1,140
120,248,94546,5,8
168,284,94783,1,2
124,320,95019,1,0
72,284,95255,1,8
56,236,95491,2,2,B|48:172|116:152|156:156,1,140
200,152,96200,1,0
248,152,96436,1,8
328,168,96672,1,8
336,204,96790,1,8
408,220,97027,1,4
420,256,97145,1,4
56,52,98326,5,0
120,96,98562,2,8,B|152:164|180:160|200:96|196:68|244:60|280:92,1,210
260,148,99389,2,2,B|256:196|232:216|232:216,1,70
164,184,99980,1,8
136,168,100098,1,0
112,152,100216,1,0
48,200,100452,1,10
48,200,100570,2,2,B|100:256|100:256,1,70
216,256,101043,2,4,B|280:200,2,70
160,72,102105,6,8,B|120:88|84:128|132:184,1,140
232,208,102814,1,0
304,160,103050,1,8
300,116,103168,1,8
296,84,103287,2,8,B|260:84|240:44,1,70,8|10
160,72,103759,6,8,B|120:88|84:128|132:184,1,140
232,208,104468,1,0
304,160,104704,1,8
344,128,104822,1,8
384,92,104940,1,8
76,40,105885,6,0,B|112:64,1,35
80,120,106239,2,0,B|108:144,1,35
84,200,106594,2,0,B|116:224,1,35
172,252,106948,2,2,B|220:248|240:224|240:224,1,70
208,156,107539,1,0
192,128,107657,1,0
176,104,107775,1,0
224,40,108011,1,2
224,40,108129,2,2,B|260:76|260:76,1,52.5
280,208,108601,2,4,B|224:272,2,70
232,328,109664,5,8
320,288,109900,2,2,B|348:268|352:256|348:240|328:224,1,70,10|10
248,200,110373,1,8
164,160,110609,1,2
124,120,110727,1,8
148,72,110845,1,2
240,56,111081,1,8
340,100,111318,2,8,B|312:136|312:136|376:128|376:128|348:172|348:172|404:152,1,210,8|8
464,208,112263,1,2
404,280,112499,2,0,B|392:224|312:232|332:156,1,140,8|4
424,60,113444,5,8
380,64,113562,1,8
328,72,113680,1,2
280,76,113798,2,8,B|240:68|264:140|204:144|204:144,1,105
208,144,114271,1,2
104,220,114507,1,8
204,288,114743,1,2
320,300,115098,5,0
352,256,115216,1,0
384,220,115334,1,2
384,136,115570,2,0,B|392:96|320:120|316:60|316:60,1,105
220,64,116161,1,2
128,136,116397,1,4
228,200,116633,1,4
60,36,117224,6,0,B|136:36,2,70
60,104,117933,1,0
88,164,118169,1,8
144,216,118405,2,0,B|156:240|184:232|216:208,2,70,8|0|8
88,260,119114,1,0
120,316,119350,1,8
188,316,119587,2,2,B|212:272|212:272|236:320|236:320|268:284,2,140
40,56,121003,6,2,B|68:104|108:128|132:72|148:48,1,140,8|8
192,84,121712,1,8
244,36,121948,2,2,B|288:48|312:100|288:128|288:128,1,105,8|8
200,168,122538,1,8
184,212,122657,1,2
280,264,122893,6,2,B|344:244|352:240,1,70,10|10
392,172,123365,2,2,B|396:96,1,70,10|10
328,56,123838,2,4,B|280:56,1,35
184,56,124192,1,4
48,104,124546,5,8
112,152,124782,1,0
188,148,125019,2,0,B|200:180|240:176|252:152,1,70,0|8
256,232,125491,2,0,B|228:264|196:260|196:232,1,70,0|8
108,276,125964,1,0
144,320,126082,1,0
192,340,126200,1,8
328,320,126436,6,0,B|352:308|384:348|380:308|400:344,2,70,0|8|0
344,228,127145,1,0
248,184,127381,1,8
24,32,128562,6,0,B|36:56|56:80|64:92|64:92,3,70,8|2|8|2
124,156,129507,5,8
148,184,129625,1,8
176,208,129743,1,2
216,232,129861,2,8,B|236:216|228:164|280:208|280:208|280:208|280:208,2,87.5
156,288,130688,1,0
264,336,130924,1,8
360,284,131161,1,0
256,224,131397,2,8,B|192:140|144:236,1,140,8|4
40,220,132105,5,0
40,112,132342,2,0,B|80:84|116:124|116:124|160:84,1,140
220,180,133050,1,0
304,96,133287,1,0
336,136,133405,1,0
364,160,133523,1,0
388,192,133641,1,0
408,216,133759,1,0
384,312,133995,5,0
280,312,134231,2,0,B|236:264|188:316|164:248,2,140
72,48,136357,5,8
124,104,136594,2,8,B|164:64|208:60|224:84|236:112,1,140,8|8
352,120,137302,1,0
384,72,137420,1,8
440,140,137657,1,0
468,92,137775,1,8
432,264,138247,5,0
356,300,138483,2,0,B|344:252|280:248|248:304,1,140
168,260,139192,1,8
144,304,139310,1,0
68,248,139547,1,8
48,300,139665,1,0
48,40,140137,5,8
112,40,140373,1,0
168,100,140610,2,0,B|180:132|220:128|232:104,1,70,0|8
200,184,141082,2,0,B|172:216|140:212|140:184,1,70,0|8
72,216,141555,1,0
108,260,141673,1,0
156,280,141791,1,8
280,292,142027,2,0,B|304:280|336:320|332:280|352:316,2,70,0|8|0
344,304,143916,5,2
444,248,144153,1,0
356,192,144389,1,2
452,132,144625,1,0
360,64,144861,2,0,B|328:96,1,35,2|0
304,72,145216,2,0,B|344:96,1,35,2|0
88,300,145806,5,2
188,244,146043,1,0
100,188,146279,1,2
196,128,146515,1,0
104,60,146751,2,0,B|72:92,1,35,2|0
48,68,147106,2,0,B|88:92,1,35,2|0
232,56,147696,5,8
320,96,147932,2,2,B|348:116|352:128|348:144|328:160,1,70,10|10
240,184,148405,1,8
152,232,148641,1,2
112,272,148759,1,8
136,320,148877,1,2
240,328,149113,1,8
340,284,149350,2,8,B|312:248|312:248|376:256|376:256|348:212|348:212|404:232,1,210,8|12
88,52,151239,5,8
132,52,151357,1,8
184,52,151475,1,8
288,52,151712,2,2,B|316:64|324:92|284:108,1,70
292,192,152184,5,2
240,192,152302,1,2
196,192,152420,1,2
96,196,152657,2,8,B|68:208|60:236|100:252,1,70
172,288,153129,6,0,B|208:288,6,35,8|2|8|2|8|2|8
172,288,153956,2,0,B|152:272|152:272|184:260|184:260|152:248|152:248|184:232|184:232|140:228,1,175,0|4
60,144,155019,6,8,B|80:104,1,35
184,148,155373,2,8,B|196:112,1,35
320,124,155727,1,8
320,124,155846,1,8
320,124,155964,2,4,B|304:164,4,35
392,224,156909,5,2
344,224,157027,1,2
296,224,157145,1,2
240,224,157263,2,2,B|236:204|212:176|176:176|164:216|164:232,3,105,2|6|2|6
48,40,158798,5,8
112,40,159034,1,0
168,100,159271,2,0,B|180:132|220:128|232:104,1,70,0|8
200,184,159743,2,0,B|172:216|140:212|140:184,1,70,0|8
72,216,160216,1,0
108,260,160334,1,0
156,280,160452,1,8
280,292,160688,2,0,B|304:280|336:320|332:280|352:316,4,70
80,76,162578,6,0,B|100:56|144:48|200:48|216:76,2,140,4|0|4
72,120,163759,1,0
88,176,163877,1,8
132,212,163995,1,0
176,232,164113,2,0,B|216:232|216:232,2,35,8|8|8
196,296,164468,2,0,B|216:324|268:296|284:236|312:232,3,140,4|0|4|8
48,40,168247,5,8
112,40,168483,1,0
168,100,168720,2,0,B|180:132|220:128|232:104,1,70,0|8
200,184,169192,2,0,B|172:216|140:212|116:164,1,105,0|8
108,260,169783,1,0
156,280,169901,1,8
280,292,170137,6,0,B|304:280|336:320|332:280|352:316,2,70,0|8|0
344,228,170846,1,0
248,184,171082,1,8
320,148,171318,1,4
320,148,171436,1,4
168,44,171790,5,0
248,92,172027,2,0,B|276:48|328:96|328:96|340:76|368:72,2,140,8|0|8
152,128,173208,1,0
152,160,173326,1,8
160,200,173444,1,0
176,224,173562,1,8
200,240,173680,1,0
236,252,173798,1,8
280,256,173916,2,4,B|308:224|348:252|340:296|288:312|268:288,1,140
172,324,174625,1,8
40,56,175806,6,2,B|68:104|108:128|132:72|148:48,1,140,8|8
192,84,176515,1,8
244,36,176751,2,2,B|288:48|312:100|288:128|288:128,1,105,8|8
200,168,177341,1,8
184,212,177460,1,2
280,264,177696,6,2,B|344:244|352:240,1,70,10|10
392,172,178168,2,2,B|396:96,1,70,10|10
328,56,178641,2,4,B|280:56,1,35
184,56,178995,1,4
48,104,179349,5,8
112,152,179585,1,0
188,148,179822,2,0,B|200:180|240:176|252:152,1,70,0|8
256,232,180294,2,0,B|228:264|196:260|196:232,1,70,0|8
108,276,180767,1,0
144,320,180885,1,0
192,340,181003,1,8
328,320,181239,6,0,B|352:308|384:348|380:308|400:344,2,70,0|8|0
344,228,181948,1,0
248,184,182184,1,8
220,288,183601,5,8
220,288,183838,2,2,B|276:216|176:216|196:160,1,140
308,128,184546,1,8
332,176,184664,1,8
412,112,184901,2,4,B|428:152,1,35
224,288,185491,5,8
224,288,185728,2,2,B|168:216|268:216|248:160,1,140
136,128,186436,1,8
112,176,186554,1,8
32,112,186791,2,4,B|16:152,1,35
272,88,187381,6,0,B|268:56|324:56|324:96,3,70
352,152,188326,5,0
352,200,188444,1,0
328,232,188562,1,0
292,240,188680,1,0
248,240,188798,1,0
200,240,188916,1,0
196,188,189035,1,0
252,64,189271,5,0
352,152,189507,1,0
196,188,189743,5,0
72,64,191161,5,2
72,64,191397,2,8,B|140:64|136:152|80:168,1,140
244,172,192105,1,8
280,216,192224,1,8
288,108,192460,1,2
324,152,192579,1,2
92,292,193050,5,4
92,292,193168,1,4
92,292,193287,2,8,B|148:292|144:208|208:208,1,140
264,304,193995,2,0,B|280:272,4,35,0|8|0|8|0
64,60,194940,6,8,B|100:60,3,23.3333333333333
128,188,195413,1,2
192,48,195649,2,0,B|248:48|248:132|168:120,1,140,2|8
248,216,196357,1,0
336,128,196594,2,0,B|280:128|280:44|360:56,2,140,4|0|4
464,40,198483,5,8
400,40,198719,1,0
344,100,198956,2,0,B|332:132|292:128|280:104,1,70,0|8
312,184,199428,2,0,B|340:216|372:212|396:164,1,105,0|8
404,260,200019,1,0
356,280,200137,1,8
232,292,200373,6,0,B|208:280|176:320|180:280|160:316,2,70,0|8|0
168,228,201082,1,0
264,184,201318,1,8
192,148,201554,1,4
192,148,201672,1,4
464,40,202026,5,8
400,40,202262,1,0
344,100,202499,2,0,B|332:132|292:128|280:104,1,70,0|8
312,184,202971,2,0,B|340:216|372:212|372:184,1,70,0|8
440,216,203444,1,0
404,260,203562,1,0
356,280,203680,1,8
232,292,203916,6,0,B|208:280|176:320|180:280|160:316,2,70,0|8|0
168,228,204625,1,0
264,184,204861,1,8
224,192,206042,5,2
108,120,206279,1,8
112,64,206397,1,8
168,84,206515,1,8
280,80,206751,1,8
332,64,206869,1,8
324,104,206987,2,8,B|364:140|364:200|320:228,1,140
323,225,207696,1,2
160,136,207932,6,8,B|120:172|192:192|148:272,1,140
150,267,208641,5,2
152,268,208877,6,8,B|188:308|208:236|288:280,1,140
348,184,209586,5,8
304,160,209704,1,0
248,152,209822,2,8,B|136:156|120:216,1,140
40,120,210531,5,0
136,64,210767,2,0,B|184:64,4,35,0|8|0|8|0
280,100,211476,1,0
236,216,211712,6,0,B|216:256|168:224,1,70,0|8
176,332,212184,2,0,B|156:300|108:332,1,70,0|8
112,220,212657,2,0,B|92:260|44:228,1,70,0|8
52,56,213838,5,2
88,56,213956,1,0
132,56,214074,1,2
264,52,214310,1,0
264,52,214546,2,2,B|248:120|248:120,1,70
236,160,214901,1,0
368,56,215137,1,0
360,108,215255,1,2
56,112,215727,5,0
56,112,215964,2,0,B|112:56|192:96,1,140,0|2
120,168,216672,2,0,B|168:168,1,35,0|2
64,224,217027,2,0,B|112:224,1,35,0|2
220,136,217617,6,0,B|244:104|292:128,3,70,8|4|8|4
256,264,218562,1,8
292,232,218680,1,0
324,208,218798,1,8
344,80,219035,6,0,B|264:84|264:84,4,70
96,128,221397,5,8
144,80,221633,1,8
192,128,221870,2,0,B|208:168|248:132,1,70
352,72,222342,5,8
384,104,222460,1,0
420,184,222696,6,0,B|444:216|420:224,1,35
320,220,223287,5,8
276,220,223405,1,0
248,220,223523,1,8
96,128,223759,5,8
144,80,223995,1,0
192,128,224232,2,0,B|208:168|176:188,1,70
252,160,224704,1,8
388,112,225176,5,0
392,192,225412,6,0,B|332:244,1,70
392,192,225885,6,2,B|440:244,1,70
392,192,226357,6,0,B|448:132,1,70
392,192,226830,6,2,B|328:144,1,70
296,100,227302,5,4
232,80,227538,1,0
172,116,227774,1,4
192,176,228011,2,0,B|196:224|256:200,3,70,0|4|8|4
