osu file format v12

[General]
AudioFilename: ver96.mp3
AudioLeadIn: 0
PreviewTime: -1
Countdown: 0
SampleSet: None
StackLeniency: 0.5
Mode: 0
LetterboxInBreaks: 1
WidescreenStoryboard: 1

[Editor]
Bookmarks: 1337,77820,83115,88390,93664,98939,104214,114763,135368,141137,151686,157291,207133
DistanceSpacing: 0.2
BeatDivisor: 4
GridSize: 4

[Metadata]
Title:Renai Firosofia
TitleUnicode:恋愛フィロソフィア
Artist:96 Neko
ArtistUnicode:96猫
Creator:OrangeNeKo
Version:Renai Firosofia. (CS4
Source:
Tags:
BeatmapID:331785
BeatmapSetID:131781

[Difficulty]
HPDrainRate:7
CircleSize:4
OverallDifficulty:8
ApproachRate:9
SliderMultiplier:1.8
SliderTickRate:1

[Events]
//Background and Video events
0,0,"bg.jpg",0,0
//Break Periods
//Storyboard Layer 0 (Background)
//Storyboard Layer 1 (Fail)
//Storyboard Layer 2 (Pass)
//Storyboard Layer 3 (Foreground)
//Storyboard Sound Samples
//Background Colour Transformations
3,100,163,162,255

[TimingPoints]
121,329.67032967033,4,2,1,80,1,0
46274,-83.3333333333333,4,2,1,80,0,1
67373,-100,4,2,1,80,0,0
85258,-100,4,2,1,30,0,0
85423,-100,4,2,1,60,0,0
85670,-100,4,2,1,80,0,0
87153,-100,4,2,1,40,0,0
87813,-100,4,2,2,60,0,0
88472,-100,4,2,1,80,0,0
93252,-100,4,2,2,60,0,0
93747,-100,4,2,1,80,0,0
99928,-100,4,2,1,60,0,0
100258,-100,4,2,1,80,0,0
105697,-100,4,2,1,60,0,0
106192,-100,4,2,1,80,0,0
108335,-100,4,2,2,80,0,0
109159,-100,4,2,1,80,0,0
109551,-83.3333333333333,4,2,1,80,0,1
119544,-83.3333333333333,4,2,1,60,0,1
120121,-83.3333333333333,4,2,1,80,0,1
125890,-83.3333333333333,4,2,1,60,0,1
126384,-83.3333333333333,4,2,1,80,0,1
130258,-83.3333333333333,4,2,1,40,0,1
130650,-100,4,2,1,80,0,0
145835,-100,4,2,1,60,0,0
146164,-100,4,2,1,30,0,0
146494,-100,4,2,3,80,0,0
161000,-100,4,2,2,80,0,0
161659,-166.666666666667,4,2,2,80,0,0
161989,-100,4,2,3,40,0,0
162298,-125,4,2,1,80,0,1
172208,-125,4,2,1,70,0,1
172538,-125,4,2,1,50,0,1
172848,-100,4,2,1,80,0,1
183397,-83.3333333333333,4,2,1,80,0,1
186055,-125,4,2,1,80,0,1
186384,-83.3333333333333,4,2,1,80,0,1
193472,-83.3333333333333,4,2,1,40,0,1
193947,-71.4285714285714,4,2,1,80,0,1
198912,-71.4285714285714,4,2,1,40,0,1
199241,-71.4285714285714,4,2,1,80,0,1
204496,-100,4,2,1,80,0,0
206494,-100,4,2,1,5,0,0

[Colours]
Combo1 : 255,0,0
Combo2 : 168,230,253

[HitObjects]
260,64,77923,5,4,0:0:0:0:
260,64,78252,2,0,B|240:56|240:64|240:64|212:120|212:120|200:120|200:120|176:176|176:176|148:176,1,180,2|0,0:0|0:0,0:0:0:0:
176,336,78747,1,0,0:0:0:0:
124,180,78912,1,2,0:0:0:0:
72,336,79077,1,0,0:0:0:0:
204,244,79241,6,0,P|120:280|44:240,1,180,2|2,0:0|0:0,0:0:0:0:
196,176,79736,1,2,0:0:0:0:
348,228,79901,1,2,0:0:0:0:
320,240,79983,1,0,0:0:0:0:
300,264,80066,1,0,0:0:0:0:
316,292,80148,1,0,0:0:0:0:
316,324,80230,5,2,0:0:0:0:
468,272,80395,1,8,0:0:0:0:
448,112,80560,1,2,0:0:0:0:
292,148,80725,1,0,0:0:0:0:
276,156,80807,1,0,0:0:0:0:
260,164,80890,1,2,0:0:0:0:
136,60,81055,5,0,0:0:0:0:
208,204,81219,2,0,B|212:212|212:212|204:280|204:280|208:296,1,90,0|8,0:0|0:0,0:0:0:0:
52,344,81549,1,0,0:0:0:0:
48,328,81631,1,0,0:0:0:0:
44,312,81714,1,8,0:0:0:0:
104,160,81879,5,2,0:0:0:0:
128,184,81961,1,0,0:0:0:0:
132,220,82044,1,0,0:0:0:0:
128,256,82126,1,0,0:0:0:0:
124,292,82208,2,0,L|136:340,1,45,2|0,0:0|0:0,0:0:0:0:
304,288,82456,1,8,0:0:0:0:
304,288,82538,1,8,0:0:0:0:
304,288,82621,1,0,0:0:0:0:
468,88,82785,5,8,0:0:0:0:
456,96,82867,1,8,0:0:0:0:
256,244,83033,1,8,0:0:0:0:
136,48,83197,2,0,B|152:44|152:44|160:68|268:60,1,135,4|0,0:0|0:0,0:0:0:0:
252,80,83527,6,0,B|256:104|256:104|280:116|372:132|372:196,1,180,2|2,0:0|0:0,0:0:0:0:
312,336,84022,1,0,0:0:0:0:
464,316,84186,1,2,0:0:0:0:
312,320,84351,1,0,0:0:0:0:
160,348,84516,6,0,B|168:352|168:352|168:340|168:340|152:340|152:340|152:356|152:356|160:348|160:348|88:300|100:264|100:264|104:268,1,180,2|2,0:0|0:0,0:0:0:0:
192,140,85011,1,2,0:0:0:0:
336,192,85175,1,2,0:0:0:0:
304,212,85258,1,8,0:0:0:0:
276,232,85340,1,8,0:0:0:0:
268,272,85423,1,8,0:0:0:0:
240,248,85505,1,8,0:0:0:0:
240,212,85588,1,8,0:0:0:0:
268,188,85670,1,8,0:0:0:0:
120,228,85835,5,2,0:0:0:0:
64,84,86000,1,0,0:0:0:0:
64,84,86082,1,0,0:0:0:0:
64,84,86164,1,2,0:0:0:0:
220,100,86329,1,0,0:0:0:0:
372,76,86494,6,0,L|284:112,1,90,2|0,0:0|0:0,0:0:0:0:
444,116,86824,2,0,L|356:152,1,90,4|0,0:0|0:0,0:0:0:0:
392,300,87153,1,2,0:0:0:0:
380,328,87236,1,8,0:0:0:0:
352,344,87318,1,8,0:0:0:0:
328,324,87401,1,8,0:0:0:0:
308,300,87483,1,8,0:0:0:0:
280,288,87566,1,8,0:0:0:0:
248,292,87648,1,8,0:0:0:0:
96,316,87813,5,2,0:0:0:0:
256,152,87978,1,2,0:0:0:0:
40,228,88142,1,2,0:0:0:0:
200,64,88307,1,2,0:0:0:0:
48,72,88472,2,0,B|56:80|56:80|96:132|168:128,1,135,4|0,0:0|0:0,0:0:0:0:
168,156,88802,6,0,P|112:228|168:280,1,180,2|2,0:0|0:0,0:0:0:0:
308,232,89296,1,0,0:0:0:0:
224,356,89461,1,2,0:0:0:0:
216,204,89626,1,0,0:0:0:0:
312,324,89791,2,0,B|336:328|336:328|356:324,1,45,2|0,0:0|0:0,0:0:0:0:
392,176,90038,1,0,0:0:0:0:
400,184,90121,1,8,0:0:0:0:
268,160,90285,1,0,0:0:0:0:
128,100,90450,6,0,B|152:124|152:124|214:84|260:48|272:96|292:76,1,180,2|2,0:0|0:0,0:0:0:0:
420,156,90945,1,0,0:0:0:0:
268,160,91110,5,2,0:0:0:0:
144,352,91274,1,0,0:0:0:0:
144,352,91357,1,0,0:0:0:0:
144,352,91439,1,8,0:0:0:0:
268,160,91604,5,0,0:0:0:0:
144,352,91769,2,0,B|152:356|152:356|144:360|144:360|136:356|136:356|144:344|144:344|80:316|76:232|140:224,1,180,2|8,0:0|0:0,0:0:0:0:
256,288,92263,1,0,0:0:0:0:
408,296,92428,5,2,0:0:0:0:
256,288,92593,1,8,0:0:0:0:
240,296,92675,1,0,0:0:0:0:
224,304,92758,1,0,0:0:0:0:
268,160,92923,1,0,0:0:0:0:
300,144,93005,1,0,0:0:0:0:
332,160,93088,1,2,0:0:0:0:
408,296,93252,5,4,0:0:0:0:
196,212,93417,1,2,0:0:0:0:
364,56,93582,1,2,0:0:0:0:
212,64,93747,6,0,B|184:64|184:64|164:84|164:84|148:102|148:102|116:116|116:116|92:112,1,135,4|0,0:0|0:0,0:0:0:0:
72,140,94077,6,0,B|100:140|100:140|120:160|120:160|135:178|135:178|168:192|168:192|232:192,1,180,2|2,0:0|0:0,0:0:0:0:
380,228,94571,1,0,0:0:0:0:
336,80,94736,2,0,B|316:92|316:92|288:140|288:140|272:144,1,90,2|0,0:0|0:0,0:0:0:0:
408,228,95066,6,0,B|428:216|428:216|456:168|456:168|472:164,1,90,2|0,0:0|0:0,0:0:0:0:
316,200,95395,1,8,0:0:0:0:
256,340,95560,1,0,0:0:0:0:
256,340,95725,1,2,0:0:0:0:
404,296,95890,1,0,0:0:0:0:
112,288,96055,5,2,0:0:0:0:
256,340,96219,1,0,0:0:0:0:
256,188,96384,1,2,0:0:0:0:
52,84,96549,1,0,0:0:0:0:
52,84,96631,1,0,0:0:0:0:
52,84,96714,1,8,0:0:0:0:
188,156,96879,5,0,0:0:0:0:
404,80,97044,2,0,L|428:264,1,180,2|8,0:0|0:0,0:0:0:0:
412,284,97456,1,0,0:0:0:0:
400,256,97538,1,0,0:0:0:0:
388,228,97621,1,0,0:0:0:0:
376,200,97703,6,0,L|356:240,1,45,4|0,0:0|0:0,0:0:0:0:
132,288,98033,2,0,L|94:312,1,45,8|0,0:0|0:0,0:0:0:0:
128,84,98362,2,0,L|83:86,1,45,2|0,0:0|0:0,0:0:0:0:
196,288,98692,1,8,0:0:0:0:
228,280,98774,1,0,0:0:0:0:
252,260,98857,1,0,0:0:0:0:
256,228,98939,1,0,0:0:0:0:
256,196,99022,2,0,B|260:204|264:152|340:168|340:168|332:168|332:168|372:152|404:120|404:120|404:112,1,180,4|8,0:0|0:0,0:0:0:0:
395,128,99516,6,0,B|400:120|400:120|404:128|404:128|396:136|396:136|388:128|388:128|392:120|392:120|396:128|396:128|400:76|320:44,1,180,2|8,0:0|0:0,0:0:0:0:
300,68,99928,1,0,0:0:0:0:
292,100,100011,1,0,0:0:0:0:
264,88,100093,1,0,0:0:0:0:
232,96,100175,2,0,B|216:112|152:120|152:120|136:112,1,90,2|0,0:0|0:0,0:0:0:0:
36,224,100505,1,2,0:0:0:0:
168,300,100670,2,0,B|184:332|184:332|224:272|304:292|304:292|316:328,1,180,8|2,0:0|0:0,0:0:0:0:
452,256,101164,5,0,0:0:0:0:
340,152,101329,1,8,0:0:0:0:
308,300,101494,1,0,0:0:0:0:
452,256,101659,2,0,B|448:228|448:228|460:192|460:192|452:168,1,90,2|0,0:0|0:0,0:0:0:0:
308,224,101989,1,8,0:0:0:0:
256,80,102153,1,2,0:0:0:0:
72,156,102483,1,2,0:0:0:0:
256,80,102813,6,0,B|228:88|188:120|172:120,1,90,4|0,0:0|0:0,0:0:0:0:
96,252,103142,2,0,L|120:292,1,45
104,316,103307,5,8,0:0:0:0:
308,224,103472,1,0,0:0:0:0:
232,356,103637,2,0,L|232:308,1,45,2|0,0:0|0:0,0:0:0:0:
184,164,103884,1,0,0:0:0:0:
160,188,103967,1,2,0:0:0:0:
308,224,104131,1,2,0:0:0:0:
312,72,104296,6,0,B|324:64|420:80|368:208,1,180,4|8,0:0|0:0,0:0:0:0:
369,204,104791,2,0,B|392:212|392:212|440:200|448:176,1,90,4|0,0:0|0:0,0:0:0:0:
372,312,105121,1,8,0:0:0:0:
340,328,105203,1,2,0:0:0:0:
300,332,105285,1,2,0:0:0:0:
148,324,105450,2,0,B|184:312|184:312|196:260|196:260|200:264|200:264|200:256|200:256|192:256|192:256|192:264|192:264|196:260|196:260|196:204,1,180,4|0,0:0|0:0,0:0:0:0:
44,228,105945,5,2,0:0:0:0:
196,208,106110,1,2,0:0:0:0:
408,120,106274,1,2,0:0:0:0:
256,100,106439,1,2,0:0:0:0:
292,328,106604,1,2,0:0:0:0:
196,208,106769,1,2,0:0:0:0:
92,96,106934,6,0,B|100:124|100:124|132:76|132:76|188:64|224:80|224:80|240:72,1,180,4|8,0:0|0:0,0:0:0:0:
223,79,107428,2,0,B|256:104|256:104|300:88|312:88,1,90,2|0,0:0|0:0,0:0:0:0:
440,160,107758,6,0,B|428:176|428:176|396:192|384:232,1,90,2|0,0:0|0:0,0:0:0:0:
348,380,108088,2,0,B|320:332|320:272|320:272|300:256,1,135,4|0,0:0|0:0,0:0:0:0:
272,248,108417,5,2,0:0:0:0:
104,92,108582,1,2,0:0:0:0:
52,316,108747,1,2,0:0:0:0:
208,148,108912,1,2,0:0:0:0:
240,144,108994,1,0,0:0:0:0:
260,120,109077,1,0,0:0:0:0:
288,108,109159,1,0,0:0:0:0:
320,112,109241,2,0,L|408:136,1,90,8|0,0:0|0:0,0:0:0:0:
328,304,109571,6,0,B|296:304|252:364|252:364|232:356,1,107.999996704102,4|0,0:0|0:0,0:0:0:0:
428,344,109901,2,0,P|432:284|408:240,1,107.999996704102,8|2,0:0|0:0,0:0:0:0:
448,64,110230,2,0,P|400:128|376:128,1,107.999996704102,2|0,0:0|0:0,0:0:0:0:
208,196,110560,1,8,0:0:0:0:
40,120,110725,6,0,B|88:128|88:128|148:56|248:72,1,215.999993408203,2|2,0:0|0:0,0:0:0:0:
368,200,111219,1,8,0:0:0:0:
237,72,111384,1,2,0:0:0:0:
148,232,111549,1,2,0:0:0:0:
120,252,111631,1,0,0:0:0:0:
88,252,111714,1,0,0:0:0:0:
80,284,111796,1,0,0:0:0:0:
100,312,111879,2,0,B|100:324|100:324|132:328|168:368|168:368|192:368,1,107.999996704102,8|0,0:0|0:0,0:0:0:0:
360,324,112208,6,0,L|456:260,1,107.999996704102,2|0,0:0|0:0,0:0:0:0:
276,332,112538,2,0,L|327:228,1,107.999996704102,8|0,0:0|0:0,0:0:0:0:
152,168,112868,1,2,0:0:0:0:
300,280,113033,1,2,0:0:0:0:
444,168,113197,5,8,0:0:0:0:
304,52,113362,2,0,B|248:88|248:88|248:136,1,107.999996704102,0|2,0:0|0:0,0:0:0:0:
392,244,113692,1,0,0:0:0:0:
248,128,113857,5,8,0:0:0:0:
104,244,114022,1,0,0:0:0:0:
40,72,114186,2,0,B|68:76|120:60|120:60|148:72,1,107.999996704102,2|2,0:0|0:0,0:0:0:0:
220,240,114516,1,8,0:0:0:0:
404,244,114681,1,8,0:0:0:0:
248,344,114846,5,4,0:0:0:0:
64,340,115011,1,0,0:0:0:0:
248,344,115175,1,2,0:0:0:0:
64,340,115340,1,2,0:0:0:0:
168,188,115505,1,8,0:0:0:0:
196,172,115588,1,0,0:0:0:0:
232,168,115670,1,2,0:0:0:0:
48,160,115835,5,8,0:0:0:0:
56,124,115917,1,0,0:0:0:0:
84,92,116000,1,0,0:0:0:0:
260,48,116164,1,2,0:0:0:0:
416,144,116329,1,0,0:0:0:0:
360,320,116494,6,0,B|336:312|336:312|328:292|328:292|328:284|328:284|336:288|336:288|344:284|344:284|344:292|344:292|316:248|288:248|324:168,1,215.999993408203,8|2,0:0|0:0,0:0:0:0:
484,260,116989,1,2,0:0:0:0:
304,228,117153,1,8,0:0:0:0:
156,336,117318,1,2,0:0:0:0:
60,180,117483,6,0,B|92:172|92:172|118:118|136:128|136:128|144:120,1,107.999996704102,4|2,0:0|0:0,0:0:0:0:
324,96,117813,1,8,0:0:0:0:
444,344,117978,1,2,0:0:0:0:
168,336,118142,1,2,0:0:0:0:
316,228,118307,1,2,0:0:0:0:
348,204,118390,1,2,0:0:0:0:
352,240,118472,1,2,0:0:0:0:
168,260,118637,6,0,P|56:264|72:196,1,215.999993408203,4|8,0:0|0:0,0:0:0:0:
208,80,119131,1,2,0:0:0:0:
168,260,119296,1,8,0:0:0:0:
152,220,119379,1,8,0:0:0:0:
136,180,119461,1,4,0:0:0:0:
316,140,119626,1,2,0:0:0:0:
300,180,119708,1,2,0:0:0:0:
284,220,119791,1,2,0:0:0:0:
272,260,119873,1,2,0:0:0:0:
308,288,119956,1,2,0:0:0:0:
344,312,120038,1,2,0:0:0:0:
384,332,120121,6,0,B|408:332|408:332|416:344|416:344|448:292|448:292|464:292,1,107.999996704102,4|0,0:0|0:0,0:0:0:0:
376,128,120450,1,8,0:0:0:0:
200,76,120615,1,2,0:0:0:0:
384,84,120780,2,0,B|420:88|420:88|452:68|492:64,1,107.999996704102,2|0,0:0|0:0,0:0:0:0:
312,120,121110,1,8,0:0:0:0:
128,124,121274,2,0,B|92:128|92:128|60:108|20:104,1,107.999996704102,2|2,0:0|0:0,0:0:0:0:
192,188,121604,5,0,0:0:0:0:
260,360,121769,1,8,0:0:0:0:
80,332,121934,1,0,0:0:0:0:
192,188,122099,5,2,0:0:0:0:
372,216,122263,1,0,0:0:0:0:
192,188,122428,1,2,0:0:0:0:
372,216,122593,1,0,0:0:0:0:
200,276,122758,6,0,P|256:256|276:208,1,107.999996704102,2|0,0:0|0:0,0:0:0:0:
424,324,123088,2,0,P|434:265|403:224,1,107.999996704102,8|0,0:0|0:0,0:0:0:0:
328,64,123417,1,2,0:0:0:0:
192,188,123582,1,8,0:0:0:0:
372,216,123747,1,8,0:0:0:0:
264,68,123912,2,0,B|236:64|236:64|184:100|168:96|168:96|156:92,1,107.999996704102,8|2,0:0|0:0,0:0:0:0:
200,276,124241,1,0,0:0:0:0:
60,156,124406,5,2,0:0:0:0:
84,336,124571,1,0,0:0:0:0:
192,188,124736,2,0,P|256:200|280:232,1,107.999996704102,2|0,0:0|0:0,0:0:0:0:
420,352,125066,1,8,0:0:0:0:
400,328,125148,1,0,0:0:0:0:
412,296,125230,1,0,0:0:0:0:
396,268,125313,1,0,0:0:0:0:
416,240,125395,5,4,0:0:0:0:
276,120,125560,1,2,0:0:0:0:
416,240,125725,1,8,0:0:0:0:
276,120,125890,1,2,0:0:0:0:
136,240,126055,2,0,B|100:256|100:256|52:236|52:236|28:236,1,107.999996704102,2|2,0:0|0:0,0:0:0:0:
108,68,126384,1,8,0:0:0:0:
144,52,126467,1,0,0:0:0:0:
176,68,126549,1,0,0:0:0:0:
336,160,126714,5,4,0:0:0:0:
488,56,126879,1,2,0:0:0:0:
336,160,127044,1,8,0:0:0:0:
488,56,127208,1,2,0:0:0:0:
384,208,127373,1,8,0:0:0:0:
352,224,127456,1,0,0:0:0:0:
316,224,127538,1,0,0:0:0:0:
140,172,127703,1,8,0:0:0:0:
180,192,127785,1,0,0:0:0:0:
204,228,127868,1,0,0:0:0:0:
56,336,128033,6,0,B|68:352|68:352|92:304|132:316|132:316|136:324|136:324|144:316|144:316|152:324|152:324|204:344|236:316,1,215.999993408203,2|8,0:0|0:0,0:0:0:0:
412,348,128527,1,2,0:0:0:0:
260,120,128692,1,4,0:0:0:0:
412,348,129022,5,8,0:0:0:0:
260,120,129186,1,2,0:0:0:0:
92,192,129351,2,0,P|28:176|24:136,1,107.999996704102,4|0,0:0|0:0,0:0:0:0:
200,92,129681,5,2,0:0:0:0:
232,64,129763,1,0,0:0:0:0:
276,56,129846,1,0,0:0:0:0:
396,192,130011,1,4,0:0:0:0:
276,56,130175,5,0,0:0:0:0:
396,192,130340,1,2,0:0:0:0:
356,208,130423,1,2,0:0:0:0:
316,192,130505,1,2,0:0:0:0:
284,224,130588,1,2,0:0:0:0:
268,256,130670,1,4,0:0:0:0:
96,92,131659,5,8,0:0:0:0:
96,92,131989,2,0,B|88:84|88:84|104:104|104:104|76:152|124:200|88:248,1,180,2|0,0:0|0:0,0:0:0:0:
172,340,132483,1,2,0:0:0:0:
248,240,132648,1,2,0:0:0:0:
320,344,132813,1,2,0:0:0:0:
404,248,132978,6,0,B|420:220|420:220|432:156,1,90,8|0,0:0|0:0,0:0:0:0:
376,52,133307,2,0,B|360:80|360:80|348:144,1,90,2|0,0:0|0:0,0:0:0:0:
228,180,133637,1,2,0:0:0:0:
180,64,133802,1,2,0:0:0:0:
228,180,133967,5,0,0:0:0:0:
232,164,134049,1,0,0:0:0:0:
236,152,134131,1,2,0:0:0:0:
112,144,134296,1,8,0:0:0:0:
32,244,134461,1,2,0:0:0:0:
152,280,134626,1,2,0:0:0:0:
228,180,134791,1,0,0:0:0:0:
232,196,134873,1,0,0:0:0:0:
236,208,134955,1,2,0:0:0:0:
352,260,135121,1,2,0:0:0:0:
236,208,135285,1,2,0:0:0:0:
352,260,135450,5,2,0:0:0:0:
268,352,135615,1,8,0:0:0:0:
328,244,135780,1,2,0:0:0:0:
336,228,135862,1,0,0:0:0:0:
344,212,135945,2,0,B|340:204|356:196|356:196|376:136|376:136|384:128,1,90,2|0,0:0|0:0,0:0:0:0:
252,148,136274,5,0,0:0:0:0:
128,168,136439,1,2,0:0:0:0:
28,92,136604,2,0,B|88:108|88:108|104:136,1,90,2|2,0:0|0:0,0:0:0:0:
132,128,136851,1,0,0:0:0:0:
160,124,136934,1,8,0:0:0:0:
260,48,137099,1,2,0:0:0:0:
244,56,137181,1,0,0:0:0:0:
232,72,137263,2,0,P|252:116|292:120,1,90,2|0,0:0|0:0,0:0:0:0:
408,80,137593,6,0,L|320:104,2,90,2|2|2,0:0|0:0|0:0,0:0:0:0:
416,192,138088,1,2,0:0:0:0:
452,312,138252,1,8,0:0:0:0:
388,204,138417,5,2,0:0:0:0:
264,308,138582,1,2,0:0:0:0:
124,180,138912,1,8,0:0:0:0:
212,348,139077,1,2,0:0:0:0:
248,56,139406,1,2,0:0:0:0:
188,168,139571,1,2,0:0:0:0:
416,192,139736,5,2,0:0:0:0:
460,348,139901,1,2,0:0:0:0:
388,204,140230,1,8,0:0:0:0:
248,328,140395,1,2,0:0:0:0:
248,328,140478,1,0,0:0:0:0:
248,328,140560,5,0,0:0:0:0:
132,280,140725,1,2,0:0:0:0:
188,168,140890,1,8,0:0:0:0:
304,216,141055,5,2,0:0:0:0:
376,320,141219,1,4,0:0:0:0:
292,148,141384,1,2,0:0:0:0:
416,128,141549,1,8,0:0:0:0:
300,80,141714,5,2,0:0:0:0:
116,124,141879,1,2,0:0:0:0:
300,80,142208,5,8,0:0:0:0:
180,40,142373,1,2,0:0:0:0:
92,132,142538,1,2,0:0:0:0:
300,80,142868,5,8,0:0:0:0:
212,172,143033,1,2,0:0:0:0:
92,132,143197,1,2,0:0:0:0:
272,188,143362,5,2,0:0:0:0:
92,248,143527,1,8,0:0:0:0:
236,372,143692,1,2,0:0:0:0:
272,188,143857,5,4,0:0:0:0:
304,204,143939,1,0,0:0:0:0:
304,240,144022,1,0,0:0:0:0:
272,252,144104,1,0,0:0:0:0:
236,244,144186,5,8,0:0:0:0:
212,216,144269,1,0,0:0:0:0:
208,180,144351,1,2,0:0:0:0:
220,148,144434,1,0,0:0:0:0:
252,128,144516,1,0,0:0:0:0:
288,128,144599,1,0,0:0:0:0:
320,144,144681,1,2,0:0:0:0:
336,176,144763,1,0,0:0:0:0:
348,212,144846,1,8,0:0:0:0:
380,228,144928,1,0,0:0:0:0:
412,212,145011,1,2,0:0:0:0:
452,92,145175,5,4,0:0:0:0:
100,172,145340,6,0,L|72:136,1,45,8|8,0:0|0:0,0:0:0:0:
140,224,145505,2,0,L|112:260,1,45,2|8,0:0|0:0,0:0:0:0:
208,208,145670,2,0,L|180:172,1,45,2|8,0:0|0:0,0:0:0:0:
280,220,145835,2,0,L|252:256,1,45,2|8,0:0|0:0,0:0:0:0:
324,168,146000,2,0,L|296:132,1,45,2|8,0:0|0:0,0:0:0:0:
396,184,146164,2,0,L|368:220,1,45,2|8,0:0|0:0,0:0:0:0:
468,168,146329,2,0,L|440:132,1,45,2|8,0:0|0:0,0:0:0:0:
448,232,146494,5,4,0:0:0:0:
368,332,146659,1,2,0:0:0:0:
448,232,146824,1,8,0:0:0:0:
368,332,146989,1,2,0:0:0:0:
256,276,147153,5,2,0:0:0:0:
132,296,147318,1,2,0:0:0:0:
252,340,147483,1,8,0:0:0:0:
220,332,147566,1,0,0:0:0:0:
200,304,147648,1,2,0:0:0:0:
196,176,147813,5,2,0:0:0:0:
152,228,147978,1,2,0:0:0:0:
92,192,148142,1,8,0:0:0:0:
136,144,148307,2,0,B|164:120|164:120|216:108,1,90,2|2,0:0|0:0,0:0:0:0:
136,8,148637,5,2,0:0:0:0:
120,16,148719,1,0,0:0:0:0:
104,24,148802,1,8,0:0:0:0:
224,60,148967,1,2,0:0:0:0:
240,88,149049,1,0,0:0:0:0:
256,116,149131,1,2,0:0:0:0:
272,144,149214,5,0,0:0:0:0:
304,120,149296,1,2,0:0:0:0:
344,112,149379,1,0,0:0:0:0:
380,132,149461,5,8,0:0:0:0:
336,160,149544,1,0,0:0:0:0:
324,208,149626,1,2,0:0:0:0:
336,256,149708,1,0,0:0:0:0:
384,304,149791,1,2,0:0:0:0:
468,208,149956,1,2,0:0:0:0:
384,304,150121,1,8,0:0:0:0:
264,340,150285,1,8,0:0:0:0:
148,292,150450,5,2,0:0:0:0:
56,128,150615,1,2,0:0:0:0:
164,192,150780,1,8,0:0:0:0:
44,336,150945,2,0,B|44:308|44:308|48:285|52:256|44:244,1,90,2|2,0:0|0:0,0:0:0:0:
108,160,151274,5,2,0:0:0:0:
112,96,151439,1,8,0:0:0:0:
56,64,151604,1,2,0:0:0:0:
180,80,151769,6,0,B|212:80|256:56|256:56|256:40,1,90,4|2,0:0|0:0,0:0:0:0:
384,52,152099,1,8,0:0:0:0:
368,84,152181,1,0,0:0:0:0:
368,120,152263,2,0,P|392:176|372:208,1,90,2|2,0:0|0:0,0:0:0:0:
292,292,152593,1,2,0:0:0:0:
236,180,152758,1,8,0:0:0:0:
120,128,152923,1,2,0:0:0:0:
228,64,153088,6,0,L|228:112,1,45,2|0,0:0|0:0,0:0:0:0:
172,140,153252,2,0,L|172:188,1,45,2|0,0:0|0:0,0:0:0:0:
236,180,153417,2,0,L|236:228,1,45,8|0,0:0|0:0,0:0:0:0:
172,232,153582,2,0,L|172:280,1,45,2|0,0:0|0:0,0:0:0:0:
236,288,153747,2,0,L|236:336,1,45,2|0,0:0|0:0,0:0:0:0:
172,336,153912,5,8,0:0:0:0:
56,284,154077,1,2,0:0:0:0:
172,232,154241,1,2,0:0:0:0:
172,232,154324,1,0,0:0:0:0:
172,232,154406,5,2,0:0:0:0:
360,264,154571,1,2,0:0:0:0:
236,288,154736,1,8,0:0:0:0:
420,252,154901,2,0,B|432:256|432:300|420:340,1,90,2|2,0:0|0:0,0:0:0:0:
300,296,155230,1,2,0:0:0:0:
300,232,155395,1,8,0:0:0:0:
356,200,155560,1,2,0:0:0:0:
420,92,155725,5,4,0:0:0:0:
300,56,155890,1,2,0:0:0:0:
140,156,156055,1,8,0:0:0:0:
260,116,156219,2,0,P|308:128|344:112,1,90,4|2,0:0|0:0,0:0:0:0:
164,32,156549,1,2,0:0:0:0:
140,156,156714,1,2,0:0:0:0:
120,280,156879,1,2,0:0:0:0:
16,208,157044,6,0,P|104:204|120:280,1,180,4|8,0:0|0:0,0:0:0:0:
100,308,157456,1,0,0:0:0:0:
116,332,157538,2,0,L|212:352,1,90,2|2,0:0|0:0,0:0:0:0:
232,344,157785,1,0,0:0:0:0:
264,336,157868,1,2,0:0:0:0:
288,212,158033,1,8,0:0:0:0:
428,84,158197,1,2,0:0:0:0:
304,96,158362,5,2,0:0:0:0:
376,200,158527,1,2,0:0:0:0:
428,84,158692,1,8,0:0:0:0:
500,188,158857,1,2,0:0:0:0:
152,64,159022,5,2,0:0:0:0:
260,220,159186,1,2,0:0:0:0:
360,60,159351,1,8,0:0:0:0:
460,220,159516,1,2,0:0:0:0:
460,220,159599,1,0,0:0:0:0:
460,220,159681,5,2,0:0:0:0:
296,128,159846,1,0,0:0:0:0:
264,316,160011,1,8,0:0:0:0:
100,224,160175,1,2,0:0:0:0:
100,224,160258,1,0,0:0:0:0:
100,224,160340,1,2,0:0:0:0:
172,120,160505,5,2,0:0:0:0:
100,224,160670,1,8,0:0:0:0:
48,108,160835,1,2,0:0:0:0:
48,108,160917,1,0,0:0:0:0:
48,108,161000,5,4,0:0:0:0:
228,164,161164,1,2,0:0:0:0:
408,108,161329,1,2,0:0:0:0:
228,164,161494,1,2,0:0:0:0:
48,108,161659,2,0,B|84:88|84:88|84:80|84:80|116:60,1,80.9999975280763,4|0,0:0|0:0,0:0:0:0:
128,64,161989,1,8,0:0:0:0:
144,64,162071,1,8,0:0:0:0:
172,64,162153,1,8,0:0:0:0:
200,64,162236,1,8,0:0:0:0:
220,64,162318,6,0,L|296:64,1,72,4|0,0:0|0:0,0:0:0:0:
412,144,162648,2,0,L|336:144,1,72,8|0,0:0|0:0,0:0:0:0:
256,264,162978,1,2,0:0:0:0:
388,320,163142,1,2,0:0:0:0:
412,176,163307,1,8,0:0:0:0:
296,260,163472,2,0,B|288:284|288:284|296:320|296:320|284:336,1,72,0|2,0:0|0:0,0:0:0:0:
184,228,163802,5,2,0:0:0:0:
132,92,163967,1,8,0:0:0:0:
272,60,164131,1,10,0:0:0:0:
324,192,164296,1,10,0:0:0:0:
184,152,164461,1,10,0:0:0:0:
324,192,164626,1,8,0:0:0:0:
184,152,164791,1,2,0:0:0:0:
324,192,164956,6,0,B|336:180|336:180|396:164,1,72,2|0,0:0|0:0,0:0:0:0:
268,88,165285,2,0,B|280:100|280:100|340:116,1,72,2|0,0:0|0:0,0:0:0:0:
184,152,165615,1,2,0:0:0:0:
68,68,165780,1,2,0:0:0:0:
64,212,165945,1,8,0:0:0:0:
184,292,166110,2,0,B|168:348|168:348|148:348,1,72,0|2,0:0|0:0,0:0:0:0:
184,292,166439,5,2,0:0:0:0:
84,188,166604,1,8,0:0:0:0:
224,152,166769,1,2,0:0:0:0:
324,256,166934,1,2,0:0:0:0:
188,216,167099,1,2,0:0:0:0:
324,256,167263,6,0,B|368:296|368:296|384:296,1,72,8|2,0:0|0:0,0:0:0:0:
388,152,167593,1,2,0:0:0:0:
488,48,167758,1,2,0:0:0:0:
368,128,167923,1,8,0:0:0:0:
356,136,168005,1,0,0:0:0:0:
232,64,168170,1,8,0:0:0:0:
217,60,168252,1,2,0:0:0:0:
92,132,168417,1,2,0:0:0:0:
220,196,168582,5,8,0:0:0:0:
100,276,168747,1,0,0:0:0:0:
212,368,168912,1,2,0:0:0:0:
120,256,169077,1,0,0:0:0:0:
260,288,169241,6,0,B|312:308|312:308|332:304,2,72,8|2|2,0:0|0:0|0:0,0:0:0:0:
404,280,169736,1,2,0:0:0:0:
440,140,169901,1,8,0:0:0:0:
232,84,170066,1,2,0:0:0:0:
64,220,170230,2,0,B|52:160|52:160|56:144,1,72,2|0,0:0|0:0,0:0:0:0:
192,196,170560,1,8,0:0:0:0:
204,204,170642,1,0,0:0:0:0:
252,340,170807,1,8,0:0:0:0:
276,324,170889,1,0,0:0:0:0:
388,232,171055,1,8,0:0:0:0:
232,84,171219,1,2,0:0:0:0:
376,80,171384,6,0,L|344:152|344:152,1,72,4|0,0:0|0:0,0:0:0:0:
288,280,171714,1,8,0:0:0:0:
172,192,171879,1,2,0:0:0:0:
52,276,172044,1,8,0:0:0:0:
24,136,172208,1,2,0:0:0:0:
40,112,172291,1,0,0:0:0:0:
64,96,172373,1,0,0:0:0:0:
92,92,172456,1,0,0:0:0:0:
108,116,172538,5,0,0:0:0:0:
124,92,172621,1,0,0:0:0:0:
152,100,172703,1,0,0:0:0:0:
176,120,172785,1,0,0:0:0:0:
176,156,172868,6,0,P|216:128|252:144,1,90,2|0,0:0|0:0,0:0:0:0:
396,68,173197,2,0,P|356:96|320:80,1,90,8|0,0:0|0:0,0:0:0:0:
352,240,173527,1,2,0:0:0:0:
488,328,173692,1,2,0:0:0:0:
344,252,173857,1,8,0:0:0:0:
204,336,174022,6,0,B|256:352|256:352|304:344,2,90,2|2|0,0:0|0:0|0:0,0:0:0:0:
48,288,174516,1,8,0:0:0:0:
208,268,174681,1,2,0:0:0:0:
108,140,174846,1,2,0:0:0:0:
200,228,175011,1,2,0:0:0:0:
260,116,175175,2,0,B|260:100|182:91|182:91|176:88,1,90,8|0,0:0|0:0,0:0:0:0:
288,212,175505,6,0,P|340:180|348:148,1,90,2|0,0:0|0:0,0:0:0:0:
492,80,175835,2,0,B|481:114|480:148|480:148|476:168,1,90,8|0,0:0|0:0,0:0:0:0:
364,284,176164,1,2,0:0:0:0:
380,124,176329,1,2,0:0:0:0:
432,276,176494,1,8,0:0:0:0:
292,356,176659,2,0,B|224:336|224:336|228:312,1,90,0|2,0:0|0:0,0:0:0:0:
152,172,176989,5,0,0:0:0:0:
228,316,177153,1,2,0:0:0:0:
72,276,177318,1,2,0:0:0:0:
112,120,177483,1,2,0:0:0:0:
52,272,177648,1,2,0:0:0:0:
168,156,177813,6,0,B|176:140|176:140|176:92|208:72,2,90,8|2|2,0:0|0:0|0:0,0:0:0:0:
336,68,178307,1,0,0:0:0:0:
456,216,178472,1,8,0:0:0:0:
460,200,178555,1,0,0:0:0:0:
308,312,178719,1,8,0:0:0:0:
296,284,178802,1,0,0:0:0:0:
336,128,178967,1,2,0:0:0:0:
368,288,179131,5,8,0:0:0:0:
168,372,179296,1,2,0:0:0:0:
228,164,179461,1,2,0:0:0:0:
28,244,179626,1,2,0:0:0:0:
164,200,179791,6,0,B|180:212|180:212|232:208|232:208|252:212,2,90,8|2|2,0:0|0:0|0:0,0:0:0:0:
324,56,180285,1,2,0:0:0:0:
116,112,180450,1,8,0:0:0:0:
332,136,180615,1,2,0:0:0:0:
184,72,180780,5,2,0:0:0:0:
68,184,180945,1,2,0:0:0:0:
216,252,181110,1,8,0:0:0:0:
428,288,181274,1,2,0:0:0:0:
280,356,181439,1,8,0:0:0:0:
428,288,181769,5,8,0:0:0:0:
280,356,181934,1,8,0:0:0:0:
124,312,182099,1,2,0:0:0:0:
412,60,182428,5,4,0:0:0:0:
388,96,182511,1,0,0:0:0:0:
344,92,182593,2,0,B|260:112|260:112|220:144,1,135,2|0,0:0|0:0,0:0:0:0:
204,184,182923,1,0,0:0:0:0:
188,144,183005,1,0,0:0:0:0:
148,120,183088,1,8,0:0:0:0:
132,80,183170,1,8,0:0:0:0:
152,40,183252,1,8,0:0:0:0:
344,92,183417,6,0,L|456:92,1,107.999996704102,2|0,0:0|0:0,0:0:0:0:
156,192,183747,2,0,L|44:192,1,107.999996704102,4|0,0:0|0:0,0:0:0:0:
160,352,184077,2,0,B|200:296|200:296|260:312,1,107.999996704102,2|0,0:0|0:0,0:0:0:0:
460,172,184406,1,2,0:0:0:0:
424,364,184571,2,0,B|376:348|376:348|360:292,1,107.999996704102,4|0,0:0|0:0,0:0:0:0:
344,92,184901,5,2,0:0:0:0:
152,128,185066,1,8,0:0:0:0:
188,120,185148,1,0,0:0:0:0:
212,88,185230,1,0,0:0:0:0:
240,64,185313,1,0,0:0:0:0:
276,64,185395,1,2,0:0:0:0:
264,260,185560,1,2,0:0:0:0:
216,240,185642,1,2,0:0:0:0:
164,228,185725,1,8,0:0:0:0:
112,220,185807,1,8,0:0:0:0:
104,168,185890,1,8,0:0:0:0:
32,348,186055,6,0,B|88:364|88:364|108:360,1,72
480,348,186384,6,0,B|424:364|424:364|376:328,1,107.999996704102,4|0,0:0|0:0,0:0:0:0:
188,320,186714,1,2,0:0:0:0:
188,276,186796,1,0,0:0:0:0:
216,240,186879,1,0,0:0:0:0:
256,228,186961,1,0,0:0:0:0:
300,228,187044,1,2,0:0:0:0:
452,108,187208,2,0,B|444:176|444:176|412:216,1,107.999996704102,4|0,0:0|0:0,0:0:0:0:
276,72,187538,5,8,0:0:0:0:
112,176,187703,1,2,0:0:0:0:
68,148,187785,1,2,0:0:0:0:
88,96,187868,1,2,0:0:0:0:
140,96,187950,1,2,0:0:0:0:
164,152,188033,1,2,0:0:0:0:
112,340,188197,1,8,0:0:0:0:
340,220,188362,1,8,0:0:0:0:
112,340,188527,1,8,0:0:0:0:
292,268,188692,5,4,0:0:0:0:
488,260,188857,1,2,0:0:0:0:
448,68,189022,1,8,0:0:0:0:
256,80,189186,1,2,0:0:0:0:
400,208,189351,6,0,B|404:272|404:272|364:320,2,107.999996704102,2|2|8,0:0|0:0|0:0,0:0:0:0:
220,132,189846,1,8,0:0:0:0:
56,240,190011,1,2,0:0:0:0:
104,52,190175,1,2,0:0:0:0:
124,244,190340,6,0,B|120:308|120:308|160:356,2,107.999996704102,8|2|8,0:0|0:0|0:0,0:0:0:0:
316,284,190835,1,2,0:0:0:0:
492,368,191000,1,8,0:0:0:0:
316,284,191164,1,2,0:0:0:0:
420,120,191329,5,4,0:0:0:0:
160,148,191494,1,2,0:0:0:0:
332,60,191659,1,8,0:0:0:0:
184,272,191824,1,2,0:0:0:0:
28,64,191989,1,2,0:0:0:0:
216,112,192153,1,8,0:0:0:0:
52,312,192318,1,2,0:0:0:0:
312,328,192483,6,0,P|276:300|304:352,1,161.999995056153,4|0,0:0|0:0,0:0:0:0:
340,356,192813,1,8,0:0:0:0:
368,324,192895,1,8,0:0:0:0:
356,284,192978,1,2,0:0:0:0:
284,104,193142,1,8,0:0:0:0:
356,284,193307,1,4,0:0:0:0:
284,104,193472,1,2,0:0:0:0:
320,84,193555,1,2,0:0:0:0:
352,116,193637,1,2,0:0:0:0:
392,128,193719,1,2,0:0:0:0:
436,116,193802,1,8,0:0:0:0:
288,212,193967,6,0,B|272:260|192:276|192:276|200:240,1,125.999996154785,4|0,0:0|0:0,0:0:0:0:
76,140,194296,2,0,P|160:196|168:232,1,125.999996154785,8|0,0:0|0:0,0:0:0:0:
40,340,194626,1,2,0:0:0:0:
116,180,194791,1,2,0:0:0:0:
260,284,194956,1,2,0:0:0:0:
260,284,195038,1,0,0:0:0:0:
260,284,195121,5,2,0:0:0:0:
164,136,195285,1,2,0:0:0:0:
328,68,195450,1,2,0:0:0:0:
456,192,195615,1,8,0:0:0:0:
288,252,195780,1,0,0:0:0:0:
436,152,195945,5,2,0:0:0:0:
280,68,196110,1,2,0:0:0:0:
136,172,196274,2,0,B|128:212|128:212|136:264|136:264|104:300,1,125.999996154785
288,252,196604,5,2,0:0:0:0:
332,80,196769,1,2,0:0:0:0:
272,248,196934,1,8,0:0:0:0:
344,88,197099,1,2,0:0:0:0:
256,240,197263,6,0,B|228:208|228:208|240:164|240:164|232:128,2,125.999996154785,2|2|8,0:0|0:0|0:0,0:0:0:0:
412,156,197758,1,2,0:0:0:0:
492,312,197923,1,2,0:0:0:0:
340,224,198088,5,8,0:0:0:0:
100,340,198252,1,8,0:0:0:0:
120,76,198417,1,2,0:0:0:0:
232,212,198582,1,0,0:0:0:0:
176,224,198664,1,0,0:0:0:0:
120,240,198747,1,0,0:0:0:0:
272,148,198912,1,8,0:0:0:0:
232,212,198994,1,8,0:0:0:0:
220,288,199077,1,8,0:0:0:0:
284,324,199159,1,8,0:0:0:0:
360,324,199241,5,4,0:0:0:0:
396,152,199406,1,2,0:0:0:0:
360,324,199571,1,8,0:0:0:0:
328,152,199736,1,0,0:0:0:0:
424,300,199901,6,0,B|424:288|424:288|488:216|488:216|488:188,2,125.999996154785,2|2|8,0:0|0:0|0:0,0:0:0:0:
328,152,200395,1,2,0:0:0:0:
480,64,200560,1,2,0:0:0:0:
304,68,200725,1,2,0:0:0:0:
140,136,200890,6,0,B|140:148|140:148|76:220|76:220|76:248,2,125.999996154785,8|2|2,0:0|0:0|0:0,0:0:0:0:
324,328,201384,1,2,0:0:0:0:
60,356,201549,1,8,0:0:0:0:
324,328,201714,5,2,0:0:0:0:
148,344,201879,2,0,B|88:320|88:320|224:144,1,251.999992309571,4|8,0:0|0:0,0:0:0:0:
464,220,202373,5,2,0:0:0:0:
148,344,202538,2,0,B|88:320|88:320|224:144,1,251.999992309571,4|8,0:0|0:0,0:0:0:0:
440,56,203033,5,2,0:0:0:0:
148,344,203197,2,0,B|88:320|88:320|224:144,1,251.999992309571,4|8,0:0|0:0,0:0:0:0:
440,56,203692,5,2,0:0:0:0:
320,188,203857,1,4,0:0:0:0:
440,56,204022,2,0,B|444:52|444:52|444:60|444:60|436:60|436:60|436:52|436:52|448:96|448:96|444:164|444:164|448:216,1,188.999994232178,2|0,0:0|0:0,0:0:0:0:
412,292,204351,1,0,0:0:0:0:
404,304,204434,1,0,0:0:0:0:
392,312,204516,1,4,0:0:0:0:
256,192,204599,12,4,207153,0:0:0:0:
