osu file format v9

[General]
AudioFilename: Shining Wizard.mp3
AudioLeadIn: 800
PreviewTime: 1438
Countdown: 0
SampleSet: Normal
StackLeniency: 0.7
Mode: 0
LetterboxInBreaks: 0

[Editor]
DistanceSpacing: 1.6
BeatDivisor: 4
GridSize: 4

[Metadata]
Title:Shining Wizard
Artist:96
Creator:Lan wings
Version:Normal
Source:jubeat
Tags:Bemani knit spboxer3 Foreverends pop'n music 20 fantasia sorcery progressive Kurozawa Daisuke

[Difficulty]
HPDrainRate:3
CircleSize:3
OverallDifficulty:4
ApproachRate:5
SliderMultiplier:1
SliderTickRate:1

[Events]
//Background and Video events
0,0,"BG.jpg"
//Break Periods
//Storyboard Layer 0 (Background)
//Storyboard Layer 1 (Fail)
//Storyboard Layer 2 (Pass)
//Storyboard Layer 3 (Foreground)
//Storyboard Sound Samples
//Background Colour Transformations
3,100,163,162,255

[TimingPoints]
1438,379.746835443038,4,2,1,40,1,0
4286,379.746835443038,4,2,1,40,1,0
6659,-100,4,2,1,50,0,0
6944,-100,4,2,1,40,0,0
7134,379.746835443038,4,2,1,40,1,0
8368,-100,4,2,1,30,0,0
8558,-100,4,2,1,35,0,0
8842,-100,4,2,1,40,0,0
9982,379.746835443038,4,2,1,40,1,0
11311,-100,4,2,1,35,0,0
11690,-100,4,2,1,40,0,0
12545,-100,4,1,1,50,0,0
12735,-100,4,2,1,40,0,0
12830,379.746835443038,4,2,1,40,1,0
15678,379.746835443038,4,2,1,40,1,0
15867,-100,4,1,1,35,0,0
16627,-100,4,1,1,40,0,0
17007,-100,4,1,1,50,0,0
18526,379.746835443038,4,1,1,50,1,0
18715,-100,4,1,1,30,0,0
19001,-100,4,1,1,50,0,0
19285,-100,4,1,1,30,0,0
19570,-100,4,1,1,50,0,0
20234,-100,4,1,1,30,0,0
20520,-100,4,1,1,50,0,0
21374,379.746835443038,4,1,1,50,1,0
21563,-100,4,1,1,30,0,0
21849,-100,4,1,1,50,0,0
22133,-100,4,1,1,30,0,0
22419,-100,4,1,1,50,0,0
23082,-100,4,1,1,30,0,0
23368,-100,4,1,1,50,0,0
24222,379.746835443038,4,1,1,50,1,0
27070,379.746835443038,4,1,1,50,1,0
29823,-100,4,2,2,70,0,0
29918,379.746835443038,4,2,2,70,1,0
31247,379.746835443038,4,2,2,70,1,0
31436,-100,4,2,1,60,0,0
31816,-100,4,2,2,70,0,0
33241,-100,4,1,1,40,0,0
33431,-100,4,2,2,70,0,0
34095,379.746835443038,4,2,2,70,1,0
35993,-100,4,1,1,50,0,0
36373,-100,4,2,2,70,0,0
36943,379.746835443038,4,2,2,70,1,0
37132,-100,4,2,1,70,0,0
37512,-100,4,2,2,70,0,0
38651,-100,4,1,0,40,0,0
38938,-100,4,2,2,40,0,0
39697,-100,4,1,0,40,0,0
39791,379.746835443038,4,1,0,40,1,0
40741,-100,4,2,2,70,0,0
41406,-100,4,2,1,60,0,0
41786,-100,4,2,2,60,0,0
42165,-100,4,2,1,50,0,0
42355,-100,4,2,2,70,0,0
42639,379.746835443038,4,2,2,70,1,0
44064,-100,4,1,1,50,0,0
44537,-100,4,2,2,70,0,0
45393,-100,4,1,2,50,0,0
45487,379.746835443038,4,1,2,50,1,0
45866,-100,4,2,2,70,0,0
47385,-100,4,2,2,60,0,0
47955,-100,4,2,2,70,0,0
48241,-100,4,1,1,50,0,0
48335,379.746835443038,4,1,1,50,1,0
51183,379.746835443038,4,1,1,50,1,0
52229,-100,4,1,2,60,0,0
52891,-100,4,1,1,50,0,0
55360,-100,4,2,2,50,0,0
55646,-100,4,1,1,50,0,0
58018,-100,4,1,2,55,0,0
58969,-100,4,1,1,60,0,0
64191,-100,4,1,2,60,0,0
64950,-100,4,1,1,60,0,0
67561,-100,4,1,2,60,0,0
67798,-100,4,1,1,60,0,0
70267,-100,4,1,2,60,0,0
71119,-100,4,1,1,60,0,0
76436,-100,4,1,2,60,0,0
77197,-100,4,1,1,60,0,0
78526,-100,4,1,2,60,0,0
88967,-100,4,1,1,60,0,0
89157,379.746835443038,3,1,1,60,1,0
89346,-100,3,1,2,60,0,0
91815,379.746835443038,3,1,2,60,1,0
93903,-100,3,1,1,60,0,0
94283,-100,3,1,2,60,0,0
95141,-100,3,1,1,60,0,0
95422,-100,3,1,2,60,0,0
96561,-100,3,1,1,60,0,0
96751,379.746835443038,3,1,1,60,1,0
96940,-100,3,1,2,60,0,0
98839,-100,3,1,1,60,0,0
99029,379.746835443038,4,1,1,60,1,0
101877,379.746835443038,4,1,1,60,1,0
104725,379.746835443038,4,1,2,60,1,1
107478,-100,4,1,1,60,0,1
107573,379.746835443038,4,1,1,60,1,1
107762,-100,4,1,2,60,0,1
110326,-100,4,1,2,60,0,0
110421,379.746835443038,4,1,2,60,1,1
110515,-100,4,1,2,60,0,0

[Colours]
Combo1 : 32,32,253
Combo2 : 132,168,251
Combo3 : 3,239,245

[HitObjects]
52,180,1438,2,0,B|152:260,1,100,2|0
192,192,2007,2,0,B|292:272,1,100,2|2
332,304,2577,1,0
460,204,2956,6,0,B|360:124,1,100,2|0
320,192,3526,2,0,B|220:112,1,100,2|2
180,80,4096,1,0
112,124,4286,6,0,B|76:244,1,100,2|0
152,176,4855,2,0,B|116:296,1,100,2|2
96,348,5425,1,0
256,332,5804,6,0,B|288:204,1,100,2|0
304,312,6374,2,0,B|336:184,1,100,2|10
368,60,7134,6,0,B|397:78|417:119|397:166,1,100,6|0
481,148,7703,2,0,B|479:182|454:220|403:227,1,100,2|2
348,248,8273,2,0,B|296:268,1,50,0|8
272,340,8652,6,0,B|240:327|213:290|224:240,1,100,10|0
144,272,9222,2,0,B|139:238|157:196|206:180,1,100,2|8
256,148,9792,1,0
336,140,9982,6,0,B|336:108|308:76|273:69,1,100,6|0
196,48,10551,2,0,B|152:77|88:77,1,100,2|2
136,152,11121,2,0,B|92:181|28:181,1,100,0|6
44,344,11880,5,0
44,344,12070,2,0,B|100:328|144:276,1,100,6|2
188,236,12640,1,8
240,176,12830,2,0,B|262:164|287:166|287:166|306:183|313:208,1,100,6|0
328,288,13399,2,0,B|348:340|420:360,1,100,2|2
480,360,13969,1,8
488,200,14348,6,0,B|484:140|440:84,1,100,8|0
376,124,14918,2,0,B|328:88|252:116,1,100,2|2
276,268,15678,6,0,B|164:220,1,100,4|8
72,112,16437,2,0,B|184:160,1,100,8|8
312,216,17196,5,4
312,216,17766,1,4
496,224,18336,5,0
496,224,18526,2,0,B|468:96,1,100,2|0
404,164,19095,2,0,B|324:60,1,100,2|0
276,128,19665,2,0,B|196:100,1,50,8|0
112,152,20044,6,0,B|228:196,1,100,2|0
256,252,20614,2,0,B|140:208,1,100,2|8
30,337,21374,6,0,B|54:285|48:240,1,100,2|0
21,144,21943,2,0,B|25:204|48:240,1,100,2|0
108,292,22513,2,0,B|140:297|176:296,1,50,8|0
178,221,22892,6,0,B|230:197|276:204,1,100,2|0
371,230,23462,2,0,B|311:226|276:204,1,100,2|8
184,72,24222,6,0,B|224:40|288:40|328:72,2,150,6|4|8
184,232,25740,2,0,B|224:264|288:264|328:232,2,150,4|4|8
120,180,27070,6,0,B|68:178|17:217|4:266,2,150,4|4|8
176,332,28588,2,0,B|227:333|278:294|291:245,2,150,4|4|8
96,324,29918,5,0
52,88,30487,1,2
288,56,31057,5,8
288,56,31247,2,0,B|396:100,1,100,2|2
228,144,32006,2,0,B|344:112,1,100,0|8
480,76,32765,5,2
480,156,32955,2,0,B|480:228,2,50,0|0|2
408,192,33525,2,0,B|340:236,1,50,0|2
328,288,33905,2,0,B|396:244,1,50,0|2
220,208,34474,6,0,B|164:212,2,50,0|2|0
348,112,35234,2,0,B|340:176|280:200,1,100,0|4
80,84,36183,1,2
68,328,36753,5,0
68,328,36943,2,0,B|136:200,2,100,0|2|2
220,280,38082,2,0,B|300:312,1,50,8|0
344,324,38462,6,0,B|392:304|424:248,1,100,2|0
344,224,39031,2,0,B|352:176|340:120,1,100
316,48,39601,1,0
316,48,39791,1,0
180,136,40170,6,0,B|116:184,2,50,0|0|0
280,260,40930,2,0,B|320:324,2,50,0|2|0
296,180,41499,6,0,B|256:116,2,50,2|0|8
364,220,42069,2,0,B|428:184,1,50,0|2
408,116,42449,2,0,B|451:91,1,50,8|0
300,36,43018,5,2
300,36,43208,2,0,B|244:41|180:80,1,100,8|0
132,32,43778,2,0,B|116:120,1,50,8|0
56,128,44157,2,0,B|96:204|72:276,1,150,2|0
296,364,45297,5,0
296,364,45487,2,2,B|376:268,1,100,4|2
416,228,46056,2,0,B|476:160,1,50,8|0
292,156,46626,2,0,B|232:224,1,50,8|0
204,252,47005,2,0,B|144:192|40:188,2,150,4|8|8
148,308,48335,6,0,B|103:322|32:312,1,100
216,348,49094,2,0,B|261:334|332:344,1,100,0|2
396,352,49664,1,8
472,376,49853,6,2,B|500:240,1,100,4|0
436,180,50423,2,2,B|404:312,1,100,4|0
332,264,50993,1,8
272,212,51183,6,2,B|176:124,1,100,4|0
88,152,51752,2,2,B|184:240,1,100,4|0
224,272,52322,1,2
316,140,52701,6,0,B|371:124|371:124|416:152|480:140,2,150,4|8|8
320,220,54031,2,0,B|269:222|192:200,1,100,2|2
84,128,54790,2,0,B|134:125|212:148,1,100,2|2
104,280,55550,5,2
104,280,55739,2,0,B|152:316|224:308,1,100,4|0
280,308,56309,2,0,B|340:304|400:348,1,100,8|0
452,360,56879,2,0,B|464:312,2,50,8|0|0
480,204,57638,5,8
480,204,57828,2,0,B|459:143|408:104,1,100,4|2
364,68,58398,2,0,B|394:33|460:16,1,100,8|4
348,144,59157,6,0,B|317:178|252:196,1,100,8|0
204,248,59727,2,0,B|152:228|108:168,1,100,0|0
24,64,60486,6,0,B|67:100|136:108,1,100
268,152,61246,2,0,B|328:284,1,100,0|8
372,192,61815,6,0,B|332:300,1,100,4|8
380,356,62385,2,0,B|301:353|216:308,1,150,4|0
88,260,63334,6,0,B|152:260|208:208,1,100,4|0
184,148,63904,2,0,B|228:144|256:184|256:184|292:216|328:196,1,150,4|2
364,48,64853,6,0,B|415:60|459:115,2,100,4|2|0
284,44,65803,1,0
132,88,66183,2,0,B|208:204,1,100,0|2
44,100,66942,2,0,B|120:216,1,100,0|2
192,312,67701,5,2
192,312,67891,2,0,B|320:312,1,100,4|0
352,364,68461,2,0,B|424:331|476:256,1,150,8|8
512,116,69410,1,4
356,152,69790,1,8
312,88,69980,2,0,B|240:121|188:196,1,150,4|2
104,312,70929,5,4
256,364,71309,1,8
408,312,71689,1,0
408,312,71879,1,0
484,172,72258,2,0,B|392:72,1,100,2|2
272,32,73018,2,0,B|364:132,1,100,2|2
308,264,73777,5,2
308,264,73967,2,0,B|164:248,1,100,4|8
148,200,74537,2,0,B|297:215,1,150,4|8
440,140,75486,5,4
304,56,75866,1,8
304,56,76056,2,0,B|232:56|232:56|152:96,1,150,4|2
44,200,77005,5,4
44,200,77385,1,0
176,292,77765,2,0,B|128:316,2,50,0|0|8
248,256,78334,2,0,B|304:304|400:320,1,150,0|8
364,156,79284,1,0
220,92,79664,6,0,B|160:64,2,50,0|0|4
148,236,80423,2,0,B|96:232|44:256,1,100,2|0
188,332,81182,1,2
188,332,81372,2,0,B|259:304|324:240,1,150,0|8
312,88,82322,1,4
152,80,82701,6,0,B|96:80,2,50,0|2|4
312,88,83461,2,0,B|324:156,1,50,2|0
336,216,83841,1,0
200,296,84220,2,0,B|188:228,1,50,0|2
176,168,84600,1,4
312,88,84980,1,0
296,248,85360,6,0,B|284:347,1,100,4|8
228,196,86119,2,2,B|239:96,1,100,4|8
396,124,86879,2,2,B|495:135,1,100,0|8
340,180,87638,2,2,B|240:168,1,100,4|8
168,200,88208,2,0,B|267:211,1,100,4|8
348,220,88777,1,2
256,348,89157,6,0,B|140:280,1,100,4|0
328,320,89916,2,0,B|242:216,1,100
404,320,90675,2,0,B|358:193,1,100
320,72,91435,5,8
320,72,91815,2,0,B|272:160,1,100,8|0
400,64,92574,2,0,B|324:130,1,100
476,80,93333,2,0,B|382:116,1,100,4|0
232,168,94093,5,2
232,168,94473,1,0
92,248,94852,2,0,B|40:280,2,50,4|4|2
92,88,95612,1,8
232,168,95992,2,0,B|292:200,2,50,4|4|8
332,44,96751,5,4
464,132,97130,2,0,B|524:172,2,50,8|4|0
324,204,97890,1,4
456,292,98269,2,0,B|516:332,2,50,8|4|10
300,320,99029,6,0,B|252:348|196:348|156:320,2,150,4|0|0
160,240,100547,2,0,B|208:212|264:212|304:240,2,150,4|0|0
84,264,101877,6,0,B|24:224|4:132,2,150
196,148,103395,2,0,B|256:100|368:104,1,150
496,108,104345,1,4
376,216,104725,6,0,B|333:259|287:267,1,100,4|8
330,335,105294,2,0,B|280:304|203:309,1,100,4|8
155,298,105864,1,2
168,140,106243,6,0,B|267:79,1,100,4|8
172,76,106813,2,0,B|72:136,1,100,4|8
16,168,107383,1,2
84,212,107573,6,0,B|204:276,1,100,4|8
244,224,108142,2,0,B|378:243,1,100,4|0
424,248,108712,1,8
508,112,109091,6,0,B|388:48,1,100,4|0
348,100,109661,2,0,B|213:80,1,100,4|2
180,128,110231,2,0,B|124:104,1,50,10|6
