osu file format v9

[General]
AudioFilename: Shining Wizard.mp3
AudioLeadIn: 800
PreviewTime: 1438
Countdown: 0
SampleSet: Normal
StackLeniency: 0.7
Mode: 0
LetterboxInBreaks: 0

[Editor]
DistanceSpacing: 1.3
BeatDivisor: 4
GridSize: 4

[Metadata]
Title:Shining Wizard
Artist:96
Creator:Lan wings
Version:Extreme
Source:jubeat
Tags:Bemani knit spboxer3 Foreverends pop'n music 20 fantasia sorcery progressive Kurozawa Daisuke

[Difficulty]
HPDrainRate:6
CircleSize:4
OverallDifficulty:8
ApproachRate:9
SliderMultiplier:2.1
SliderTickRate:1

[Events]
//Background and Video events
0,0,"BG.jpg"
//Break Periods
//Storyboard Layer 0 (Background)
//Storyboard Layer 1 (Fail)
//Storyboard Layer 2 (Pass)
//Storyboard Layer 3 (Foreground)
//Storyboard Sound Samples
//Background Colour Transformations
3,100,163,162,255

[TimingPoints]
1438,379.746835443038,4,2,1,40,1,0
4286,379.746835443038,4,2,1,40,1,0
6706,-100,4,2,1,60,0,0
6801,-100,4,2,1,40,0,0
7134,379.746835443038,4,2,1,40,1,0
8415,-100,4,2,1,30,0,0
8558,-100,4,2,1,35,0,0
8700,-100,4,2,1,40,0,0
9982,379.746835443038,4,2,1,40,1,0
11263,-100,4,2,1,30,0,0
11406,-100,4,2,1,35,0,0
11548,-100,4,2,1,40,0,0
12593,-100,4,1,1,50,0,0
12688,-100,4,2,1,40,0,0
12830,379.746835443038,4,2,1,40,1,0
14112,-100,4,2,1,30,0,0
14254,-100,4,2,1,35,0,0
14396,-100,4,2,1,40,0,0
15678,379.746835443038,4,2,1,40,1,0
15820,-100,4,1,1,35,0,0
15915,-100,4,2,1,40,0,0
16010,-100,4,1,1,43,0,0
16105,-100,4,2,1,40,0,0
16200,-100,4,1,1,30,0,0
16343,-100,4,1,1,37,0,0
16532,-100,4,1,1,44,0,0
16722,-100,4,1,1,52,0,0
16912,-100,4,1,1,59,0,0
17102,-100,4,1,1,60,0,0
17292,-100,4,1,1,50,0,0
17672,-100,4,1,1,60,0,0
17862,-100,4,1,1,50,0,0
18526,379.746835443038,4,1,1,50,1,0
18811,-100,4,1,1,30,0,0
19001,-100,4,1,1,50,0,0
19381,-100,4,1,1,30,0,0
19570,-100,4,1,1,50,0,0
20330,-100,4,1,1,30,0,0
20520,-100,4,1,1,50,0,0
21374,379.746835443038,4,1,1,50,1,0
21659,-100,4,1,1,30,0,0
21849,-100,4,1,1,50,0,0
22229,-100,4,1,1,30,0,0
22419,-100,4,1,1,50,0,0
23178,-100,4,1,1,30,0,0
23368,-100,4,1,1,50,0,0
24222,379.746835443038,4,1,1,50,1,0
27070,379.746835443038,4,1,1,50,1,0
29871,-100,4,2,2,70,0,0
29918,379.746835443038,4,2,2,70,1,0
31247,379.746835443038,4,2,2,70,1,0
31532,-100,4,2,1,60,0,0
31722,-100,4,2,2,70,0,0
33241,-100,4,1,1,40,0,0
33431,-100,4,2,2,70,0,0
34095,379.746835443038,4,2,2,70,1,0
36089,-100,4,1,1,50,0,0
36279,-100,4,2,2,70,0,0
36943,379.746835443038,4,2,2,70,1,0
37229,-100,4,2,1,70,0,0
37419,-100,4,1,1,40,0,0
37608,-100,4,2,2,70,0,0
38748,-100,4,1,0,35,0,0
38938,-100,4,2,2,40,0,0
39697,-100,4,1,0,35,0,0
39791,379.746835443038,4,1,0,35,1,0
40267,-100,4,1,1,40,0,0
40456,-100,4,2,2,50,0,0
41406,-100,4,2,1,60,0,0
41786,-100,4,2,2,60,0,0
42165,-100,4,2,1,50,0,0
42355,-100,4,2,2,70,0,0
42639,379.746835443038,4,2,2,70,1,0
44064,-100,4,1,1,50,0,0
44254,-100,4,2,2,50,0,0
44729,-100,4,2,2,70,0,0
44824,-100,4,2,2,50,0,0
45298,-100,4,2,2,70,0,0
45393,-100,4,1,2,50,0,0
45487,379.746835443038,4,1,2,50,1,0
45868,-100,4,2,2,70,0,0
46151,-100,4,2,2,50,0,0
46626,-100,4,2,2,70,0,0
47102,-100,4,2,1,60,0,0
47482,-100,4,2,2,60,0,0
48051,-100,4,2,2,70,0,0
48241,-100,4,1,1,50,0,0
48335,379.746835443038,4,1,1,50,1,0
51183,379.746835443038,4,1,1,50,1,0
52229,-100,4,1,2,60,0,0
52798,-100,4,1,1,50,0,0
58115,-100,4,1,2,55,0,0
58969,-100,4,1,1,60,0,0
64191,-100,4,1,2,60,0,0
64950,-100,4,1,1,60,0,0
67561,-100,4,1,2,60,0,0
67798,-100,4,1,1,60,0,0
70267,-100,4,1,2,60,0,0
71026,-100,4,1,1,60,0,0
76532,-100,4,1,2,60,0,0
77197,-100,4,1,1,60,0,0
78526,-100,4,1,2,60,0,0
79001,-100,4,1,1,60,0,0
79191,-100,4,1,2,60,0,0
81469,-100,4,1,1,60,0,0
81659,-100,4,1,2,60,0,0
83558,-100,4,1,1,60,0,0
83748,-100,4,1,2,60,0,0
85077,-100,4,1,1,60,0,0
85267,-100,4,1,2,60,0,0
85504,-100,4,1,1,60,0,0
85599,-100,4,1,2,60,0,0
86074,-100,4,1,1,60,0,0
86453,-100,4,1,2,60,0,0
89112,-100,4,1,1,60,0,0
89157,379.746835443038,3,1,1,60,1,0
89254,-100,3,1,2,60,0,0
91580,-100,3,1,1,60,0,0
91675,-100,3,1,2,60,0,0
91815,379.746835443038,3,1,2,60,1,0
94048,-100,3,1,1,60,0,0
94143,-100,3,1,2,60,0,0
95141,-100,3,1,1,60,0,0
95330,-100,3,1,2,60,0,0
96751,379.746835443038,3,1,1,60,1,0
96849,-100,3,1,2,60,0,0
98985,-100,3,1,1,60,0,0
99029,379.746835443038,4,1,1,60,1,0
100836,-100,4,1,1,40,0,0
101026,-100,4,1,1,60,0,0
101877,379.746835443038,4,1,1,60,1,0
104206,-100,4,1,1,50,0,0
104634,-100,4,1,1,60,0,0
104725,379.746835443038,4,1,1,60,1,1
104776,-100,4,1,2,60,0,1
106010,-100,4,1,2,30,0,1
106105,-100,4,1,2,60,0,1
107529,-100,4,1,1,60,0,1
107573,379.746835443038,4,1,1,60,1,1
107624,-100,4,1,2,60,0,1
110326,-100,4,1,2,60,0,0
110421,379.746835443038,4,1,2,60,1,1
110515,-100,4,1,2,60,0,0

[Colours]
Combo1 : 32,32,253
Combo2 : 132,168,251
Combo3 : 3,239,245

[HitObjects]
120,60,1438,2,0,B|64:28,1,52.5,2|0
80,116,1627,2,0,B|16:127,1,52.5
88,184,1817,2,0,B|46:233,1,52.5
136,232,2007,2,0,B|136:296,3,52.5,2|0|0|0
208,280,2387,5,2
240,288,2482,1,0
272,296,2577,1,0
304,304,2672,1,0
336,312,2767,1,0
456,248,2956,5,2
424,232,3051,1,0
392,216,3146,1,0
360,200,3241,1,0
328,184,3336,1,0
296,168,3431,1,0
264,152,3526,2,0,B|200:120,3,52.5,2|0|0|0
184,68,3906,2,0,B|112:76,3,52.5,2|0|0|0
64,56,4286,5,2
56,88,4380,1,0
48,120,4475,1,0
40,152,4570,1,0
64,184,4665,5,0
64,224,4760,1,0
64,264,4855,2,0,B|64:336,3,52.5,2|0|0|0
136,280,5235,5,2
168,296,5330,1,0
200,312,5425,1,0
232,328,5520,1,0
264,344,5615,1,0
264,200,5804,5,2
232,184,5899,1,0
216,152,5994,1,0
208,120,6089,1,0
216,80,6184,1,0
240,48,6279,1,0
272,32,6374,2,0,B|328:24,3,52.5,2|0|0|0
376,80,6754,2,0,B|432:104,3,52.5,10|0|0|0
480,144,7134,5,4
456,168,7228,1,0
432,192,7323,1,0
408,216,7418,1,0
384,240,7513,1,0
360,264,7608,1,0
328,248,7703,5,2
304,272,7798,1,0
280,296,7893,1,0
256,320,7988,1,0
224,304,8083,5,2
192,312,8178,1,0
160,320,8273,1,0
128,328,8368,1,0
96,336,8463,1,8
40,160,8652,5,10
72,160,8747,1,0
104,160,8842,1,0
136,160,8937,1,0
168,160,9032,1,0
200,160,9127,1,0
232,160,9222,2,0,B|288:168,3,52.5,2|0|0|0
352,184,9602,2,0,B|416:152,3,52.5,8|0|0|0
428,96,9982,5,6
396,88,10076,1,0
364,80,10171,1,0
332,72,10266,1,0
300,64,10361,1,0
268,56,10456,1,0
244,80,10551,5,2
212,80,10646,1,0
180,80,10741,1,0
148,80,10836,1,0
132,108,10931,5,2
100,116,11026,1,0
68,124,11121,1,0
36,132,11216,1,0
4,140,11311,1,8
8,272,11500,5,12
48,280,11595,1,0
88,288,11690,1,0
128,296,11785,1,0
168,304,11880,1,0
208,312,11975,1,0
248,320,12070,2,0,B|288:280,3,52.5,14|0|0|0
336,236,12450,5,0
360,240,12545,1,0
384,256,12640,1,8
400,272,12735,1,0
384,240,12830,5,6
384,208,12924,1,0
392,176,13019,1,0
408,144,13114,1,0
432,128,13209,1,0
464,120,13304,1,0
496,120,13399,2,0,B|480:48,3,52.5,2|0|0|0
424,32,13779,5,2
400,52,13874,1,0
372,64,13969,1,0
340,72,14064,1,0
308,72,14159,1,8
168,100,14348,5,10
164,132,14443,1,0
152,160,14538,1,0
132,184,14633,1,0
104,200,14728,1,0
72,200,14823,1,0
44,188,14918,2,0,B|44:260,3,52.5,2|0|0|0
92,292,15298,5,10
112,300,15393,1,0
128,312,15488,1,0
144,328,15583,1,0
160,300,15678,5,4
184,280,15772,1,0
212,268,15867,1,0
244,264,15962,1,0
276,268,16057,1,0
304,280,16152,1,0
328,300,16247,6,0,B|352:252|424:220,1,105,8|8
376,40,16627,2,0,B|352:88|280:120,1,105,0|8
172,160,17007,1,8
32,176,17196,5,12
144,256,17386,2,0,B|176:280,3,35
256,168,17766,1,12
368,256,17956,2,0,B|336:280,3,35
448,192,18336,1,8
360,88,18526,6,0,B|256:64|152:88,1,210,2|0
152,296,19095,2,0,B|256:320|360:296,1,210,2|0
256,192,19665,1,8
256,192,19760,1,0
256,192,19855,1,0
72,160,20044,6,0,B|142:71|248:36,1,210,2|0
440,224,20614,2,0,B|369:312|264:348,1,210,2|8
240,352,21089,1,0
208,360,21184,1,0
176,360,21279,1,0
144,352,21374,6,0,B|60:287|32:168,1,210,2|0
368,32,21943,2,0,B|451:96|480:216,1,210,2|0
256,192,22513,1,8
256,192,22608,1,0
256,192,22703,1,0
432,328,22892,6,0,B|328:352|200:328,1,210,2|0
80,56,23462,2,0,B|184:32|312:56,1,210,2|8
320,64,23937,1,0
352,80,24032,1,0
384,104,24127,1,0
416,128,24222,5,6
408,160,24316,1,0
400,192,24411,1,0
392,224,24506,1,0
384,256,24601,1,0
376,288,24696,1,0
352,264,24791,5,6
328,288,24886,1,0
304,312,24981,1,0
280,336,25076,1,0
256,360,25171,1,0
232,384,25266,1,0
208,368,25361,5,8
176,368,25456,1,0
144,368,25551,1,0
64,256,25740,5,4
96,240,25835,1,0
128,224,25930,1,0
160,208,26025,1,0
192,192,26120,1,0
224,176,26215,1,0
256,160,26310,2,0,B|312:136,3,52.5,4|0|0|0
288,72,26690,2,0,B|240:56,3,52.5
168,40,27070,5,4
152,64,27164,1,0
136,88,27259,1,0
120,112,27354,1,0
104,136,27449,1,0
88,160,27544,1,0
56,168,27639,5,4
64,200,27734,1,0
72,232,27829,1,0
80,264,27924,1,0
88,296,28019,1,0
96,328,28114,1,0
128,320,28209,5,8
160,328,28304,1,0
192,336,28399,1,0
360,336,28588,5,4
344,312,28683,1,0
328,288,28778,1,0
312,264,28873,1,0
296,240,28968,1,0
280,216,29063,1,0
280,184,29158,5,4
248,176,29253,1,0
216,168,29348,1,0
184,160,29443,1,0
152,152,29538,1,0
120,144,29633,1,0
88,136,29728,1,0
56,128,29823,1,0
24,120,29918,6,0,B|4:179|-8:256,1,105,6|0
40,240,30202,1,0
80,256,30297,2,0,B|97:309|139:378,1,105,0|2
228,264,30677,2,0,B|279:293|332:304,1,105,0|2
460,288,31057,1,8
444,152,31247,6,0,B|353:94|353:94|212:72,1,210,2|2
116,104,31816,1,2
68,232,32006,2,0,B|158:289|158:289|300:312,1,210,0|8
396,296,32576,1,0
472,184,32765,1,2
352,120,32955,6,0,B|305:94|248:78,2,105,0|0|2
264,224,33525,2,0,B|226:260|180:287,1,105,0|2
148,156,33905,2,0,B|135:105|134:52,1,105,8|2
144,324,34474,5,0
280,348,34664,1,2
416,336,34854,2,0,B|478:321|528:259,2,105,0|2|8
348,216,35424,2,0,B|330:161|257:123,1,105,2|4
144,140,35803,5,0
144,140,35898,1,0
144,140,35993,2,0,B|161:194|234:232,1,105,0|2
332,280,36373,1,0
456,336,36563,1,2
444,200,36753,1,8
424,72,36943,6,0,B|296:104|240:216,1,210,0|2
88,72,37702,2,0,B|216:104|272:216,1,210,2|8
156,272,38272,1,0
156,272,38462,2,0,B|256:328|356:272,1,210,2|2
488,292,39031,6,2,B|424:280|424:280|428:248|412:220|388:200|356:200|328:208,1,210
184,207,39601,1,8
184,208,39791,2,0,B|156:200|124:200|100:220|84:248|88:280|88:280|22:292,1,210,2|0
49,157,40360,1,0
49,157,40550,2,2,B|92:124|136:112|184:120|184:120|264:80,1,210,2|8
368,28,41120,2,0,B|376:85|350:150,1,105,2|0
232,232,41499,5,2
372,308,41689,1,0
368,152,41879,1,8
248,252,42069,5,0
387,341,42259,1,2
480,201,42449,1,8
338,109,42639,6,0,B|251:83|114:116,1,210
100,124,43113,1,0
72,140,43208,1,8
8,264,43398,2,0,B|120:296|256:240,1,210,2|8
336,200,43968,2,0,B|272:168|204:172,1,105
304,288,44347,6,2,B|368:320|436:316,2,105,0|0|8
432,232,44917,2,2,B|473:205|504:136,2,105,0|0|8
408,96,45487,2,2,B|312:48|184:88,1,210,4|0
176,88,45961,1,0
152,100,46056,1,8
240,264,46246,2,2,B|124:304|20:240,1,210,0|8
92,176,46816,2,0,B|140:204|196:184,1,105,0|4
312,76,47195,5,2
452,142,47385,1,0
320,232,47575,1,8
360,48,47765,5,0
442,188,47955,1,2
300,276,48145,1,8
212,132,48335,6,0,B|108:92|-4:140,1,210,2|2
256,192,48904,1,8
300,252,49094,2,0,B|404:292|504:248,1,210,2|2
448,128,49664,5,8
448,128,49759,1,8
448,128,49853,2,0,B|360:160|360:160|296:136|208:160,1,210,4|8
65,255,50423,2,0,B|153:223|153:223|217:247|268:232,1,210,6|0
397,259,50993,5,8
397,259,51183,2,0,B|350:239|350:239|350:171|294:139|244:152,1,210,6|8
114,124,51752,2,0,B|161:144|161:144|161:212|217:244|268:232,1,210,4|0
256,368,52322,5,0
256,368,52417,1,2
256,368,52512,1,0
256,368,52607,1,2
256,368,52701,1,2
384,324,52891,5,0
384,324,52986,1,0
384,324,53081,2,0,B|422:288|448:224,1,105,2|8
488,112,53461,1,0
392,16,53651,2,0,B|355:53|336:112,1,105,0|8
232,16,54031,6,0,B|224:128|144:232,1,210,2|2
24,200,54600,1,8
80,324,54790,2,0,B|201:333|296:280,1,210,2|2
308,152,55360,5,8
308,152,55455,1,0
308,152,55550,1,8
180,108,55739,1,6
180,108,55834,1,0
180,108,55929,2,0,B|204:220|300:300,1,210,0|8
404,356,56499,2,0,B|456:324|468:236,1,105,0|2
372,152,56879,2,0,B|346:213|372:264,1,105,8|0
488,172,57258,6,0,B|452:68|324:28,1,210,2|8
252,140,57828,2,0,B|170:219|60:238,1,210,6|2
200,288,58398,1,0
232,296,58493,1,2
264,304,58588,1,2
296,312,58683,1,2
328,320,58777,2,0,B|376:336|448:336,1,105,6|0
464,328,59062,1,0
488,312,59157,6,0,B|504:264|488:184,1,105,0|2
416,88,59537,2,0,B|400:136|416:216,1,105,0|2
312,96,59917,1,8
312,96,60107,2,0,B|208:80|208:120|96:96,1,210,2|0
200,288,60676,1,0
200,288,60866,2,0,B|304:304|304:264|416:288,1,210
464,160,61436,1,8
464,160,61531,1,0
464,160,61626,1,0
344,92,61815,6,0,B|298:61|238:57,2,105,6|0|8
228,164,62385,2,0,B|182:196|92:188,2,105,2|0|2
0,196,62955,6,0,B|84:267|202:288,1,210,8|4
316,224,63524,2,0,B|366:261|396:328,1,105,0|8
412,168,63904,2,0,B|462:131|492:64,2,105,4|0|2
356,44,64474,1,0
324,40,64569,1,2
292,40,64664,1,2
260,44,64758,1,2
228,52,64853,1,6
92,44,65043,5,0
113,72,65138,1,0
134,100,65233,2,0,B|163:142|175:198,1,105,2|8
144,328,65613,2,0,B|114:285|102:229,1,105,0|2
244,160,65993,1,8
248,316,66183,2,0,B|360:291|446:175,1,210,2|2
264,228,66752,1,8
264,68,66942,2,0,B|151:92|65:208,1,210,2|2
212,240,67512,5,8
244,256,67607,1,2
276,272,67701,1,2
304,136,67891,1,6
336,120,67986,1,0
368,104,68081,2,0,B|458:168|492:313,1,210,0|8
364,344,68651,2,0,B|314:364|250:360,1,105,0|2
128,328,69031,1,8
128,328,69220,1,4
56,212,69410,6,0,B|144:148|280:156,1,210,2|8
456,172,69980,2,0,B|368:236|232:228,1,210,6|2
256,92,70550,1,0
256,108,70645,1,2
256,124,70739,1,2
256,140,70834,1,2
256,156,70929,1,6
256,292,71119,6,0,B|256:348,2,52.5,0|0|8
384,240,71499,2,0,B|375:176|336:128,1,105,2|0
164,142,71879,2,0,B|136:176|128:240,1,105,2|8
8,304,72258,2,0,B|64:304|64:304|112:336|160:320|160:320|248:352,1,210,2|2
384,240,72828,1,8
504,304,73018,2,0,B|448:304|448:304|400:336|352:320|352:320|264:352,1,210,2|2
256,208,73588,5,8
256,208,73682,1,8
256,208,73777,1,2
328,88,73967,2,0,B|368:48|440:48,2,105,4|0|0
184,88,74537,2,0,B|144:48|72:48,2,105,4|0|0
72,168,75107,6,0,B|112:168|136:192|136:192|160:272|232:304,1,210,8|4
256,168,75676,2,0,B|256:104,2,52.5,0|0|8
440,168,76056,2,0,B|400:168|376:192|376:192|352:272|280:304,1,210,4|8
184,216,76626,1,2
192,184,76720,1,2
208,156,76815,1,0
232,132,76910,1,2
260,116,77005,6,0,B|314:98|348:52,1,105,6|0
376,64,77290,1,0
404,80,77385,2,0,B|436:123|450:209,1,105,0|0
476,308,77765,1,0
338,337,77955,1,0
308,201,78145,1,8
444,176,78334,2,0,B|424:232|372:260,1,105
172,304,78714,5,2
172,304,78809,1,2
172,304,78904,2,0,B|228:312|284:296,1,105,10|2
404,244,79284,1,2
343,94,79474,1,2
194,155,79664,1,2
254,303,79853,1,2
376,364,80043,6,0,B|432:369|496:338,1,105,4|0
432,220,80423,1,0
407,85,80613,1,10
309,179,80803,1,0
399,185,80993,5,0
344,56,81182,1,10
263,166,81372,1,0
204,44,81562,6,0,B|148:52|108:108,1,105,2|0
100,124,81847,1,0
92,156,81942,1,10
120,288,82132,1,4
256,284,82322,1,0
204,100,82512,1,2
100,224,82701,5,0
132,216,82796,1,2
164,208,82891,1,0
196,200,82986,1,2
228,192,83081,1,10
332,104,83271,5,2
364,120,83366,1,2
396,136,83461,1,8
392,320,83651,1,2
496,232,83841,1,0
296,232,84031,5,2
280,256,84126,1,2
264,280,84220,1,8
60,264,84410,1,2
160,360,84600,1,12
12,108,84790,1,2
39,127,84885,1,2
66,147,84980,2,0,B|116:183|185:184,1,105,10|0
248,40,85360,5,2
260,68,85455,1,2
280,92,85550,1,2
300,116,85645,1,2
324,136,85739,1,10
352,152,85834,1,2
380,164,85929,1,2
412,172,86024,1,2
444,176,86119,6,0,B|357:192|300:277,1,157.5,2|2
296,284,86499,1,8
164,312,86689,2,0,B|228:208,1,105,0|8
192,88,87069,2,0,B|94:126,2,105,0|8|0
224,76,87512,2,0,B|272:60,2,35,0|0|4
456,240,88018,5,8
456,240,88208,2,0,B|384:320|256:328,1,210,4|8
136,304,88777,1,2
120,279,88872,1,2
114,253,88967,1,2
114,227,89062,1,2
120,202,89157,5,2
228,48,89346,1,0
308,224,89536,1,0
220,156,89726,5,2
408,184,89916,1,0
292,332,90106,1,0
220,156,90296,5,0
336,8,90486,1,2
500,100,90675,1,0
500,284,90865,5,2
336,376,91055,1,0
340,188,91245,1,10
500,284,91435,1,10
500,284,91530,1,2
500,284,91625,1,2
336,376,91815,5,8
176,280,92004,1,0
340,188,92194,1,2
244,352,92384,5,2
244,216,92574,1,2
364,288,92764,1,2
104,152,92954,6,0,B|100:212|52:264,1,105,2|8
44,268,93239,1,0
20,284,93333,1,4
148,336,93523,2,0,B|204:344|276:328,1,105,0|8
376,276,93903,5,8
392,244,93998,1,0
408,212,94093,1,2
272,188,94283,1,0
272,156,94378,1,2
272,124,94473,1,0
136,148,94663,2,0,B|95:109|64:52,2,105,2|4|4
244,232,95232,1,2
244,232,95422,5,0
244,232,95517,1,2
244,232,95612,2,0,B|298:239|356:264,1,105,10|2
476,304,95992,1,4
476,304,96182,1,4
476,168,96371,2,0,B|476:133,3,35,2|2|2|2
388,60,96751,5,6
340,188,96940,1,0
340,188,97035,1,2
340,188,97130,1,8
252,84,97320,2,0,B|196:108|164:172,1,105,4|0
164,180,97605,1,2
156,212,97700,1,8
36,276,97890,2,0,B|75:318|164:324,1,105,4|0
164,316,98175,1,2
196,308,98269,1,10
296,212,98459,6,0,B|352:212|408:260,1,105,4|8
416,268,98744,1,2
432,292,98839,1,2
440,324,98934,1,2
440,356,99029,2,0,B|388:364|344:324|344:324|296:336|240:300,1,210,6|0
120,244,99598,2,0,B|188:240|212:184|212:184|236:128|304:128,1,210,2|0
420,140,100168,1,2
95,48,100547,6,0,B|128:83|188:96,1,105,2|0
56,204,100927,1,0
56,204,101117,2,0,B|103:166|148:172|148:172|220:200|264:136,1,210,2|0
352,64,101687,1,10
488,44,101877,6,0,B|496:92|472:132|472:132|496:120|496:120|484:164|444:212,1,210,2|0
364,328,102446,2,0,B|332:332|316:308|316:308|248:360|152:304,1,210,2|0
124,176,103016,2,0,B|164:204|220:220,1,105,2|0
8,80,103395,2,0,B|56:84|96:64|96:64|84:88|84:88|136:64|200:108,1,210,8|0
292,216,103965,6,0,B|348:200|400:164,1,105,8|0
412,156,104250,2,0,B|452:180,6,26.25
224,352,104725,5,6
200,336,104819,1,0
176,320,104914,1,0
152,304,105009,1,8
128,288,105104,1,2
104,272,105199,1,2
128,256,105294,5,4
112,224,105389,1,0
96,192,105484,1,0
80,160,105579,1,8
64,128,105674,1,0
48,96,105769,1,0
80,96,105864,5,12
88,64,105959,1,0
96,32,106054,1,4
192,128,106243,5,6
224,136,106338,1,0
256,144,106433,1,0
288,152,106528,1,8
320,160,106623,1,2
352,168,106718,1,2
384,176,106813,2,0,B|448:192,3,52.5,4|0|0|8
400,248,107193,2,0,B|424:304,3,52.5,2|2|2|2
352,304,107573,5,6
320,312,107667,1,2
288,320,107762,1,0
256,328,107857,1,0
224,336,107952,1,8
192,344,108047,1,0
184,312,108142,5,4
160,296,108237,1,0
136,280,108332,1,2
104,264,108427,1,0
72,248,108522,1,0
48,232,108617,1,2
64,212,108712,5,14
56,180,108807,1,0
48,148,108902,1,2
242,221,109091,5,12
264,199,109186,1,0
293,187,109281,1,0
324,184,109376,1,8
354,190,109471,1,2
380,207,109566,1,2
379,207,109661,5,6
356,185,109756,1,0
344,156,109851,1,0
341,125,109946,1,8
347,95,110041,1,8
364,69,110136,1,0
390,50,110231,2,0,B|415:35|443:39,1,52.5,2|10
484,92,110421,5,14
