osu file format v9

[General]
AudioFilename: Shining Wizard.mp3
AudioLeadIn: 800
PreviewTime: 1438
Countdown: 0
SampleSet: Normal
StackLeniency: 0.7
Mode: 0
LetterboxInBreaks: 0

[Editor]
DistanceSpacing: 1
BeatDivisor: 2
GridSize: 4

[Metadata]
Title:Shining Wizard
Artist:96
Creator:Lan wings
Version:Basic
Source:jubeat
Tags:Bemani knit spboxer3 Foreverends pop'n music 20 fantasia sorcery progressive Kurozawa Daisuke

[Difficulty]
HPDrainRate:2
CircleSize:3
OverallDifficulty:1
ApproachRate:3
SliderMultiplier:0.8
SliderTickRate:1

[Events]
//Background and Video events
0,0,"BG.jpg"
//Break Periods
//Storyboard Layer 0 (Background)
//Storyboard Layer 1 (Fail)
//Storyboard Layer 2 (Pass)
//Storyboard Layer 3 (Foreground)
//Storyboard Sound Samples
//Background Colour Transformations
3,100,163,162,255

[TimingPoints]
1438,379.746835443038,4,2,1,40,1,0
4286,379.746835443038,4,2,1,40,1,0
6564,-100,4,2,1,50,0,0
6944,-100,4,2,1,40,0,0
7134,379.746835443038,4,2,1,40,1,0
8463,-100,4,2,1,35,0,0
8842,-100,4,2,1,40,0,0
9982,379.746835443038,4,2,1,40,1,0
11311,-100,4,2,1,35,0,0
11690,-100,4,2,1,40,0,0
12830,379.746835443038,4,2,1,40,1,0
15678,379.746835443038,4,2,1,40,1,0
16627,-100,4,2,1,35,0,0
17007,-100,4,2,1,50,0,0
18526,379.746835443038,4,1,1,50,1,0
21374,379.746835443038,4,1,1,50,1,0
24222,379.746835443038,4,1,1,50,1,0
27070,379.746835443038,4,1,1,50,1,0
29823,-100,4,2,2,70,0,0
29918,379.746835443038,4,2,2,70,1,0
31247,379.746835443038,4,2,2,70,1,0
31436,-100,4,2,1,60,0,0
31816,-100,4,2,2,70,0,0
33145,-100,4,1,1,40,0,0
33525,-100,4,2,2,70,0,0
34095,379.746835443038,4,2,2,70,1,0
36943,379.746835443038,4,2,2,70,1,0
37132,-100,4,2,1,70,0,0
37512,-100,4,2,2,70,0,0
38651,-100,4,1,0,50,0,0
38938,-100,4,2,2,40,0,0
39601,-100,4,1,0,50,0,0
39791,379.746835443038,4,1,0,50,1,0
40931,-100,4,2,2,70,0,0
41689,-100,4,2,2,60,0,0
42259,-100,4,2,2,70,0,0
42639,379.746835443038,4,2,2,70,1,0
43968,-100,4,1,1,50,0,0
44729,-100,4,2,2,70,0,0
45297,-100,4,1,2,50,0,0
45487,379.746835443038,4,1,2,50,1,0
45868,-100,4,2,2,70,0,0
46438,-100,4,2,2,60,0,0
47195,-100,4,2,1,60,0,0
47955,-100,4,2,2,70,0,0
48241,-100,4,1,1,50,0,0
48335,379.746835443038,4,1,1,50,1,0
51183,379.746835443038,4,1,1,50,1,0
52322,-100,4,1,2,60,0,0
52891,-100,4,1,1,50,0,0
55360,-100,4,2,2,50,0,0
55646,-100,4,1,1,50,0,0
58113,-100,4,1,2,55,0,0
58967,-100,4,1,1,60,0,0
64284,-100,4,1,2,60,0,0
65043,-100,4,1,1,60,0,0
70360,-100,4,1,2,60,0,0
71119,-100,4,1,1,60,0,0
76436,-100,4,1,2,60,0,0
77197,-100,4,1,1,60,0,0
78524,-100,4,1,2,60,0,0
88967,-100,4,1,1,60,0,0
89157,379.746835443038,3,1,1,60,1,0
89346,-100,3,1,2,60,0,0
91815,379.746835443038,3,1,2,60,1,0
93903,-100,3,1,1,60,0,0
94283,-100,3,1,2,60,0,0
95042,-100,3,1,1,60,0,0
95422,-100,3,1,2,60,0,0
96561,-100,3,1,1,60,0,0
96751,379.746835443038,3,1,1,60,1,0
96940,-100,3,1,2,60,0,0
98839,-100,3,1,1,60,0,0
99029,379.746835443038,4,1,1,60,1,0
101877,379.746835443038,4,1,1,60,1,0
104725,379.746835443038,4,1,2,60,1,1
107383,-100,4,1,1,60,0,1
107573,379.746835443038,4,1,1,60,1,1
107762,-100,4,1,2,60,0,1
110326,-100,4,1,2,60,0,0
110421,379.746835443038,4,1,2,60,1,1
110515,-100,4,1,2,60,0,0

[Colours]
Combo1 : 32,32,253
Combo2 : 132,168,251
Combo3 : 3,239,245

[HitObjects]
296,316,1438,6,0,B|428:324,2,120,2|2|0
216,316,2956,2,0,B|84:324,1,120,2|2
48,260,3906,1,0
84,188,4286,6,0,B|111:132|96:40,2,120,2|2|0
160,208,5804,2,0,B|219:223|307:188,1,120,2|2
352,172,6754,1,8
420,128,7134,6,0,B|484:164|484:300|420:336,1,240,4|0
356,292,8652,2,0,B|256:252|156:300,1,200,8|2
88,332,9982,6,0,B|40:229|51:89,1,240,4|0
132,92,11500,2,0,B|128:28|52:12,2,120,4|4|8
144,132,12830,6,0,B|192:184|316:188|372:136,1,240,4|0
432,92,14348,2,0,B|472:140|472:236|432:284,1,200,8|0
372,332,15678,6,0,B|288:368|224:368|140:332,1,240,4|8
132,252,17196,2,0,B|73:238|15:270,2,120,12|4|8
172,256,18526,6,0,B|231:236|264:182,2,120
228,316,20044,2,0,B|292:332|356:308,1,120
416,272,20994,1,0
448,196,21374,6,0,B|468:137|436:56,2,120
368,204,22893,2,0,B|304:190|245:130,1,120
196,100,23842,1,0
184,180,24222,6,0,B|121:181|68:152,2,120,4|4|8
208,256,25740,2,0,B|288:272|360:264,2,120,4|4|8
172,276,27070,6,0,B|109:277|56:248,2,120,4|4|8
216,340,28588,2,0,B|260:340|260:340|288:356|288:356|364:356,2,120,4|4|0
176,340,29918,6,0,B|132:340|132:340|104:324|104:324|28:324,2,120,6|0|8
204,308,31247,6,0,B|248:224,1,80
300,292,32006,2,0,B|344:208,1,80,0|8
276,168,32765,6,0,B|220:144|124:152,2,120,2|0|0
316,164,34095,6,0,B|400:152|456:72,1,160,2|0
380,40,35234,1,8
312,80,35613,2,0,B|252:104|200:68|200:68|120:36|76:88,1,240,4|8
56,108,36943,6,0,B|124:172,1,80,2|2
44,204,37702,2,0,B|112:268,1,80,2|8
32,300,38461,2,0,B|100:364,1,80,2|0
128,348,39031,6,0,B|208:376,2,80,0|2|0
176,284,40170,2,0,B|256:312,2,80,0|0|2
220,216,41309,6,0,B|280:200|352:220,2,120,4|8|10
196,184,42639,6,0,B|144:104,2,80
252,128,43778,1,8
320,84,44157,2,0,B|381:73|437:97,1,120,2|8
500,148,45107,1,2
508,228,45487,6,0,B|496:273|451:293,2,80,0|2|0
428,208,46626,1,8
348,200,47005,2,0,B|257:168|222:113,2,120
352,240,48335,6,0,B|392:260|424:300,2,80
272,256,49474,2,0,B|232:264|180:240,1,80,0|4
172,168,50233,2,0,B|156:152|124:144,1,40,8|4
116,224,50803,6,0,B|77:205|64:212,2,40,0|0|12
156,292,51562,2,0,B|187:306|228:308,1,40,8|6
276,308,52132,2,0,B|344:312|400:260,1,120,8|4
440,212,53081,5,0
436,132,53461,2,0,B|304:108,1,120,0|2
272,44,54410,2,0,B|196:76,1,80,2|0
120,52,55170,2,0,B|68:116,1,80,2|0
44,144,55739,6,0,B|24:196|44:284,1,120,4|8
76,280,56499,6,0,B|188:264,1,80,0|8
216,320,57258,2,0,B|328:304,1,80,0|8
316,272,57828,6,0,B|444:288,1,120,4|2
492,232,58777,2,0,B|484:144|416:88,1,160,4|0
388,72,59727,5,0
312,56,60107,2,0,B|284:96|224:100,1,80,2|0
172,128,60866,2,0,B|192:176|260:184,1,80,2|0
296,224,61626,1,8
268,252,61815,6,0,B|212:280|144:288,2,120,4|0|8
336,292,63334,2,0,B|392:320|460:328,2,120,4|4|2
264,328,64853,6,0,B|192:352|106:351,1,160,4|0
80,320,65803,6,0,B|32:256,1,80
80,192,66562,2,0,B|84:112,1,80
160,140,67322,2,0,B|214:81,1,80
240,112,67891,6,0,B|288:176,1,80,0|0
316,208,68461,6,0,B|392:192|440:144|436:132,1,120,8|0
380,84,69410,2,0,B|337:37|260:28,2,120,0|4|0
420,152,70929,6,0,B|400:232|368:248,1,80,4|0
448,284,71689,2,0,B|381:332|346:324,1,80,4|0
348,296,72258,6,0,B|260:304,1,80,2|2
196,264,73018,2,0,B|221:228|264:220,2,80,2|2|0
164,240,73967,6,0,B|112:204|96:128,2,120,4|0|8
116,304,75486,2,0,B|160:320|174:354|174:354|214:354,2,120,4|4|2
44,268,77005,2,0,B|4:324|17:394,2,120,4|8|8
68,236,78334,6,0,B|138:159,1,80,0|2
156,199,78904,6,0,B|247:150,1,80,0|0
296,204,79664,1,8
300,124,80043,2,0,B|272:64|196:44,2,120,4|8|8
340,136,81372,6,0,B|369:169|369:169|383:199|383:199|414:236,1,120,2|4
372,300,82322,1,0
312,248,82701,1,0
268,180,83081,6,0,B|215:129|107:137|57:216,1,240,4|8
72,291,84600,2,0,B|124:341|232:333|282:254,1,240,4|8
360,272,86119,6,0,B|396:328|468:340,2,120,4|0|8
372,192,87638,2,0,B|300:156|212:156|140:192,1,240,0|4
100,260,89157,6,0,B|216:308,4,120,0|0|0|0|8
120,184,91815,6,0,B|36:84,4,120,0|0|0|0|2
192,144,94473,5,0
272,136,94852,1,4
348,160,95232,2,0,B|408:180|466:170,2,120,2|0|0
272,136,96751,6,0,B|212:116|153:126,1,120,4|0
136,244,97890,2,0,B|196:264|254:253,1,120,4|0
356,316,99029,6,0,B|408:276|484:272,2,120,4|0|0
328,240,100547,2,0,B|268:264|200:256,2,120,8|0|0
360,216,101877,6,0,B|367:158|343:98,2,120,8|0|0
284,196,103395,2,0,B|220:308,1,120,8|0
256,376,104345,1,4
336,372,104725,6,0,B|396:356|420:276,2,120,4|4|8
256,376,106243,2,0,B|128:376,1,120,4|4
80,320,107193,1,8
56,244,107573,6,0,B|48:184|87:119,2,120,4|4|8
132,264,109091,2,0,B|260:240,1,120,4|4
328,232,110041,2,0,B|372:232,2,40,8|8|4
