osu file format v9

[General]
AudioFilename: Shining Wizard.mp3
AudioLeadIn: 800
PreviewTime: 1438
Countdown: 0
SampleSet: Soft
StackLeniency: 0.7
Mode: 0
LetterboxInBreaks: 0

[Editor]
DistanceSpacing: 0.5
BeatDivisor: 4
GridSize: 4

[Metadata]
Title:Shining Wizard
Artist:96
Creator:Lan wings
Version:Advanced
Source:jubeat
Tags:Bemani knit spboxer3 Foreverends pop'n music 20 fantasia sorcery progressive Kurozawa Daisuke

[Difficulty]
HPDrainRate:6
CircleSize:4
OverallDifficulty:6
ApproachRate:8
SliderMultiplier:2
SliderTickRate:1

[Events]
//Background and Video events
0,0,"BG.jpg"
//Break Periods
//Storyboard Layer 0 (Background)
//Storyboard Layer 1 (Fail)
//Storyboard Layer 2 (Pass)
//Storyboard Layer 3 (Foreground)
//Storyboard Sound Samples
//Background Colour Transformations
3,100,163,162,255

[TimingPoints]
1438,379.746835443038,4,2,1,40,1,0
4286,379.746835443038,4,2,1,40,1,0
7134,379.746835443038,4,2,1,60,1,0
7134,-100,4,2,1,60,0,0
9982,379.746835443038,4,2,1,60,1,0
12640,-100,4,1,1,60,0,0
12830,379.746835443038,4,2,1,60,1,0
15678,379.746835443038,4,2,1,60,1,0
16058,-100,4,2,1,30,0,0
16248,-100,4,2,1,40,0,0
16438,-100,4,1,1,50,0,0
16627,-100,4,1,1,60,0,0
16817,-100,4,2,1,60,0,0
16912,-100,4,1,1,60,0,0
17007,-100,4,2,1,60,0,0
17197,-100,4,1,1,60,0,0
18526,379.746835443038,4,2,1,60,1,0
21374,379.746835443038,4,2,1,60,1,0
24222,379.746835443038,4,2,1,60,1,0
27070,379.746835443038,4,2,1,60,1,0
27070,-76.9230769230769,4,2,1,60,0,0
29918,379.746835443038,4,2,1,60,1,0
30108,-100,4,2,1,60,0,0
31247,379.746835443038,4,2,1,60,1,0
34095,379.746835443038,4,2,1,60,1,0
36943,379.746835443038,4,2,1,60,1,0
39791,379.746835443038,4,2,1,60,1,0
42639,379.746835443038,4,2,1,60,1,0
44729,-100,4,1,1,60,0,0
44919,-100,4,2,1,60,0,0
45298,-100,4,1,1,60,0,0
45487,379.746835443038,4,2,1,60,1,0
46058,-100,4,1,1,60,0,0
46248,-100,4,2,1,60,0,0
46627,-100,4,1,1,60,0,0
46817,-100,4,2,1,60,0,0
48335,379.746835443038,4,2,1,60,1,0
51183,379.746835443038,4,2,1,60,1,0
52324,-100,4,1,1,40,0,0
52703,-100,4,2,1,60,0,0
53843,-100,4,1,1,60,0,0
54032,-100,4,2,1,60,0,0
54602,-100,4,1,1,60,0,0
54792,-100,4,2,1,60,0,0
55362,-100,4,1,1,60,0,0
56311,-100,4,2,1,60,0,0
58400,-100,4,1,1,60,0,0
58969,-100,4,2,1,60,0,0
64475,-100,4,1,1,60,0,0
65045,-100,4,2,1,60,0,0
67513,-100,4,1,1,60,0,0
68273,-100,4,2,1,60,0,0
70551,-100,4,1,1,60,0,0
71121,-100,4,2,1,60,0,0
89157,379.746835443038,3,2,1,60,1,0
91815,379.746835443038,3,2,1,60,1,0
96751,379.746835443038,3,2,1,60,1,0
99029,379.746835443038,4,2,1,60,1,0
101877,379.746835443038,4,2,1,60,1,0
104725,379.746835443038,4,2,1,60,1,1
107573,379.746835443038,4,2,1,60,1,1
110326,-100,4,2,1,60,0,0
110421,379.746835443038,4,2,1,60,1,1
110515,-100,4,2,1,60,0,0

[Colours]
Combo1 : 32,32,253
Combo2 : 132,168,251
Combo3 : 3,239,245

[HitObjects]
320,104,1438,2,0,B|343:145|407:145,1,100,2|0
344,256,1817,2,0,B|303:279|303:343,1,100,0|2
192,280,2197,2,0,B|169:239|105:239,1,100,0|2
168,128,2577,2,0,B|209:105|209:41,1,100,2|0
320,248,2956,6,0,B|278:271|278:335,1,100,2|0
200,256,3336,2,0,B|176:214|112:214,1,100,0|2
192,136,3716,2,0,B|233:112|233:48,1,100,0|2
308,128,4096,1,0
400,168,4286,1,2
496,144,4475,2,0,B|472:192|472:192|472:272,1,100,0|2
456,328,4855,1,0
368,320,5045,1,2
296,376,5235,1,2
288,288,5425,2,0,B|248:240,2,50
368,320,5804,6,0,B|368:264|408:216,1,100,2|0
352,160,6184,1,0
312,88,6374,2,0,B|272:112|272:112|192:128,1,100,2|0
219,122,6659,1,0
219,122,6754,1,2
128,192,6944,1,2
128,192,7039,1,2
128,192,7134,6,0,B|112:240|112:240|48:312,1,100,8|0
160,360,7513,2,0,B|176:312|176:312|240:240,1,100,2|0
352,240,7893,2,0,B|336:288|336:288|272:360,1,100,0|2
208,276,8273,2,0,B|184:232,2,50,0|0|8
304,324,8652,6,0,B|352:304|440:312,1,100,8|0
352,240,9032,1,2
396,152,9222,2,0,B|348:172|260:164,1,100
297,166,9507,1,0
297,166,9602,1,2
214,166,9792,1,2
214,166,9887,1,2
214,166,9982,6,0,B|164:172|116:152,1,100,8|0
72,240,10361,2,0,B|108:276|108:276|128:336,1,100,2|0
188,272,10741,1,0
256,332,10931,1,2
324,272,11121,1,0
360,292,11216,1,0
396,296,11311,1,2
412,192,11500,6,0,B|352:196|312:156,1,100,8|0
340,88,11880,1,2
412,116,12070,1,8
412,192,12260,1,0
340,216,12450,2,0,B|292:232|292:232|216:224,1,100,2|8
156,176,12830,6,0,B|132:224|132:224|204:272|176:376,1,200,8|2
272,384,13399,2,0,B|304:336|364:336,1,100,2|0
368,248,13779,2,0,B|320:216|320:156,1,100,2|0
320,164,14064,1,0
320,164,14159,1,8
368,104,14348,6,0,B|328:80|260:80|244:160|244:160|196:136,1,200,8|2
128,112,14918,2,0,B|92:160|104:216,1,100,2|0
184,236,15298,2,0,B|220:188|208:132,1,100,2|0
288,96,15678,6,0,B|296:156|300:196|284:244|228:328,1,200,8|8
332,312,16247,1,2
272,368,16437,1,8
196,344,16627,1,8
180,264,16817,1,0
180,264,17007,1,0
252,220,17196,6,0,B|296:188|300:104,1,100,8|0
284,104,17481,1,0
264,76,17576,2,0,B|300:44|392:36,1,100,0|8
368,64,17861,1,8
376,92,17956,1,0
380,120,18051,1,0
380,148,18146,1,8
376,176,18241,1,8
372,200,18336,1,0
364,224,18431,1,0
352,244,18526,6,0,B|312:276|312:276|272:256|192:292,1,150,8|0
164,308,18905,2,0,B|216:352|288:352,1,100,2|2
180,204,19285,2,0,B|128:160|56:160,1,100,0|2
104,260,19665,1,0
104,260,19760,1,0
104,260,19855,1,0
160,360,20044,6,0,B|224:328|280:216,1,150,0|0
260,252,20424,2,0,B|272:312|360:336,1,100,2|2
384,276,20804,2,0,B|384:212|456:184,1,100,0|2
512,176,21184,1,2
460,108,21374,6,0,B|344:148|260:48,1,200,8|2
208,128,21943,1,10
168,216,22133,2,0,B|156:276|204:328,1,100
344,168,22513,2,0,B|356:108|308:56,1,100,2|0
400,20,22892,6,0,B|448:100|436:216,1,200,8|0
348,268,23462,2,0,B|328:216|352:140,1,100,0|2
260,148,23842,1,0
216,224,24032,1,2
224,316,24222,6,0,B|152:328|116:264|116:264|64:288,1,150,8|2
96,273,24601,1,0
60,184,24791,1,0
120,108,24981,1,0
208,148,25171,1,6
300,184,25361,1,0
300,184,25456,1,2
300,184,25551,1,0
344,108,25740,6,0,B|384:136|416:132|416:132|416:156|480:204,1,150,8|2
460,188,26120,2,0,B|456:256|396:268,1,100
312,312,26500,1,0
312,312,26595,1,0
312,312,26690,1,2
200,312,26880,1,0
200,312,26975,1,0
200,312,27070,6,0,B|144:320|112:296|96:260|112:188,1,129.999994049073
376,248,27449,2,0,B|384:304|360:336|324:352|252:336,1,129.999994049073,2|2
312,72,27829,2,0,B|368:64|400:88|416:124|400:196,1,129.999994049073,0|2
136,136,28209,1,2
136,136,28304,1,2
136,136,28399,1,0
312,72,28588,6,0,B|348:108|400:96|428:48|392:0,1,129.999994049073
376,248,28968,2,0,B|340:284|352:336|400:364|448:328,1,129.999994049073,2|2
200,312,29348,2,0,B|164:276|112:288|84:336|120:384,1,129.999994049073
136,136,29728,2,0,B|172:100|160:48|112:20|64:56,1,129.999994049073,2|0
48,120,30107,5,0
48,120,30202,1,0
48,120,30297,2,0,B|20:144|20:168|24:208|80:216,1,100,2|8
132,176,30677,1,0
156,252,30867,1,0
80,280,31057,1,2
116,356,31247,2,0,B|164:368|240:364|272:280|244:208,1,200,0|2
396,28,32006,2,0,B|348:16|272:20|240:104|268:176,1,200,2|0
344,192,32576,2,0,B|392:212|420:196|444:144,1,100,2|0
320,272,32955,6,0,B|332:320|332:320|380:368,1,100,2|2
256,324,33335,1,0
192,272,33525,2,0,B|180:320|180:320|132:368,1,100,2|2
72,296,33905,1,2
52,208,34095,2,0,B|128:124|240:124,1,200
256,192,34664,1,2
460,176,34854,2,0,B|384:260|272:260,1,200,0|2
344,172,35613,6,0,B|396:236|420:344,1,150,8|0
388,336,35993,2,0,B|444:348|512:324,1,100,2|2
472,240,36373,1,0
492,148,36563,1,0
408,100,36753,1,2
344,172,36943,2,0,B|344:220|328:272|260:300|184:248,2,200,0|2|2
256,192,38082,5,0
256,192,38272,1,2
256,192,38462,1,0
84,120,38841,6,0,B|144:128|216:76,1,100,2|2
160,212,39221,2,0,B|100:204|28:256,1,100
128,292,39601,1,2
180,352,39791,2,0,B|240:332|256:292|256:292|272:332|332:352,1,200
384,292,40360,1,2
352,212,40550,2,0,B|412:204|448:233,1,100,0|8
428,120,40930,2,0,B|368:128|331:98,2,100,2|2|0
352,212,41499,5,2
256,124,41689,1,0
160,212,41879,1,2
256,296,42069,2,0,B|304:320|304:320|388:320,1,100,0|2
368,240,42449,1,2
448,272,42639,2,0,B|428:188|496:128|496:128|472:72,1,200,0|2
456,64,43113,1,2
420,44,43208,2,0,B|316:68,1,100,0|2
92,340,43778,6,0,B|196:316,1,100,0|2
152,236,44157,1,0
44,236,44347,1,2
88,132,44537,2,0,B|200:160,1,100,0|8
212,76,44917,1,0
296,92,45107,2,0,B|312:144|376:188,1,100,0|8
392,108,45487,2,0,B|356:100|356:100|308:168|192:164,1,200
256,236,46056,1,8
128,364,46246,2,0,B|164:372|164:372|212:304|328:308,1,200
376,264,46816,1,2
400,188,47005,1,0
392,108,47195,6,0,B|356:152|292:168,1,100
308,64,47575,2,0,B|344:20|408:4,1,100
234,110,47955,2,0,B|188:100|152:56,2,100,2|0|0
206,213,48524,2,0,B|170:253|124:268,1,100,2|0
40,256,48904,2,0,B|48:308|84:344,1,100,2|2
152,296,49284,1,0
208,356,49474,2,0,B|256:340|256:340|316:360,1,100,0|2
388,320,49853,2,0,B|372:288|372:288|448:248|432:136,1,200
344,152,50423,5,2
312,68,50613,2,0,B|368:64|428:24,2,100
232,112,51183,2,0,B|136:112|120:208|120:208|80:204,1,200,2|0
280,272,51752,2,0,B|376:272|392:176|392:176|432:180,1,200,2|0
256,192,52322,1,0
256,192,52417,1,0
256,192,52512,1,0
256,192,52607,1,0
256,192,52701,1,0
328,140,52891,5,0
380,140,52986,1,0
424,112,53081,2,0,B|440:52|500:32,1,100,2|0
508,120,53461,1,0
456,192,53651,1,0
496,276,53841,1,8
448,356,54031,2,0,B|400:252|280:240,1,200
240,308,54600,1,0
152,272,54790,2,0,B|176:168|308:104,2,200
220,336,55739,1,8
132,364,55929,2,0,B|120:296|120:296|88:268|88:268|64:168,1,200,0|0
144,164,56499,6,0,B|196:144|216:88,1,100
298,95,56879,2,0,B|316:144|368:164,1,100,2|2
464,220,57258,2,0,B|440:260|440:260|392:284|340:260|340:260|280:336,1,200
48,164,57828,2,0,B|72:124|72:124|120:100|172:124|172:124|232:48,1,200,2|0
252,168,58398,1,8
236,216,58493,1,0
196,252,58588,1,8
148,272,58683,1,8
96,272,58777,6,0,B|120:324|204:352,1,100
216,336,59062,1,0
260,336,59157,2,0,B|308:322|332:270,1,100,2|2
344,112,59537,2,0,B|392:125|416:177,1,100
336,192,59917,1,2
332,272,60107,2,0,B|292:328|220:316|164:276|200:200,1,200,0|2
216,68,60866,5,2
440,40,61246,5,2
352,260,61626,5,2
232,296,61815,6,0,B|168:308|116:264|116:264|76:276,1,150
56,280,62195,2,0,B|40:172,1,100,2|0
116,92,62575,2,0,B|132:200,1,100
208,120,62955,2,0,B|192:12,1,100,2|2
318,21,63334,2,0,B|304:120,1,100
256,192,63714,1,2
176,220,63904,2,0,B|200:288|312:288|336:216,1,200,0|0
420,160,64474,6,0,B|476:180,1,50,8|0
436,212,64664,2,0,B|476:244,1,50,8|8
424,264,64853,6,0,B|484:352,1,100
436,352,65138,1,0
392,376,65233,2,0,B|328:384|276:320,1,100,2|2
216,268,65613,1,0
296,268,65803,1,0
211,345,65993,2,0,B|184:384|120:376,1,100,2|0
72,308,66372,1,0
136,252,66562,2,0,B|132:156|80:52,2,200,0|2|0
216,284,67512,5,8
236,276,67607,1,8
256,268,67701,1,0
272,260,67796,1,8
292,252,67891,2,0,B|340:252,2,50
384,344,68271,6,0,B|444:328|500:260,1,100,2|0
472,200,68651,2,0,B|446:165|386:149,1,100
296,300,69031,2,0,B|330:274|346:214,1,100,2|2
224,96,69410,2,0,B|249:130|309:146,1,100
384,100,69790,1,2
312,56,69980,2,0,B|312:160|204:268,1,200,0|0
152,192,70550,2,0,B|104:136,1,50,8|0
124,232,70739,2,0,B|64:200,1,50,8|8
120,280,70929,6,0,B|168:284|228:340,1,100
256,304,71214,1,0
303,323,71309,2,0,B|344:284|392:280,1,100,2|2
336,212,71689,1,0
408,160,71879,1,0
376,76,72069,1,2
300,128,72258,2,0,B|228:184|148:140|148:140|152:184,1,200,0|2
200,336,73018,2,0,B|272:280|352:324|352:324|348:280,2,200,0|2|2
256,192,73967,12,0,75107
256,192,75486,12,0,76626
256,192,77005,5,0
124,164,77195,1,0
152,144,77290,1,0
184,124,77385,1,2
256,192,77575,1,2
328,124,77765,2,0,B|352:180|440:208,1,100
336,248,78145,1,2
432,264,78334,2,0,B|428:312|384:364|316:364|260:320,1,200
279,333,78809,5,0
279,333,78904,1,2
212,256,79094,1,2
128,316,79284,2,0,B|32:244,1,100
52,152,79664,2,0,B|148:224,1,100,2|0
460,152,80233,6,0,B|364:224,1,100,0|2
456,260,80613,1,2
388,320,80803,2,0,B|496:376,1,100
372,232,81182,2,0,B|264:176,1,100,2|0
52,232,81752,6,0,B|148:160,1,100,0|2
56,124,82132,1,2
124,64,82322,2,0,B|16:8,1,100
140,152,82701,2,0,B|248:208,1,100,2|0
200,352,83271,5,0
188,340,83366,1,0
176,328,83461,1,2
256,280,83651,1,2
312,352,83841,2,0,B|396:256,2,100,0|2|2
256,280,84410,2,0,B|200:192|328:192|236:60,1,200,2|0
256,60,84885,1,0
256,32,84980,1,0
348,60,85170,1,0
256,192,85360,12,0,88777
40,72,90486,5,0
78,221,90865,1,0
189,111,91245,1,0
102,135,91435,1,0
111,143,91530,1,0
121,151,91625,2,0,B|160:196|236:188,1,100
370,166,92384,5,0
348,60,92574,1,0
269,138,92764,1,0
349,222,92954,5,0
428,144,93144,1,0
327,116,93333,2,0,B|296:192|264:300,1,150
268,280,93713,1,0
260,300,93808,1,0
252,320,93903,1,0
244,340,93998,1,0
236,360,94093,1,0
420,192,94852,5,4
420,192,95042,1,4
92,192,95992,5,4
92,192,96182,1,4
256,356,96751,1,4
420,192,97320,1,4
256,28,97890,1,4
92,192,98459,1,4
52,192,99029,6,0,B|136:184|192:104,1,150
168,92,99408,2,0,B|280:152,1,100,2|2
196,192,99788,1,0
252,252,99978,1,2
316,192,100168,1,0
256,140,100358,1,0
196,192,100547,6,0,B|172:264|172:264|100:344,1,150
144,348,100927,2,0,B|188:316|240:328,1,100,2|2
368,272,101307,2,0,B|324:240|272:252,1,100
200,268,101687,1,2
196,192,101877,6,0,B|264:184|300:128|300:128|316:152,1,150
396,148,102256,2,0,B|376:104|316:28,1,100,2|2
168,63,102636,2,0,B|136:104|116:148,1,100,0|2
144,276,103016,2,0,B|176:235|196:191,1,100
116,148,103395,6,0,B|64:208|24:304,1,150
88,332,103775,2,0,B|128:364|180:364,1,100,2|2
176,256,104155,1,0
252,168,104345,2,0,B|304:168|360:124,1,100,2|2
392,48,104725,6,0,B|440:112|424:200|424:200|480:240,1,200,0|2
360,292,105294,2,0,B|388:344,2,50
256,276,105674,2,0,B|228:224,1,50,2|2
232,231,105864,2,0,B|216:280|136:332,1,100
152,168,106243,6,0,B|200:224|264:260|372:236,1,200,0|2
372,168,106813,1,2
356,152,106908,1,2
340,136,107003,1,0
324,120,107098,1,0
308,104,107193,2,0,B|252:108|224:56,1,100,0|2
448,100,107573,6,0,B|496:136|496:208|488:276|424:292,1,200,0|2
300,248,108142,2,0,B|344:216|420:216,1,100,0|0
208,320,108522,2,0,B|164:352|88:352,1,100,2|0
114,350,108807,1,2
114,350,108902,1,0
64,284,109091,6,0,B|16:248|16:176|24:108|88:92,1,200,0|2
212,136,109661,2,0,B|168:168|92:168,1,100,2|0
304,64,110041,2,0,B|348:32|424:32,1,100,2|0
397,33,110326,1,0
397,33,110421,1,4
