osu file format v8

[General]
AudioFilename: The Ultimate Trololo Mashup.mp3
AudioLeadIn: 0
PreviewTime: 51844
Countdown: 1
SampleSet: Normal
StackLeniency: 0.7
Mode: 0
LetterboxInBreaks: 1

[Editor]
Bookmarks: 4795,24180,42026,51872,61706,76487,84795,104795,121410,142949
DistanceSpacing: 0.800000011920929
BeatDivisor: 2
GridSize: 8

[Metadata]
Title:The Ultimate Trololo Mashup
Artist:8corporation
Creator:DiamondCrash
Version:Normal
Source:
Tags:collab collaboration doomsday eduard khill mashley agent spin here lesjuh krisom dusty notshinta doomsday93 randomjibberish

[Difficulty]
HPDrainRate:5
CircleSize:3
OverallDifficulty:5
ApproachRate:5
SliderMultiplier:1.2
SliderTickRate:1

[Events]
//Background and Video events
Video,-1089,"The Ultimate Trololo Mashup [www.keepvid.com].flv"
0,0,"trolololololololololol.png"
//Break Periods
2,42198,50644
2,76044,83875
//Storyboard Layer 0 (Background)
//Storyboard Layer 1 (Fail)
//Storyboard Layer 2 (Pass)
//Storyboard Layer 3 (Foreground)
//Storyboard Sound Samples
//Background Colour Transformations
3,100,163,162,255

[TimingPoints]
152,307.692307692308,4,1,0,100,1,0

[HitObjects]
48,280,5075,6,0,B|112:264|104:320|192:288,1,120,4|8
256,288,5690,1,0
200,208,5998,1,8
104,200,6305,6,0,B|120:128|192:112,1,120,4|8
272,144,6921,2,0,B|312:208|280:272,1,120,0|8
352,328,7536,6,0,B|464:352|520:256|472:176,2,240,0|0|4
392,240,9075,1,8
400,144,9382,6,0,B|432:88,2,60
312,184,9998,2,0,B|232:216|176:152|176:64|248:40,1,240,4|0
320,88,10921,1,8
320,88,11228,2,0,B|96:208,1,240,0|8
16,224,12152,5,0
56,312,12459,1,0
160,344,12767,1,0
184,152,13382,1,0
184,152,13690,1,12
448,32,14613,5,8
352,24,14921,2,0,B|344:120|408:128|464:136|440:256,1,240,4|8
352,208,15844,1,0
352,208,16152,2,0,B|336:280|392:328|416:328,1,120,4|0
296,344,16767,2,0,B|312:272|256:224|232:224,1,120,8|2
280,144,17382,5,4
152,80,17844,1,0
80,144,18152,1,8
56,240,18459,2,0,B|120:288,1,60,0|8
192,312,18921,5,0
288,320,19228,1,12
344,248,19536,1,0
376,336,19844,2,0,B|448:296|456:192|416:136|312:136|264:168|256:256,1,360
344,248,21075,1,4
256,192,21844,12,4,23536
56,144,24767,5,4
56,144,24921,2,0,B|112:240|216:192,1,180,0|8
288,248,25690,2,0,B|304:312|296:360,2,60,0|0|0
304,152,26305,1,2
256,72,26613,1,8
344,24,26921,5,2
344,24,27228,2,0,B|440:32|480:120|408:200,1,240,4|8
336,256,28151,1,0
336,256,28305,1,0
336,256,28459,2,0,B|272:232|208:256,2,120,0|2|8
160,72,29690,5,4
80,120,29998,2,0,B|40:104|8:80,2,60,0|0|8
120,208,30613,1,2
88,296,30921,1,0
88,296,31228,1,2
88,296,31536,2,0,B|168:224|256:256|280:352,1,240,8|4
360,296,32459,5,2
360,296,32613,1,0
440,176,33075,2,2,B|376:152|328:112,1,120,2|0
240,136,33690,1,2
200,48,33998,1,8
112,80,34305,1,2
56,160,34613,5,4
96,248,34921,1,2
96,248,35075,1,0
232,296,35536,2,0,B|280:288|320:296,2,60,2|0|0
184,208,36151,1,2
256,144,36459,1,8
344,176,36767,1,2
384,88,37075,6,6,B|320:160|352:256|448:280,1,240,4|10
368,344,37998,1,0
288,296,38305,2,2,B|224:304|168:336,2,120,2|0|10
320,208,39228,1,0
256,136,39536,1,4
256,192,39690,12,4,41998
136,232,51844,6,4,B|400:232,1,240,4|8
376,135,52767,1,0
376,38,53075,2,0,B|123:38,1,240,0|8
136,134,53998,1,0
136,229,54305,5,4
203,296,54613,2,0,B|144:348,2,60,0|0|8
256,216,55228,1,0
256,119,55536,1,0
312,40,55844,2,0,B|371:-12,2,60,0|0|8
376,106,56459,1,0
392,200,56767,6,0,B|320:336|256:192|192:48|120:184|120:184|120:192,1,360,4|0
120,280,57998,6,0,B|120:352|256:377|256:377|392:352|392:280|392:280|392:272,1,360,4|0
436,195,59228,6,0,B|48:195,1,360,4|0
88,99,60459,6,0,B|232:99,1,120,4|0
304,99,61075,2,0,B|437:99,1,120,8|0
504,152,61690,6,0,B|504:296|376:344,1,240,8|0
360,248,62613,1,0
296,320,62921,2,0,B|184:240,1,120,8|0
216,160,63536,2,0,B|328:240,1,120
384,168,64152,6,0,B|384:32|256:8|128:32|128:168|128:168|128:176,1,360,4|0
48,80,65382,2,0,B|32:176|128:224,1,120,8|0
176,200,65998,2,0,B|168:288|56:288,1,120,8|0
48,360,66613,6,0,B|312:360,1,240,2|0
384,360,67536,1,0
464,280,67844,2,0,B|200:280,1,240,8|0
176,280,68613,1,0
96,192,69075,6,0,B|112:32|256:16|400:32|416:192|416:192|416:200,1,480,8|4
256,128,70921,1,0
256,224,71228,1,0
352,240,71536,6,0,B|464:296,1,120,8|0
408,376,72152,2,0,B|300:322,1,120
211,322,72767,2,0,B|104:376,1,120,8|0
52,293,73382,2,0,B|160:240,1,120
256,240,73998,6,0,B|256:104,1,120,8|0
256,72,74459,1,0
208,72,74613,2,0,B|64:72,1,120,8|0
64,168,75228,2,0,B|232:168,1,120,2|0
328,168,75844,1,4
344,112,85075,6,0,B|344:40|256:32|144:40|168:144,1,240
256,184,85998,1,0
124,230,86305,1,0
136,328,86613,2,2,B|416:328,1,240
388,230,87536,1,0
256,184,87844,1,0
48,32,88459,6,0,B|48:320,1,240
136,240,89382,2,0,B|248:152|248:320|376:216,1,240
408,144,90305,1,0
48,32,90921,6,0,B|48:320,1,240
136,240,91844,2,0,B|248:152|248:320|376:216,1,240
408,312,92767,1,0
440,88,93382,5,0
320,16,93690,1,0
200,88,93998,1,0
80,16,94305,1,0
104,152,94613,6,0,B|256:264|336:96,1,240
448,176,95536,2,2,B|448:352|272:352,1,240
344,232,96459,2,0,B|48:232,1,240
176,144,97382,5,0
176,144,97690,1,0
200,336,98305,6,0,B|264:392|328:320,3,120
256,192,99844,5,0
256,192,100152,1,0
312,48,100767,6,0,B|248:-8|184:64,3,120
200,144,101998,1,0
64,144,102305,1,0
128,272,102613,1,0
424,152,103228,5,0
424,288,103536,1,0
296,224,103844,1,0
296,368,104152,1,0
256,192,104767,5,4
152,288,105228,6,0,B|224:312,2,60
256,192,105998,5,4
152,96,106459,2,0,B|224:72,2,60
256,192,107228,5,4
400,160,107690,2,0,B|400:232,3,60,0|0|0|2
304,248,108459,1,2
208,248,108767,1,2
153,168,109075,2,0,B|217:96|297:96|369:176,1,240,2|4
336,312,110152,6,0,B|288:368,2,60
256,192,110921,5,4
176,72,111382,2,0,B|224:16,3,60
304,72,112152,5,4
344,160,112459,2,0,B|424:136,2,60
336,256,113075,1,0
245,286,113382,1,4
168,224,113690,6,0,B|88:248,2,60
176,128,114305,1,0
267,99,114613,1,4
344,160,114921,6,0,B|424:136,2,60
336,256,115536,1,0
248,288,115844,1,4
168,224,116152,6,0,B|88:248,2,60
176,128,116767,1,0
256,192,117075,12,0,120767
216,192,122613,6,0,B|320:192,3,80,8|8|8|4
360,264,123536,5,0
424,192,123844,2,0,B|480:240|440:336,1,120,8|0
392,352,124459,2,2,B|322:376|259:293,1,120
267,245,125075,2,0,B|280:172|383:159,2,120,8|0|4
245,139,125998,6,0,B|231:211|128:224,1,120,0|8
88,192,126613,2,0,B|32:144|72:48,1,120,0|4
120,32,127228,2,2,B|189:7|252:90,2,120,2|8|0
256,192,128459,5,0
256,192,128613,1,0
256,192,128767,1,8
432,272,129382,2,0,B|467:232|432:192|432:192|397:152|432:112|432:112|448:104,1,180,8|2
256,192,130305,5,0
256,192,130459,1,0
256,192,130613,1,8
80,112,131228,2,0,B|45:152|80:192|80:192|115:232|80:272|80:272|64:280,1,180,8|2
192,360,132152,5,0
192,360,132305,2,0,B|328:360,1,120,2|0
312,360,132767,1,2
488,352,133075,5,4
488,256,133382,2,2,B|384:152,1,120,2|10
384,264,133998,2,0,B|280:160,2,120,0|4|0
272,264,134921,2,0,B|176:168,1,120,8|0
80,176,135536,5,4
24,88,135844,2,2,B|128:-16,1,120,2|10
128,96,136459,2,0,B|232:-8,2,120,0|4|0
240,96,137382,2,0,B|336:0,1,120,8|0
360,96,137998,1,4
256,192,138305,5,0
256,192,138459,1,0
256,192,138613,1,8
80,272,139228,2,0,B|45:232|80:192|80:192|115:152|80:112|80:112|64:104,1,180,8|2
256,192,140152,5,0
256,192,140305,1,0
256,192,140459,1,8
432,112,141075,2,0,B|467:152|432:192|432:192|397:232|432:272|432:272|448:280,1,180,8|2
360,312,141690,5,4
256,352,141998,1,0
152,312,142305,1,4
224,248,142613,2,0,B|304:248,1,60,2|2
344,368,143075,6,2,B|144:368,1,180,2|10
104,296,143844,1,0
152,208,144152,2,0,B|199:145|312:136|364:214,1,240,4|8
400,296,145075,1,0
424,104,145690,5,0
360,40,145998,1,0
296,104,146305,1,0
360,176,146613,2,0,B|313:239|200:248|148:170,1,240,4|8
216,104,147536,1,0
40,192,148152,5,0
24,288,148459,1,8
112,256,148767,1,0
196,303,149075,2,0,B|324:303,1,120,4|0
316,206,149690,2,0,B|188:206,1,120,8|0
104,96,150459,5,0
104,96,150613,2,4,B|160:16|256:-16|352:8|408:104,2,360
16,144,152767,6,0,B|56:208|120:208|176:160,1,180,4|2
256,120,153536,1,2
256,216,153844,1,2
256,216,153998,2,0,B|256:352,1,120,4|0
416,280,154921,5,0
496,240,155228,2,0,B|456:176|392:176|336:224,1,180,4|2
256,264,155998,1,2
256,168,156305,1,2
256,168,156459,2,0,B|256:32,1,120,4|0
256,192,157075,12,4,159228
