osu file format v8

[General]
AudioFilename: The Ultimate Trololo Mashup.mp3
AudioLeadIn: 0
PreviewTime: 51844
Countdown: 1
SampleSet: Normal
StackLeniency: 0.7
Mode: 0
LetterboxInBreaks: 1

[Editor]
Bookmarks: 4795,24180,42026,51872,61706,76487,84795,104795,121410,142949
DistanceSpacing: 0.800000011920929
BeatDivisor: 2
GridSize: 8

[Metadata]
Title:The Ultimate Trololo Mashup
Artist:8corporation
Creator:DiamondCrash
Version:Hard
Source:
Tags:collab collaboration doomsday eduard khill mashley agent spin here lesjuh krisom dusty notshinta doomsday93 randomjibberish

[Difficulty]
HPDrainRate:7
CircleSize:4
OverallDifficulty:7
ApproachRate:7
SliderMultiplier:2
SliderTickRate:1

[Events]
//Background and Video events
Video,-1089,"The Ultimate Trololo Mashup [www.keepvid.com].flv"
0,0,"trolololololololololol.png"
//Break Periods
2,42198,50944
2,76044,83867
//Storyboard Layer 0 (Background)
//Storyboard Layer 1 (Fail)
//Storyboard Layer 2 (Pass)
//Storyboard Layer 3 (Foreground)
//Storyboard Sound Samples
//Background Colour Transformations
3,100,163,162,255

[TimingPoints]
152.006607668841,307.692307692308,4,1,0,100,1,0
24921,-100,4,1,0,70,0,0
41998,-100,4,1,0,100,0,0

[HitObjects]
56,272,5075,6,0,B|120:368|280:336,1,200,4|2
216,264,5536,1,0
192,184,5690,1,8
272,200,5844,6,2,B|320:104|456:136,1,200,2|0
480,200,6305,2,0,B|400:96|480:16,1,200,0|8
392,16,6767,1,0
312,24,6921,1,4
232,40,7075,6,0,B|269:77|237:93|277:125,2,100,8|0|0
176,96,7536,2,2,B|192:168|248:216|328:216,1,200,10|0
352,144,7998,1,4
280,288,8305,1,8
128,248,8613,1,0
128,248,8767,1,8
56,104,9075,1,8
80,176,9228,6,0,B|136:144|128:88,4,100,2|8|0|8|0
8,200,9998,2,0,B|16:312|136:360,1,200,4|0
168,288,10459,2,2,B|256:216|264:336|360:272,1,200,2|2
400,208,10921,1,8
408,128,11075,1,0
376,56,11228,1,4
256,128,11536,1,8
256,128,11690,1,8
136,56,11998,5,4
104,128,12152,1,0
112,208,12305,1,8
176,256,12459,1,0
256,280,12613,1,0
336,256,12767,1,8
400,208,12921,1,0
408,128,13075,1,4
376,56,13228,1,0
296,32,13382,1,8
216,32,13536,1,0
256,96,13690,1,2
256,96,13998,1,12
80,216,14305,5,2
32,280,14459,1,2
96,328,14613,1,8
144,264,14767,1,2
152,184,14921,2,0,B|256:176|216:264|344:248,1,200,4|2
304,176,15382,5,0
384,184,15536,1,8
344,112,15690,6,2,B|424:104|424:104|472:160|448:232,1,200,2|0
408,280,16152,1,4
408,280,16459,1,8
408,280,16767,1,0
352,344,16921,5,0
272,328,17075,1,8
232,256,17228,1,0
152,256,17382,2,0,B|232:280|288:240|304:152,1,200,4|0
264,104,17844,2,0,B|160:96|160:96|120:192,2,200,0|8|0
344,96,18613,1,4
344,96,18921,1,8
376,24,19075,6,0,B|432:56|424:112,4,100,2|8|0|8|0
296,32,19844,2,0,B|224:104|224:104|168:96|144:152,1,200,4|0
224,184,20305,1,0
72,112,20613,1,8
88,280,20921,1,4
88,280,21075,1,8
240,336,21382,1,8
256,192,21844,12,4,23536
72,72,24767,5,4
72,72,24921,2,2,B|184:120|128:240,1,200
56,304,25382,2,2,B|128:208|240:272,1,200,10|2
296,344,25844,1,0
392,320,25998,2,0,B|400:264|416:216,1,100,2|0
376,128,26305,1,0
456,64,26459,1,2
456,64,26613,1,8
256,24,26921,1,2
232,248,27228,6,2,B|120:288|48:200,1,200,6|0
24,104,27690,1,0
96,32,27844,2,2,B|208:-8|280:80,1,200,10|0
304,176,28305,1,0
400,208,28459,2,2,B|448:168|496:104,2,100,6|0|2
368,304,28921,1,2
448,360,29075,1,8
256,312,29382,1,0
256,312,29536,6,2,B|352:240|288:128,1,200,2|2
216,64,29998,1,2
120,88,30152,1,0
160,176,30305,1,10
112,264,30459,2,0,B|56:264|8:240,2,100,0|2|0
168,344,30921,2,2,B|235:239|339:311,1,200
432,344,31382,1,0
488,264,31536,1,8
336,8,31844,6,2,B|360:56|368:112,1,100,0|2
424,184,32152,2,2,B|356:79|252:151,2,200,6|2|10
384,272,32921,1,2
288,256,33075,1,0
224,328,33228,1,0
136,280,33382,1,2
48,104,33690,1,2
48,104,33844,1,0
136,48,33998,1,8
328,96,34305,6,2,B|304:144|296:200,1,100,0|2
224,264,34613,2,2,B|292:369|396:297,2,200,6|2|10
128,224,35382,1,2
184,136,35536,1,0
160,40,35690,1,0
256,24,35844,1,2
424,128,36152,1,2
424,128,36305,1,0
400,224,36459,1,8
208,160,36767,1,2
120,336,37075,5,4
216,312,37228,1,2
312,344,37382,1,0
296,248,37536,1,0
320,152,37690,2,2,B|344:104|336:48,2,100,10|0|2
136,232,38305,2,2,B|56:152|104:40,2,200,0|2|10
304,344,39228,1,2
304,344,39536,1,4
256,192,39690,12,4,41998
160,344,51844,6,0,B|224:296|288:392|360:352|360:344,1,200,4|0
310,282,52305,1,0
312,200,52459,2,0,B|312:144|258:125|258:125|200:144|200:200|200:200|200:208,1,200,8|0
256,48,53075,5,4
143,160,53382,2,0,B|143:229|69:229,1,100
85,308,53690,2,0,B|224:308|224:168,1,200,8|0
256,48,54305,1,4
369,160,54613,2,0,B|369:229|443:229,1,100
427,308,54921,2,0,B|288:308|288:168,1,200,8|0
256,352,55536,5,4
199,295,55690,1,0
142,238,55844,1,0
256,128,56152,1,8
312,184,56305,1,0
368,240,56459,1,0
256,128,56767,5,0
256,47,56921,2,0,B|139:47,1,100
256,47,57228,2,0,B|368:47,1,100,0|8
312,200,57690,2,0,B|312:256|258:275|258:275|200:256|200:200|200:200|200:192,1,200,0|0
297,74,58305,1,0
337,141,58459,1,0
256,141,58613,1,8
175,141,58767,1,0
217,74,58921,1,0
160,224,59228,6,0,B|224:272|288:176|360:216|360:224,1,200,4|0
320,288,59690,1,0
256,336,59844,2,0,B|256:104,1,200,8|0
392,224,60459,5,4
311,224,60613,1,0
352,152,60767,1,0
191,152,61075,1,8
111,152,61228,1,0
152,216,61382,1,0
152,56,61690,6,0,B|8:56|8:176|8:184|8:296,2,300,4|0|0
256,112,62921,2,0,B|256:320,1,200,0|0
344,232,63536,1,8
344,232,63690,1,0
360,56,64152,6,0,B|504:56|504:176|504:184|504:296,2,300,4|0|0
400,168,65382,2,0,B|368:128|264:120|256:240,1,200,0|0
256,352,65998,1,8
256,352,66152,1,0
176,352,66305,1,0
216,280,66459,1,0
136,280,66613,6,0,B|8:280|8:136,1,200,4|0
88,160,67075,1,8
152,200,67228,2,8,B|61:109|163:7,1,200,8|0
363,22,67844,6,0,B|451:109|360:200,1,200,4|0
296,152,68305,1,0
288,232,68459,1,8
288,232,68613,1,0
120,344,69075,5,2
56,200,69382,1,0
121,150,69536,1,0
129,232,69690,1,8
202,265,69844,1,0
194,183,69998,1,0
187,100,70152,1,0
256,56,70305,5,4
325,100,70459,1,0
318,183,70613,1,0
310,265,70767,1,0
383,232,70921,1,0
456,200,71075,1,0
391,150,71228,1,0
504,40,71536,6,2,B|456:64|480:144|520:224|488:344|416:336,1,300,2|0
384,360,72152,1,8
256,192,72459,1,0
8,344,72767,6,2,B|56:320|32:240|-8:160|24:40|96:48,1,300,2|0
128,24,73382,1,8
256,192,73690,1,0
216,264,73844,1,0
296,264,73998,6,0,B|456:264|512:168,1,200,2|8
408,168,74459,1,0
448,104,74613,6,0,B|368:32|256:96|136:160|64:104,1,400,8|2
0,152,75382,1,0
24,232,75536,1,0
24,232,75844,5,4
72,104,84767,6,4,B|155:31|256:0|357:37|441:108,1,400,6|4
352,256,85690,1,0
208,320,85998,1,0
256,256,86152,1,0
304,320,86305,1,0
160,256,86613,1,0
80,256,86767,1,0
120,184,86921,2,0,B|64:96|184:96|112:-8,1,200
216,96,87536,5,0
296,96,87690,1,0
256,168,87844,1,0
448,328,88459,5,0
368,328,88613,1,0
408,256,88767,1,0
328,256,88921,1,0
248,256,89075,1,0
88,328,89382,2,0,B|296:328,1,200
256,120,89998,5,4
256,120,90305,1,4
64,328,90921,5,0
144,328,91075,1,0
104,256,91228,1,0
184,256,91382,1,0
264,256,91536,1,0
424,328,91844,2,0,B|216:328,1,200
264,256,92305,5,0
344,256,92459,1,0
304,192,92613,1,0
256,128,92767,1,0
72,192,93382,5,4
72,192,93536,1,4
72,192,93690,1,4
256,192,93998,1,4
440,192,94305,1,4
72,280,94921,6,0,B|155:353|256:384|357:347|441:276,1,400
256,272,95844,1,0
256,192,95998,1,0
256,112,96152,1,0
416,112,96459,1,0
416,192,96613,1,0
416,272,96767,2,0,B|328:272|336:96,1,200
176,16,97382,5,0
256,16,97536,1,0
336,16,97690,1,0
256,232,98305,5,0
336,232,98459,1,0
296,160,98613,1,0
216,160,98767,1,0
256,88,98921,1,0
356,304,99228,2,0,B|148:304,1,200
432,304,99844,5,4
80,304,100152,1,4
256,232,100767,5,0
176,232,100921,1,0
216,160,101075,1,0
256,88,101228,1,0
296,160,101382,1,0
156,304,101690,2,0,B|364:304,1,200
432,160,102305,5,0
392,88,102459,1,0
328,40,102613,1,0
256,352,103228,1,0
256,272,103382,1,0
256,192,103536,1,0
120,272,103844,1,4
392,272,104152,1,6
256,192,104767,5,4
80,24,105228,6,0,B|0:112,2,100
216,112,105844,1,0
296,112,105998,1,4
432,24,106459,6,0,B|512:112,2,100
328,152,107075,1,0
328,232,107228,1,4
432,360,107690,6,0,B|512:272,2,100
352,336,108152,2,0,B|208:296,1,100,2|0
248,232,108459,2,0,B|355:261,1,100,2|0
336,176,108767,6,0,B|304:104|200:104|176:184,2,200,2|2|0
256,216,109536,1,0
256,296,109690,1,4
80,136,110152,6,0,B|80:192|160:240,2,100
240,128,110767,1,0
280,200,110921,1,4
432,136,111382,6,0,B|432:192|352:240,2,100
352,128,111844,1,0
272,152,111998,1,0
192,176,112152,1,4
304,288,112459,6,0,B|176:264,1,100
128,248,112767,1,0
48,256,112921,1,0
16,184,113075,1,0
72,128,113228,1,0
136,168,113382,1,4
208,288,113690,6,0,B|336:264,1,100
384,248,113998,1,0
464,256,114152,1,0
496,184,114305,1,0
440,128,114459,1,0
376,168,114613,1,4
256,312,114921,6,0,B|256:200,1,100
213,144,115228,1,0
190,67,115382,1,0
256,22,115536,1,0
321,67,115690,1,0
300,144,115844,1,4
392,272,116152,5,0
320,312,116305,1,0
256,264,116459,1,0
192,312,116613,1,0
120,272,116767,2,0,B|88:192|88:128|200:72,1,200,0|4
312,136,117382,1,0
216,264,117690,1,0
392,272,117998,6,0,B|424:192|424:128|312:72,1,200,0|4
200,136,118613,1,0
296,264,118921,1,0
256,112,119228,5,0
216,264,119536,2,0,B|96:168,2,133.333333333333,4|0|0
296,264,120152,2,0,B|416:352,2,133.333333333333
256,336,120767,1,4
224,136,122613,6,0,B|184:280,1,133.333333333333
288,240,123023,2,0,B|336:72,1,133.333333333333,0|4
64,288,123536,6,0,B|11:192|64:96|64:96|80:80,1,200,0|8
144,240,124152,1,0
216,208,124305,1,0
256,280,124459,1,4
296,208,124613,1,0
368,240,124767,1,0
448,96,125075,6,2,B|501:192|448:288|448:288|432:304,2,200,10|0|6
296,40,125998,1,0
256,112,126152,1,0
216,40,126305,1,8
336,144,126613,2,0,B|320:192|256:211|192:192|176:144|176:144|152:120,1,200,0|4
104,288,127228,1,0
176,320,127382,1,0
256,336,127536,1,8
336,320,127690,1,0
408,288,127844,1,0
256,192,128152,5,4
416,192,128459,1,0
496,192,128613,1,0
456,120,128767,2,0,B|396:87|336:127|313:194|352:232,1,200,8|0
256,352,129382,1,0
296,280,129536,1,0
216,264,129690,1,0
256,192,129844,1,0
96,192,130305,5,0
16,192,130459,1,0
56,264,130613,2,0,B|116:297|176:257|199:190|160:152,1,200,4|0
256,32,131228,1,8
216,104,131382,1,0
296,120,131536,1,0
256,192,131690,1,0
256,272,132152,5,0
184,232,132305,1,0
184,312,132459,1,8
256,352,132613,1,0
328,312,132767,1,0
328,232,132921,1,0
256,192,133075,1,4
344,56,133382,6,0,B|432:56|432:56|456:56|476:69|488:88|488:112|488:112|488:160,1,200,0|8
320,176,133998,1,0
295,253,134152,1,0
215,253,134305,1,4
189,176,134459,1,0
255,125,134613,1,0
168,56,134921,6,0,B|80:56|80:56|56:56|36:69|24:88|24:112|24:112|24:160,2,200,8|0|4
189,176,135844,1,0
255,125,135998,1,0
320,176,136152,1,8
448,272,136459,1,0
64,272,136767,1,4
336,336,137075,5,0
296,264,137228,1,0
256,336,137382,1,8
216,264,137536,1,0
176,336,137690,1,0
256,192,137998,1,4
408,152,138305,5,0
408,232,138459,1,0
480,192,138613,1,8
344,104,138921,2,2,B|304:136|288:192|304:248|344:280|344:280|360:296,1,200,2|6
320,352,139382,1,0
264,296,139536,1,0
232,368,139690,1,8
104,232,140152,5,0
104,152,140305,1,0
32,192,140459,1,4
168,280,140767,2,2,B|208:248|224:192|208:136|168:104|168:104|152:88,1,200,2|10
192,32,141228,1,0
248,88,141382,1,0
280,16,141536,1,0
344,88,141690,5,4
344,88,141844,1,0
344,88,141998,1,0
344,88,142152,1,0
344,88,142305,5,0
256,192,142613,5,8
256,192,142767,1,2
48,112,143075,5,0
80,40,143228,1,0
128,104,143382,1,0
160,32,143536,2,0,B|384:32,1,200,8|0
320,104,143998,1,0
256,152,144152,1,4
184,192,144305,1,0
256,232,144459,1,0
328,272,144613,1,0
256,312,144767,1,8
216,384,144921,1,0
296,384,145075,1,4
160,32,145690,6,0,B|384:32,2,200,0|8|0
192,104,146459,1,0
112,104,146613,2,0,B|128:184|192:192|240:184|264:120,1,200
320,104,147075,1,0
400,104,147228,2,0,B|384:184|320:192|272:184|248:120,1,200,8|4
80,344,148152,5,0
128,280,148305,1,0
160,352,148459,2,0,B|384:352,1,200,8|0
256,232,149075,1,4
184,88,149382,1,0
184,8,149536,1,0
256,48,149690,1,8
328,88,149844,1,0
328,8,149998,1,4
424,352,150459,5,0
352,352,150613,2,0,B|128:352,1,200,0|8
192,280,151075,1,0
256,240,151228,1,0
320,280,151382,1,0
320,200,151536,1,4
296,120,151690,1,0
336,48,151844,1,0
256,48,151998,1,0
176,48,152152,1,8
216,120,152305,1,0
192,192,152459,1,4
136,344,152767,6,0,B|48:264|152:256|48:168,1,200,4|8
16,256,153228,1,2
176,272,153536,1,2
336,272,153844,1,2
350,194,153998,2,0,B|286:154|224:144|147:206,1,200,4|0
88,168,154459,5,0
136,104,154613,1,8
184,40,154767,1,0
256,80,154921,1,0
304,16,155075,1,0
376,40,155228,6,0,B|464:120|360:128|464:216,1,200,4|8
496,128,155690,1,2
336,112,155998,1,2
176,112,156305,1,2
162,190,156459,2,0,B|226:230|298:238|365:178,1,200,4|0
208,368,157228,5,0
256,304,157382,1,0
304,368,157536,1,0
256,192,157690,12,4,159228
