osu file format v8

[General]
AudioFilename: The Ultimate Trololo Mashup.mp3
AudioLeadIn: 0
PreviewTime: 51844
Countdown: 1
SampleSet: Normal
StackLeniency: 0.7
Mode: 0
LetterboxInBreaks: 1

[Editor]
Bookmarks: 4795,24180,42026,51872,61706,76487,84795,104795,121410,142949
DistanceSpacing: 1
BeatDivisor: 2
GridSize: 8

[Metadata]
Title:The Ultimate Trololo Mashup
Artist:8corporation
Creator:DiamondCrash
Version:Easy
Source:
Tags:collab collaboration doomsday eduard khill mashley agent spin here lesjuh krisom dusty notshinta doomsday93 randomjibberish

[Difficulty]
HPDrainRate:2
CircleSize:3
OverallDifficulty:3
ApproachRate:3
SliderMultiplier:0.8
SliderTickRate:1

[Events]
//Background and Video events
Video,-1089,"The Ultimate Trololo Mashup [www.keepvid.com].flv"
0,0,"trolololololololololol.png"
//Break Periods
2,42198,50404
2,76044,83327
//Storyboard Layer 0 (Background)
//Storyboard Layer 1 (Fail)
//Storyboard Layer 2 (Pass)
//Storyboard Layer 3 (Foreground)
//Storyboard Sound Samples
//Background Colour Transformations
3,100,163,162,255

[TimingPoints]
152,307.692307692308,4,1,0,100,1,0

[HitObjects]
496,40,5075,6,0,B|480:184|208:280|80:104,1,480,4|0
24,136,7228,5,0
24,136,7536,2,0,B|40:264|128:320|232:336|272:336,1,320,4|0
256,192,9382,5,8
256,192,9690,1,0
312,136,9998,2,0,B|336:152|384:184|360:296|256:352|152:296|128:184|176:152|200:136,1,400,4|0
256,72,11844,1,8
400,112,12459,6,0,B|456:184|392:280,1,160,0|8
112,272,13690,2,0,B|56:200|120:104,1,160,4|8
64,40,14921,6,4,B|136:-8|208:56|272:136|376:64,1,320
448,80,16459,1,0
504,144,16767,1,8
416,256,17382,6,4,B|408:344|304:368,1,160,4|8
96,256,18613,2,0,B|103:343|200:365,1,160,4|8
312,160,19844,2,0,B|336:176|384:208|360:320|256:376|152:320|128:208|176:176|200:160,1,400,4|0
256,96,21690,1,8
256,192,21998,12,4,23536
40,80,24767,5,4
184,152,25382,1,8
256,120,25690,1,0
312,64,25998,1,2
312,64,26613,1,8
472,256,27228,5,4
328,328,27844,1,8
256,296,28151,1,0
200,240,28459,1,2
200,240,29075,1,8
296,112,29690,6,0,B|312:72|320:24,2,80,4|0|8
224,72,30613,1,0
144,64,30921,1,0
112,136,31228,1,0
120,216,31536,1,8
336,200,32151,6,0,B|416:184|480:128,1,160,4|8
477,129,33075,1,0
344,40,33690,1,0
344,40,33998,1,8
184,344,34613,6,0,B|104:328|40:272,1,160,4|8
42,273,35536,1,0
176,184,36151,1,0
176,184,36459,1,8
256,192,37075,12,4,41998
136,328,51844,6,0,B|160:256|264:240|248:424|360:400|384:328|384:328|384:312,1,320,4|0
362,247,53382,1,0
281,247,53690,1,8
321,177,53998,1,0
336,98,54305,6,0,B|160:98,1,160,4|8
191,177,55228,1,0
176,255,55536,2,0,B|352:255,1,160,4|8
321,176,56459,1,0
360,104,56767,6,0,B|384:48|312:24|258:11|258:11|200:24|128:48|153:112|153:112|160:120,1,320,4|0
216,144,58305,1,0
296,144,58613,1,8
256,216,58921,1,0
296,368,59536,5,0
216,368,59844,1,8
256,296,60152,1,0
216,224,60459,6,0,B|216:176|216:176|216:128,1,80
296,144,61075,2,0,B|296:232,1,80,8|0
360,280,61690,6,0,B|472:288|512:192,1,160,4|0
408,192,62613,1,0
328,184,62921,2,0,B|328:56|400:16,1,160,8|0
152,104,64152,6,0,B|40:96|0:192,1,160,8|0
104,192,65075,1,0
184,200,65382,2,0,B|184:328|112:368,1,160,8|0
88,280,66305,1,0
104,192,66613,6,4,B|104:64|176:24,1,160,4|0
408,192,67844,2,0,B|408:64|336:24,1,160,4|0
256,352,69075,6,0,B|256:0,1,320,0|4
112,264,70921,5,0
104,344,71228,1,0
32,384,71536,1,8
400,264,72152,5,0
408,344,72459,1,0
480,384,72767,1,4
256,32,73382,5,0
256,320,73998,5,2
216,248,74305,1,0
144,208,74613,1,0
368,208,75228,5,2
296,168,75536,1,0
256,96,75844,1,0
64,40,84767,5,0
128,152,85382,1,0
256,184,85998,1,0
384,152,86613,2,0,B|312:96|224:88,2,160,0|2|0
64,296,88459,6,0,B|480:296,1,400
456,232,90305,1,0
448,88,90921,6,0,B|32:88,1,400
56,152,92767,1,0
104,272,93382,6,0,B|256:184|248:368|408:264,1,320
360,200,94921,1,0
256,80,95536,1,0
152,200,96152,1,0
152,40,96767,1,0
256,168,97382,1,12
456,120,98305,6,0,B|456:368,1,240
344,296,99844,1,0
344,296,100152,1,0
232,352,100767,2,0,B|232:104,1,240
256,192,101998,12,0,104152
256,192,104767,5,4
208,80,105228,6,0,B|136:104|112:176|152:256,1,200,0|4
304,304,106459,6,0,B|376:280|400:208|360:128,1,200,0|4
208,80,107690,6,0,B|136:104|112:176|152:256,1,200,0|2
215,283,108767,2,0,B|312:283,3,80,2|2|0|4
392,216,110152,6,0,B|320:168|296:104|320:32,1,200,0|4
196,46,111382,6,0,B|208:104|192:168|120:224,1,200,0|4
224,352,112767,6,0,B|216:288|184:256|104:256,1,160,0|4
136,96,113998,6,0,B|208:104|248:80|272:16,1,160,0|4
392,128,115228,6,0,B|352:176|344:216|400:280,1,160,0|4
256,192,116459,5,0
256,192,117075,12,0,120767
256,192,122613,6,0,B|256:120,3,53.3333333333333,8|8|8|4
176,128,123536,5,0
223,60,123844,2,0,B|297:35|355:98|332:168,1,160,8|0
392,192,124767,1,0
312,216,125075,2,0,B|312:256|256:285|200:256|200:216|200:216|184:200,1,160,8|4
120,216,125998,5,0
120,216,126305,1,8
256,136,126921,1,0
392,216,127536,1,8
335,273,127844,1,0
256,288,128152,1,4
336,144,128767,6,0,B|136:144,1,160,8|0
64,144,129844,1,2
176,312,130613,6,0,B|376:312,1,160,8|0
448,312,131690,1,2
276,208,132459,6,0,B|196:208,4,40,8|0|8|0|4
256,128,133382,5,0
192,80,133690,2,0,B|208:40|256:26|304:40|320:80|320:80|328:96,1,160,8|0
192,176,134921,2,0,B|208:216|256:230|304:216|320:176|320:176|328:160,1,160,8|4
264,328,136152,5,8
176,192,136767,1,0
336,192,137382,1,8
296,120,137690,1,0
216,120,137998,1,4
176,272,138613,6,0,B|376:272,1,160,8|0
448,272,139690,1,2
336,104,140459,6,0,B|136:104,1,160,8|0
56,104,141536,6,0,B|-24:104,5,40,0|0|0|0|0|4
32,200,142921,5,4
48,280,143228,2,8,B|72:320|112:360|192:360,1,160
256,360,144152,2,0,B|488:256,1,240,4|8
464,104,145690,6,8,B|440:64|400:24|320:24,1,160
256,24,146613,2,0,B|24:128,1,240,4|8
176,208,148152,6,8,B|352:208,1,160,0|8
296,288,149075,1,4
216,288,149382,1,0
216,368,149690,2,0,B|304:368,1,80,8|0
416,336,150459,6,0,B|416:168|264:128|144:168|88:224|88:344,1,520,0|8
176,336,152767,6,0,B|352:336,1,160,4|8
256,192,153998,1,4
256,192,154305,1,8
120,112,154921,5,0
176,48,155228,2,0,B|352:48,1,160,4|8
256,192,156459,1,4
256,192,156767,1,8
256,192,157075,12,4,159228
