osu file format v14

[General]
AudioFilename: 8284 vs wa. - Adularescence.mp3
AudioLeadIn: 0
PreviewTime: 84693
Countdown: 0
SampleSet: Normal
StackLeniency: 0.7
Mode: 2
LetterboxInBreaks: 0
WidescreenStoryboard: 0

[Editor]
Bookmarks: 2588,7640,10167,12061,12693,17746,20272,22798,27851,32903,36693,37956,43009,48061,53114,58167,63219,65746,68272,70798,73325,75851,78377,79640,80903,81535,82167,82798,83430,91009,96061,101114,106167,108061,109009
DistanceSpacing: 1.5
BeatDivisor: 4
GridSize: 4
TimelineZoom: 1.9

[Metadata]
Title:Adularescence
TitleUnicode:Adularescence
Artist:8284 vs wa.
ArtistUnicode:8284 vs wa.
Creator:alienflybot
Version:Salad
Source:BMS
Tags:BOF2013 of fighters chronica konzertsaal cross over crossover morion alicia* toybot zirox
BeatmapID:581189
BeatmapSetID:245851

[Difficulty]
HPDrainRate:4
CircleSize:3
OverallDifficulty:6.7
ApproachRate:6.7
SliderMultiplier:1.4
SliderTickRate:2

[Events]
//Background and Video events
0,0,"space_purple_bg.jpg",0,0
//Break Periods
//Storyboard Layer 0 (Background)
//Storyboard Layer 1 (Fail)
//Storyboard Layer 2 (Pass)
//Storyboard Layer 3 (Foreground)
//Storyboard Sound Samples

[TimingPoints]
1325,315.789473684211,4,1,1,55,1,0
2588,-100,4,1,1,100,0,0
2825,-100,4,1,1,85,0,0
2982,-100,4,1,1,75,0,0
3456,-100,4,1,1,85,0,0
3772,-100,4,1,1,75,0,0
4088,-100,4,1,1,85,0,0
4246,-100,4,1,1,75,0,0
4719,-100,4,1,1,85,0,0
4877,-100,4,1,1,75,0,0
5351,-100,4,1,1,85,0,0
5509,-100,4,1,1,75,0,0
5982,-100,4,1,1,85,0,0
6298,-100,4,1,1,75,0,0
6614,-100,4,1,1,85,0,0
7009,-100,4,1,1,50,0,0
7088,-100,4,1,1,55,0,0
7167,-100,4,1,1,60,0,0
7246,-100,4,1,1,65,0,0
7325,-100,4,1,1,85,0,0
7403,-100,4,1,1,75,0,0
7482,-100,4,1,1,85,0,0
7561,-100,4,1,1,90,0,0
7640,-100,4,1,1,100,0,0
7877,-100,4,1,1,90,0,0
8035,-100,4,1,1,80,0,0
8509,-100,4,1,1,90,0,0
8825,-100,4,1,1,80,0,0
9140,-100,4,1,1,90,0,0
9298,-100,4,1,1,80,0,0
9772,-100,4,1,1,90,0,0
9930,-100,4,1,1,80,0,0
10167,-100,4,1,1,55,0,0
10482,-100,4,1,1,65,0,0
10561,-100,4,1,1,55,0,0
10798,-100,4,1,1,60,0,0
11114,-100,4,1,1,70,0,0
11193,-100,4,1,1,60,0,0
11272,-100,4,1,1,70,0,0
11351,-100,4,1,1,60,0,0
11430,-100,4,1,1,65,0,0
11746,-100,4,1,1,75,0,0
11825,-100,4,1,1,70,0,0
12061,-100,4,1,1,75,0,0
12693,-100,4,1,1,100,0,0
12772,-100,4,1,1,80,0,0
13009,-100,4,1,1,90,0,0
13088,-100,4,1,1,80,0,0
13561,-100,4,1,1,90,0,0
13719,-100,4,1,1,80,0,0
14825,-100,4,1,1,90,0,0
14982,-100,4,1,1,80,0,0
15140,-100,4,1,1,100,0,0
15298,-100,4,1,1,80,0,0
15535,-100,4,1,1,90,0,0
15614,-100,4,1,1,80,0,0
16088,-100,4,1,1,90,0,0
16246,-100,4,1,1,80,0,0
17351,-100,4,1,1,90,0,0
17509,-100,4,1,1,80,0,0
17667,-100,4,1,1,100,0,0
17825,-100,4,1,1,70,0,0
17982,-100,4,1,1,80,0,0
18140,-100,4,1,1,70,0,0
18614,-100,4,1,1,80,0,0
18772,-100,4,1,1,70,0,0
18930,-100,4,1,1,75,0,0
19877,-100,4,1,1,85,0,0
20035,-100,4,1,1,80,0,0
20588,-100,4,1,1,90,0,0
20667,-100,4,1,1,80,0,0
21219,-100,4,1,1,90,0,0
21298,-100,4,1,1,80,0,0
21851,-100,4,1,1,90,0,0
21930,-100,4,1,1,80,0,0
22167,-100,4,1,1,70,0,0
22482,-100,4,1,1,80,0,0
22798,-100,4,1,1,100,0,0
22877,-100,4,1,1,75,0,0
23035,-100,4,1,1,85,0,0
23193,-100,4,1,1,75,0,0
23667,-100,4,1,1,85,0,0
24061,-100,4,1,1,85,0,0
24140,-100,4,1,1,75,0,0
24614,-100,4,1,1,85,0,0
24772,-100,4,1,1,75,0,0
24930,-100,4,1,1,85,0,0
25088,-100,4,1,1,75,0,0
25561,-100,4,1,1,85,0,0
25719,-100,4,1,1,75,0,0
26193,-100,4,1,1,85,0,0
26351,-100,4,1,1,75,0,0
26509,-100,4,1,1,85,0,0
27851,-100,4,1,1,100,0,0
27930,-100,4,1,1,75,0,0
28088,-100,4,1,1,85,0,0
28246,-100,4,1,1,75,0,0
28719,-100,4,1,1,85,0,0
28877,-100,4,1,1,75,0,0
29351,-100,4,1,1,85,0,0
29509,-100,4,1,1,75,0,0
29982,-100,4,1,1,85,0,0
30140,-100,4,1,1,75,0,0
30614,-100,4,1,1,85,0,0
30772,-100,4,1,1,75,0,0
31877,-100,4,1,1,85,0,0
32035,-100,4,1,1,75,0,0
32351,-100,4,1,1,85,0,0
32667,-100,4,1,1,75,0,0
32903,-100,4,1,1,40,0,0
32982,-100,4,1,1,55,0,0
33061,-100,4,1,1,70,0,0
33140,-100,4,1,1,85,0,0
33298,-100,4,1,1,75,0,0
33772,-100,4,1,1,85,0,0
34246,-100,4,1,1,75,0,0
34719,-100,4,1,1,85,0,0
34877,-100,4,1,1,75,0,0
35667,-100,4,1,1,85,0,0
35825,-100,4,1,1,75,0,0
36298,-100,4,1,1,85,0,0
36456,-100,4,1,1,75,0,0
37956,-100,4,1,1,85,0,0
38035,-100,4,1,1,75,0,0
38193,-100,4,1,1,85,0,0
38351,-100,4,1,1,75,0,0
38825,-100,4,1,1,85,0,0
38982,-100,4,1,1,75,0,0
39140,-100,4,1,1,85,0,0
39298,-100,4,1,1,75,0,0
39772,-100,4,1,1,85,0,0
39930,-100,4,1,1,75,0,0
40403,-100,4,1,1,100,0,0
40561,-100,4,1,1,55,0,0
40798,-100,4,1,1,65,0,0
41114,-100,4,1,1,60,0,0
41430,-100,4,1,1,70,0,0
41746,-100,4,1,1,65,0,0
42061,-100,4,1,1,75,0,0
42140,-100,4,1,1,60,0,0
42377,-100,4,1,1,70,0,0
42535,-100,4,1,1,75,0,0
42693,-100,4,1,1,80,0,0
42851,-100,4,1,1,85,0,0
43009,-100,4,1,1,95,0,0
43561,-100,4,1,1,75,0,0
43719,-100,4,1,1,55,0,0
44825,-100,4,1,1,75,0,0
45614,-100,4,1,1,55,0,0
46088,-100,4,1,1,75,0,0
46246,-100,4,1,1,55,0,0
47351,-100,4,1,1,75,0,0
47509,-100,4,1,1,55,0,0
47982,-100,4,1,1,95,0,0
48140,-100,4,1,1,55,0,0
48614,-100,4,1,1,75,0,0
48772,-100,4,1,1,55,0,0
49877,-100,4,1,1,75,0,0
50035,-100,4,1,1,55,0,0
50509,-100,4,1,1,75,0,0
50667,-100,4,1,1,55,0,0
51772,-100,4,1,1,75,0,0
51930,-100,4,1,1,55,0,0
52088,-100,4,1,1,80,0,0
52403,-100,4,1,1,85,0,0
52561,-100,4,1,1,65,0,0
52719,-100,4,1,1,90,0,0
52877,-100,4,1,1,70,0,0
53035,-100,4,1,1,95,0,0
53667,-100,4,1,1,75,0,0
53825,-100,4,1,1,55,0,0
54930,-100,4,1,1,75,0,0
55088,-100,4,1,1,55,0,0
56193,-100,4,1,1,75,0,0
56351,-100,4,1,1,55,0,0
58088,-100,4,1,1,95,0,0
58246,-100,4,1,1,55,0,0
58719,-100,4,1,1,75,0,0
58877,-100,4,1,1,55,0,0
59982,-100,4,1,1,75,0,0
60140,-100,4,1,1,55,0,0
60614,-100,4,1,1,75,0,0
60772,-100,4,1,1,55,0,0
61561,-100,4,1,1,75,0,0
61719,-100,4,1,1,55,0,0
61877,-100,4,1,1,75,0,0
62035,-100,4,1,1,55,0,0
62272,-100,4,1,1,80,0,0
62588,-100,4,1,1,85,0,0
62667,-100,4,1,1,65,0,0
62903,-100,4,1,1,90,0,0
63219,-100,4,1,1,100,0,0
63614,-100,4,1,1,95,0,0
64088,-100,4,1,1,90,0,0
64561,-100,4,1,1,85,0,0
65035,-100,4,1,1,80,0,0
65193,-100,4,1,1,75,0,0
65272,-100,4,1,1,85,0,0
65351,-100,4,1,1,80,0,0
65430,-100,4,1,1,90,0,0
65746,-100,4,1,1,100,0,0
66140,-100,4,1,1,95,0,0
66614,-100,4,1,1,90,0,0
67088,-100,4,1,1,85,0,0
67561,-100,4,1,1,80,0,0
67719,-100,4,1,1,75,0,0
67798,-100,4,1,1,85,0,0
67956,-100,4,1,1,90,0,0
68035,-100,4,1,1,90,0,0
68114,-100,4,1,1,95,0,0
68272,-100,4,1,1,100,0,0
68351,-100,4,1,1,80,0,0
68667,-100,4,1,1,95,0,0
69140,-100,4,1,1,90,0,0
69298,-100,4,1,1,70,0,0
69614,-100,4,1,1,85,0,0
70088,-100,4,1,1,80,0,0
70403,-100,4,1,1,90,0,0
70719,-100,4,1,1,100,0,0
70877,-100,4,1,1,80,0,0
71193,-100,4,1,1,95,0,0
71351,-100,4,1,1,75,0,0
71667,-100,4,1,1,90,0,0
71825,-100,4,1,1,70,0,0
72140,-100,4,1,1,85,0,0
72298,-100,4,1,1,65,0,0
72614,-100,4,1,1,80,0,0
73009,-100,4,1,1,90,0,0
73325,-100,4,1,1,100,0,0
73403,-100,4,1,1,80,0,0
73719,-100,4,1,1,95,0,0
73877,-100,4,1,1,75,0,0
74193,-100,4,1,1,90,0,0
74351,-100,4,1,1,70,0,0
74667,-100,4,1,1,85,0,0
74825,-100,4,1,1,65,0,0
75140,-100,4,1,1,80,0,0
75535,-100,4,1,1,90,0,0
75851,-100,4,1,1,100,0,0
75930,-100,4,1,1,80,0,0
76246,-100,4,1,1,95,0,0
76403,-100,4,1,1,75,0,0
76719,-100,4,1,1,90,0,0
76877,-100,4,1,1,70,0,0
77193,-100,4,1,1,85,0,0
77351,-100,4,1,1,65,0,0
77667,-100,4,1,1,80,0,0
78061,-100,4,1,1,90,0,0
78377,-100,4,1,1,100,0,0
78456,-100,4,1,1,75,0,0
79009,-100,4,1,1,100,0,0
79088,-100,4,1,1,80,0,0
79561,-100,4,1,1,100,0,0
79719,-100,4,1,1,85,0,0
79877,-100,4,1,1,100,0,0
80351,-100,4,1,1,90,0,0
80588,-100,4,1,1,100,0,0
80903,-100,4,1,1,95,0,0
82798,-100,4,1,1,90,0,0
82956,-100,4,1,1,85,0,0
83114,-100,4,1,1,80,0,0
83430,-100,4,1,1,75,0,0
83509,-100,4,1,1,70,0,0
83667,-100,4,1,1,65,0,0
83825,-100,4,1,1,60,0,0
83982,-100,4,1,1,55,0,0
84140,-100,4,1,1,50,0,0
84298,-100,4,1,1,45,0,0
84693,-100,4,1,1,80,0,0
85009,-100,4,1,1,85,0,0
85325,-100,4,1,1,90,0,0
85640,-100,4,1,1,100,0,0
85956,-100,4,1,1,100,0,1
86035,-100,4,1,1,80,0,1
86272,-100,4,1,1,90,0,1
86351,-100,4,1,1,80,0,1
86825,-100,4,1,1,90,0,1
87140,-100,4,1,1,80,0,1
87456,-100,4,1,1,90,0,1
87614,-100,4,1,1,80,0,1
88088,-100,4,1,1,90,0,1
88246,-100,4,1,1,80,0,1
88403,-100,4,1,1,90,0,1
88561,-100,4,1,1,80,0,1
88719,-100,4,1,1,90,0,1
89193,-100,4,1,1,80,0,1
89351,-100,4,1,1,90,0,1
89903,-100,4,1,1,55,0,1
90219,-100,4,1,1,55,0,1
90298,-100,4,1,1,90,0,1
90456,-100,4,1,1,80,0,1
90614,-100,4,1,1,90,0,1
90930,-100,4,1,1,100,0,1
91088,-100,4,1,1,80,0,1
91325,-100,4,1,1,90,0,1
91798,-100,4,1,1,95,0,1
91956,-100,4,1,1,100,0,1
92272,-100,4,1,1,90,0,1
92351,-100,4,1,1,80,0,1
92509,-100,4,1,1,70,0,1
92825,-100,4,1,1,90,0,1
92982,-100,4,1,1,60,0,1
93140,-100,4,1,1,50,0,1
93456,-100,4,1,1,90,0,1
94561,-100,4,1,1,80,0,1
94640,-100,4,1,1,90,0,1
94798,-100,4,1,1,100,0,1
96140,-100,4,1,1,80,0,1
96298,-100,4,1,1,90,0,1
96456,-100,4,1,1,80,0,1
96851,-100,4,1,1,90,0,1
96930,-100,4,1,1,80,0,1
97009,-100,4,1,1,90,0,1
97088,-100,4,1,1,80,0,1
97561,-100,4,1,1,90,0,1
97719,-100,4,1,1,80,0,1
98193,-100,4,1,1,90,0,1
99614,-100,4,1,1,80,0,1
99693,-100,4,1,1,90,0,1
99851,-100,4,1,1,75,0,1
101114,-100,4,1,1,100,0,1
101193,-100,4,1,1,80,0,1
101351,-100,4,1,1,90,0,1
101825,-100,4,1,1,80,0,1
101982,-100,4,1,1,90,0,1
102140,-100,4,1,1,80,0,1
102298,-100,4,1,1,100,0,1
102614,-100,4,1,1,90,0,1
102772,-100,4,1,1,80,0,1
103246,-100,4,1,1,90,0,1
103403,-100,4,1,1,80,0,1
103640,-100,4,1,1,75,0,1
103719,-100,4,1,1,55,0,1
103956,-100,4,1,1,80,0,1
104035,-100,4,1,1,60,0,1
104272,-100,4,1,1,85,0,1
104588,-100,4,1,1,90,0,1
104903,-100,4,1,1,95,0,1
104982,-100,4,1,1,75,0,1
105219,-100,4,1,1,95,0,1
105535,-100,4,1,1,100,0,1
105614,-100,4,1,1,80,0,1
105693,-100,4,1,1,100,0,1
106167,-100,4,2,0,40,0,0
106482,-100,4,2,0,35,0,0
106798,-100,4,2,0,30,0,0
107114,-100,4,2,0,25,0,0
107588,-100,4,2,0,20,0,0
108061,-100,4,2,0,15,0,0
108535,-100,4,2,0,10,0,0
109009,-100,4,2,0,5,0,0

[Colours]
Combo1 : 64,222,255
Combo2 : 255,213,64
Combo3 : 255,64,64
Combo4 : 217,64,255

[HitObjects]
256,192,1325,12,0,2588,0:0:0:0:
448,324,2903,6,0,L|456:248,1,70,8|0,0:0|0:0,0:0:0:0:
264,220,3377,1,0,0:0:0:0:
336,192,3535,2,0,L|344:116,1,70,8|8,0:0|0:0,0:0:0:0:
232,304,3851,6,0,P|188:264|184:184,1,140,0|8,0:0|0:0,0:0:0:0:
372,192,4482,1,0,0:0:0:0:
464,180,4640,1,0,0:0:0:0:
404,104,4798,1,8,0:0:0:0:
196,304,5114,6,0,L|124:312,2,70,0|0|8,0:0|0:0|0:0,0:0:0:0:
302,199,5746,2,0,L|372:192,1,70,0|0,0:0|0:0,0:0:0:0:
480,168,6061,1,8,0:0:0:0:
408,84,6219,1,8,0:0:0:0:
304,160,6377,6,0,P|250:117|182:125,1,140,0|8,0:0|0:0,0:0:0:0:
72,336,7009,2,0,B|32:276|56:236|56:236|120:208|120:208|144:168|100:108,1,280
32,336,7956,6,0,L|12:264,1,70,8|0,0:0|0:0,0:0:0:0:
172,236,8430,2,0,L|192:164,2,70,0|8|8,0:0|0:0|0:0,0:0:0:0:
256,264,8903,6,0,L|400:276,1,140,0|8,0:0|0:0,0:0:0:0:
196,336,9535,1,0,0:0:0:0:
184,248,9693,1,0,0:0:0:0:
216,164,9851,1,8,0:0:0:0:
292,112,10009,1,0,0:0:0:0:
256,192,10167,12,0,12061,0:0:0:0:
395,202,12693,6,0,P|423:264|392:324,1,140,4|8,0:0|0:0,0:0:0:0:
276,244,13325,1,0,0:0:0:0:
404,184,13640,2,0,L|448:124,1,70,8|0,0:0|0:0,0:0:0:0:
240,244,14114,1,0,0:0:0:0:
480,128,14430,1,0,0:0:0:0:
404,184,14588,6,0,L|396:260,1,70
312,280,14903,2,0,L|304:200,1,70,8|0,0:0|0:0,0:0:0:0:
172,244,15219,6,0,P|119:199|111:131,1,140,4|8,0:0|0:0,0:0:0:0:
240,244,15851,1,0,0:0:0:0:
84,224,16167,2,0,L|4:268,1,70,8|0,0:0|0:0,0:0:0:0:
208,244,16640,1,0,0:0:0:0:
348,280,16956,1,0,0:0:0:0:
416,280,17114,6,0,L|416:208,1,70
348,280,17430,2,0,L|348:356,1,70,8|0,0:0|0:0,0:0:0:0:
244,244,17746,6,0,P|180:216|144:148,2,140,4|8|0,0:0|0:0|0:0,0:0:0:0:
208,244,18693,1,8,0:0:0:0:
104,244,18851,1,0,0:0:0:0:
244,244,19167,2,0,P|284:192|244:136,1,140
140,244,19640,6,0,L|104:184,1,70
212,136,19956,2,0,L|248:76,1,70,8|0,0:0|0:0,0:0:0:0:
256,192,20272,12,0,22167,0:0:0:0:
220,60,22798,6,0,P|184:120|180:192,1,140,4|8,0:0|0:0,0:0:0:0:
344,312,23430,2,0,P|380:252|384:180,1,140,0|8,0:0|0:0,0:0:0:0:
212,328,24061,1,0,0:0:0:0:
108,328,24219,6,0,P|72:272|108:216,1,140
184,216,24693,2,0,P|220:160|184:104,1,140,0|8,0:0|0:0,0:0:0:0:
108,104,25167,1,0,0:0:0:0:
212,328,25325,6,0,P|308:304|320:200,1,210
348,168,26272,2,0,L|428:148,1,70,8|0,0:0|0:0,0:0:0:0:
492,72,26588,5,4,0:0:0:0:
388,72,26746,1,4,0:0:0:0:
228,180,27061,1,4,0:0:0:0:
332,180,27377,1,4,0:0:0:0:
436,180,27535,1,12,0:0:0:0:
204,168,27851,6,0,L|140:40,1,140,4|8,0:0|0:0,0:0:0:0:
348,168,28482,2,0,L|412:40,1,140,0|8,0:0|0:0,0:0:0:0:
480,192,29114,6,0,L|480:336,1,140,0|8,0:0|0:0,0:0:0:0:
376,360,29588,2,0,P|372:320|232:232,1,210,0|8,0:0|0:0,0:0:0:0:
152,56,30377,5,0,0:0:0:0:
104,112,30535,1,0,0:0:0:0:
152,168,30693,1,8,0:0:0:0:
264,168,30851,6,0,L|396:264,2,140,0|0|0,0:0|0:0|0:0,0:0:0:0:
116,168,31798,1,0,0:0:0:0:
228,168,31956,1,8,0:0:0:0:
336,168,32272,6,0,L|372:104,1,70
476,108,32588,2,0,L|440:44,1,70,8|0,0:0|0:0,0:0:0:0:
300,168,32903,6,0,P|228:204|228:260,1,140,0|8,0:0|0:0,0:0:0:0:
336,284,33535,2,0,P|408:248|408:192,1,140,0|8,0:0|0:0,0:0:0:0:
264,168,34167,5,0,0:0:0:0:
192,168,34325,2,0,L|48:136,1,140
160,244,34798,2,0,L|304:212,1,140,0|8,0:0|0:0,0:0:0:0:
452,168,35272,1,0,0:0:0:0:
384,168,35430,6,0,P|320:232|384:312,1,210
441,108,36377,2,0,L|404:168,1,70,8|0,0:0|0:0,0:0:0:0:
260,76,36693,5,4,0:0:0:0:
276,160,36903,1,4,0:0:0:0:
240,240,37114,1,4,0:0:0:0:
164,284,37325,1,4,0:0:0:0:
76,272,37535,1,4,0:0:0:0:
8,208,37746,1,4,0:0:0:0:
112,272,37956,6,0,P|164:228|176:160,1,140,0|8,0:0|0:0,0:0:0:0:
44,208,38588,1,0,0:0:0:0:
148,112,38746,2,0,L|284:144,1,140
404,68,39219,6,0,P|476:180|400:292,1,280,8|8,0:0|0:0,0:0:0:0:
252,144,40167,1,8,0:0:0:0:
152,144,40325,1,0,0:0:0:0:
20,144,40482,6,0,L|20:288,1,140,4|8,0:0|0:0,0:0:0:0:
232,284,41114,2,0,L|232:144,1,140,0|8,0:0|0:0,0:0:0:0:
256,192,41746,12,4,43009,0:0:0:0:
160,192,43640,5,8,0:0:0:0:
124,192,44272,2,0,P|232:268|340:192,1,280,0|8,0:0|0:0,0:0:0:0:
444,192,45535,6,0,P|444:136|492:64,1,140,8|0,0:0|0:0,0:0:0:0:
376,192,46167,1,8,0:0:0:0:
206,192,46482,6,0,L|136:192,1,70
280,192,46798,2,0,P|304:128|280:60,1,140
88,52,47430,2,0,B|88:192|88:192|204:288,1,280,8|4,0:0|0:0,0:0:0:0:
304,192,48377,5,0,0:0:0:0:
164,280,48693,2,0,L|56:188,1,140,8|0,0:0|0:0,0:0:0:0:
201,96,49325,2,0,P|287:188|200:280,1,280,0|8,0:0|0:0,0:0:0:0:
58,280,50272,2,0,L|128:280,1,70
272,96,50588,5,8,0:0:0:0:
456,156,51061,1,0,0:0:0:0:
312,292,51535,1,0,0:0:0:0:
456,156,51851,6,0,P|492:212|452:272,1,140,8|0,0:0|0:0,0:0:0:0:
312,292,52482,2,0,P|244:280|184:212,1,140,8|0,0:0|0:0,0:0:0:0:
456,188,53114,1,4,0:0:0:0:
320,292,53746,5,8,0:0:0:0:
392,292,54377,2,0,L|432:152,1,140
216,292,55009,2,0,L|176:152,1,140,8|0,0:0|0:0,0:0:0:0:
56,52,55640,6,0,B|4:128|56:180|56:180|108:236|56:312,1,280,0|8,0:0|0:0,0:0:0:0:
244,292,56588,1,0,0:0:0:0:
336,292,56746,1,0,0:0:0:0:
428,292,56903,6,0,P|396:208|288:160,2,210
464,292,58167,6,0,L|504:148,1,140,4|0,0:0|0:0,0:0:0:0:
356,292,58798,2,0,L|396:148,1,140,8|0,0:0|0:0,0:0:0:0:
220,56,59430,2,0,P|220:188|84:232,1,280,0|8,0:0|0:0,0:0:0:0:
256,328,60377,2,0,L|336:344,1,70
220,328,60693,5,8,0:0:0:0:
416,260,61167,1,0,0:0:0:0:
256,112,61640,2,0,L|336:96,1,70,8|0,0:0|0:0,0:0:0:0:
452,260,61956,6,0,P|484:200|452:136,1,140,8|8,0:0|0:0,0:0:0:0:
220,112,62588,2,0,P|188:172|220:236,1,140,8|8,0:0|0:0,0:0:0:0:
420,260,63219,5,4,0:0:0:0:
220,112,63693,1,4,0:0:0:0:
448,16,64167,1,4,0:0:0:0:
200,112,64640,1,4,0:0:0:0:
420,296,65114,2,0,P|388:236|420:172,1,140,4|4,0:0|0:0,0:0:0:0:
316,176,65746,5,4,0:0:0:0:
88,80,66219,1,4,0:0:0:0:
216,324,66693,1,4,0:0:0:0:
352,176,67167,1,4,0:0:0:0:
124,40,67640,2,0,L|52:20,1,70,4|0,0:0|0:0,0:0:0:0:
124,124,67956,2,0,L|196:144,1,70,4|0,0:0|0:0,0:0:0:0:
316,176,68272,6,0,P|352:96|464:60,1,210,4|4,0:0|0:0,0:0:0:0:
352,208,69219,2,0,P|316:288|204:324,1,210,4|4,0:0|0:0,0:0:0:0:
280,64,70167,1,4,0:0:0:0:
428,64,70482,1,4,0:0:0:0:
164,64,70798,6,0,P|164:144|200:200,1,140,4|0,0:0|0:0,0:0:0:0:
300,64,71272,2,0,P|300:144|264:200,1,140,4|0,0:0|0:0,0:0:0:0:
164,172,71746,2,0,P|132:232|164:292,1,140,4|0,0:0|0:0,0:0:0:0:
300,172,72219,2,0,P|332:232|300:292,1,140,4|0,0:0|0:0,0:0:0:0:
164,172,72693,5,4,0:0:0:0:
20,172,73009,1,4,0:0:0:0:
300,172,73325,6,0,L|416:280,1,140,6|0,0:0|0:0,0:0:0:0:
308,136,73798,2,0,L|192:28,1,140,4|0,0:0|0:0,0:0:0:0:
372,136,74272,6,0,L|404:284,1,140,6|0,0:0|0:0,0:0:0:0:
272,136,74746,2,0,L|240:-12,1,140,4|0,0:0|0:0,0:0:0:0:
372,136,75219,5,6,0:0:0:0:
272,136,75535,1,6,0:0:0:0:
372,272,75851,6,0,P|316:232|308:160,1,140,6|0,0:0|0:0,0:0:0:0:
410,242,76325,2,0,P|466:203|476:136,1,140,4|0,0:0|0:0,0:0:0:0:
336,244,76798,6,0,L|192:244,1,140,6|0,0:0|0:0,0:0:0:0:
88,140,77272,2,0,L|240:140,1,140,4|0,0:0|0:0,0:0:0:0:
336,52,77746,1,6,0:0:0:0:
416,168,78061,1,6,0:0:0:0:
352,288,78377,6,0,L|300:152,1,140,2|0,0:0|0:0,0:0:0:0:
209,226,79009,2,0,L|160:96,1,140,2|0,0:0|0:0,0:0:0:0:
72,228,79640,6,0,L|216:272,1,140,2|2,0:0|0:0,0:0:0:0:
306,115,80272,2,0,L|440:156,1,140,2|2,0:0|0:0,0:0:0:0:
344,280,80903,5,2,0:0:0:0:
272,116,81219,1,0,0:0:0:0:
128,116,81377,1,2,0:0:0:0:
164,248,81693,1,0,0:0:0:0:
272,248,81851,1,2,0:0:0:0:
380,280,82167,5,2,0:0:0:0:
420,224,82325,1,0,0:0:0:0:
380,172,82482,2,0,L|236:172,1,140,2|2,0:0|0:0,0:0:0:0:
196,116,82956,1,0,0:0:0:0:
240,64,83114,1,2,0:0:0:0:
464,0,83430,6,0,B|352:84|352:84|464:168|464:168|348:256,1,420
388,252,84693,5,0,0:0:0:0:
132,252,85009,1,0,0:0:0:0:
168,192,85325,2,0,L|252:192,1,70
388,192,85640,1,8,0:0:0:0:
464,192,85956,6,0,P|496:132|464:72,1,140,4|8,0:0|0:0,0:0:0:0:
268,192,86588,1,0,0:0:0:0:
328,192,86745,1,0,0:0:0:0:
388,192,86903,1,8,0:0:0:0:
232,192,87219,6,0,L|196:256,1,70
44,132,87535,2,0,L|124:272,1,140,8|0,0:0|0:0,0:0:0:0:
280,192,88167,2,0,L|316:256,1,70,8|0,0:0|0:0,0:0:0:0:
448,308,88482,5,0,0:0:0:0:
496,260,88640,1,0,0:0:0:0:
448,212,88798,1,8,0:0:0:0:
280,192,89114,2,0,P|248:132|280:72,1,140,0|8,0:0|0:0,0:0:0:0:
448,76,89746,1,0,0:0:0:0:
348,112,89903,6,0,P|372:240|188:244,1,350,0|8,0:0|0:0,0:0:0:0:
128,256,91009,6,0,L|68:120,1,140,4|8,0:0|0:0,0:0:0:0:
164,40,91640,1,0,0:0:0:0:
228,60,91798,1,0,0:0:0:0:
272,108,91956,1,8,0:0:0:0:
288,168,92114,1,0,0:0:0:0:
276,228,92272,6,0,P|232:284|152:308,1,140,0|8,0:0|0:0,0:0:0:0:
25,119,92903,2,0,P|67:64|132:40,1,140,0|8,0:0|0:0,0:0:0:0:
312,228,93535,5,0,0:0:0:0:
474,264,93851,1,8,0:0:0:0:
424,96,94167,1,0,0:0:0:0:
240,228,94482,2,0,L|176:192,1,70,8|0,0:0|0:0,0:0:0:0:
64,96,94798,5,4,0:0:0:0:
208,96,95114,1,8,0:0:0:0:
352,96,95272,1,4,0:0:0:0:
316,228,95588,1,0,0:0:0:0:
208,228,95746,1,12,0:0:0:0:
392,96,96061,6,0,P|404:164|472:208,1,140,4|8,0:0|0:0,0:0:0:0:
309,337,96693,2,0,P|298:269|244:228,1,140,0|8,0:0|0:0,0:0:0:0:
176,228,97167,1,0,0:0:0:0:
108,228,97325,6,0,P|72:172|108:112,1,140,0|8,0:0|0:0,0:0:0:0:
312,48,97956,2,0,P|348:104|312:164,1,140,0|8,0:0|0:0,0:0:0:0:
456,192,98588,5,0,0:0:0:0:
224,192,98903,1,8,0:0:0:0:
340,192,99219,1,0,0:0:0:0:
88,192,99535,2,0,L|132:120,1,70,8|0,0:0|0:0,0:0:0:0:
252,76,99851,5,4,0:0:0:0:
236,160,100061,1,4,0:0:0:0:
272,240,100272,1,4,0:0:0:0:
348,284,100483,1,4,0:0:0:0:
436,272,100693,1,4,0:0:0:0:
504,208,100904,1,4,0:0:0:0:
400,112,101114,6,0,L|272:172,1,140,4|8,0:0|0:0,0:0:0:0:
204,172,101746,2,0,L|184:240,1,70
92,212,102061,2,0,L|112:144,1,70,8|0,0:0|0:0,0:0:0:0:
240,172,102377,5,4,0:0:0:0:
132,172,102693,1,8,0:0:0:0:
412,172,103009,1,4,0:0:0:0:
296,172,103325,2,0,L|252:104,1,70,8|0,0:0|0:0,0:0:0:0:
132,44,103640,6,0,P|40:128|136:212,1,280
308,168,104588,1,8,0:0:0:0:
204,48,104903,6,0,P|168:104|204:164,1,140,0|8,0:0|0:0,0:0:0:0:
415,232,105535,2,0,L|380:172,1,70
236,172,105851,1,8,0:0:0:0:
256,192,106167,12,0,109009,0:0:0:0:
