osu file format v12

[General]
AudioFilename: take it easy.mp3
AudioLeadIn: 0
PreviewTime: 63514
Countdown: 0
SampleSet: Soft
StackLeniency: 0.7
Mode: 0
LetterboxInBreaks: 0

[Editor]
DistanceSpacing: 1.3
BeatDivisor: 4
GridSize: 8

[Metadata]
Title:take it easy
TitleUnicode:take it easy
Artist:8#Prince
ArtistUnicode:八王子P
Creator:Pokie
Version:please be lazy
Source:
Tags:ReySHeL Vocaloid Vocaloid2 Hatsune Miku Hachioji-P HachiojiP wakamura ボーカロイド 初音ミク わかむら
BeatmapID:222312
BeatmapSetID:79717

[Difficulty]
HPDrainRate:6
CircleSize:4
OverallDifficulty:7
ApproachRate:8
SliderMultiplier:1.6
SliderTickRate:2

[Events]
//Background and Video events
0,0,"BG.jpg",0,0
Video,-110,"take it easy.avi"
//Break Periods
//Storyboard Layer 0 (Background)
//Storyboard Layer 1 (Fail)
//Storyboard Layer 2 (Pass)
//Storyboard Layer 3 (Foreground)
//Storyboard Sound Samples
//Background Colour Transformations
3,100,0,0,0

[TimingPoints]
57,468.75,4,2,1,5,1,0
2166,-100,4,2,1,20,0,0
2400,-100,4,2,1,25,0,0
2635,-100,4,2,1,30,0,0
2869,-100,4,2,1,35,0,0
3103,-100,4,2,1,40,0,0
3338,-100,4,2,1,25,0,0
3807,-100,4,2,1,50,0,0
5447,-100,4,2,2,40,0,0
5682,-100,4,2,1,50,0,0
7322,-100,4,2,2,40,0,0
7557,-100,4,2,1,50,0,0
9197,-100,4,2,2,40,0,0
9432,-100,4,2,1,50,0,0
17166,-100,4,2,1,35,0,0
17869,-100,4,2,1,40,0,0
18338,-133.333333333333,4,2,1,30,0,0
18807,-83.3333333333333,4,2,1,55,0,1
18865,-83.3333333333333,4,2,1,55,0,0
25369,-83.3333333333333,4,2,4,40,0,0
26072,-100,4,2,4,20,0,0
26189,-83.3333333333333,4,2,1,30,0,0
26424,-83.3333333333333,4,2,1,55,0,0
26775,-66.6666666666667,4,2,2,55,0,0
27127,-83.3333333333333,4,2,1,55,0,0
32986,-83.3333333333333,4,2,4,35,0,0
33689,-83.3333333333333,4,2,1,30,0,0
33807,-100,4,2,2,50,0,0
41189,-100,4,2,2,30,0,0
41307,-100,4,2,2,50,0,0
47869,-100,4,2,2,15,0,0
48103,-100,4,2,2,40,0,0
48338,-100,4,2,2,20,0,0
48572,-100,4,2,2,50,0,0
48807,-100,4,2,2,45,0,0
60994,-100,4,2,2,35,0,0
61932,-100,4,2,2,35,0,0
62283,-100,4,2,2,20,0,0
62400,-100,4,2,2,35,0,0
62752,-100,4,2,2,20,0,0
62869,-83.3333333333333,4,2,2,35,0,0
63103,-83.3333333333333,4,2,2,55,0,0
63338,-83.3333333333333,4,2,3,55,0,0
63807,-83.3333333333333,4,2,4,65,0,1
77635,-83.3333333333333,4,2,4,55,0,1
78338,-66.6666666666667,4,2,3,75,0,1
78689,-83.3333333333333,4,2,1,55,0,0
78807,-83.3333333333333,4,2,4,70,0,1
91932,-83.3333333333333,4,2,1,45,0,0
92869,-100,4,2,1,25,0,0
93807,-83.3333333333333,4,2,4,45,0,1
93865,-83.3333333333333,4,2,4,60,0,0
100486,-83.3333333333333,4,2,4,55,0,0
101072,-100,4,2,4,25,0,0
101189,-83.3333333333333,4,2,4,35,0,0
101775,-66.6666666666667,4,2,1,60,0,0
102127,-83.3333333333333,4,2,4,60,0,0
106932,-83.3333333333333,4,2,4,50,0,0
107400,-83.3333333333333,4,2,4,45,0,0
107986,-83.3333333333333,4,2,4,35,0,0
108572,-100,4,2,5,15,0,0

[Colours]
Combo1 : 0,192,245
Combo2 : 237,0,140
Combo3 : 255,102,0
Combo4 : 254,242,0
Combo5 : 120,240,0

[HitObjects]
256,192,1932,12,8,3338,0:0:0:0:
235,269,3572,5,0,0:0:0:0:
333,213,3807,1,4,0:0:0:0:
276,114,4041,1,0,0:0:0:0:
178,171,4275,2,0,L|87:170,1,80
25,317,4744,2,0,P|76:350|168:321,1,160
257,222,5447,5,8,0:0:0:0:
280,218,5564,1,8,0:0:0:0:
303,214,5682,1,0,0:0:0:0:
409,269,5916,1,0,0:0:0:0:
384,143,6150,2,0,P|420:143|459:162,1,80
484,324,6619,2,0,P|433:357|341:328,1,160
257,222,7322,5,8,0:0:0:0:
250,198,7439,1,8,0:0:0:0:
245,174,7557,1,0,0:0:0:0:
145,89,7791,1,0,0:0:0:0:
80,193,8025,2,0,P|117:213|158:209,1,80
292,139,8494,1,0,0:0:0:0:
292,139,8611,1,0,0:0:0:0:
292,139,8728,2,0,L|288:226,1,80
336,316,9197,5,8,0:0:0:0:
374,337,9314,1,8,0:0:0:0:
418,338,9432,1,0,0:0:0:0:
512,227,9666,1,0,0:0:0:0:
394,226,9900,2,0,L|399:138,1,80
233,42,10369,2,0,L|237:121,1,80
177,262,10838,2,0,P|130:282|57:250,1,120
123,199,11307,5,4,1:0:0:0:
22,181,11541,1,0,0:0:0:0:
130,189,11775,2,0,P|174:171|215:177,1,80,0|0,1:0|0:0,0:0:0:0:
345,247,12244,1,0,1:0:0:0:
448,176,12478,1,0,0:0:0:0:
351,257,12713,2,0,P|307:239|266:245,1,80,0|0,1:0|0:0,0:0:0:0:
219,295,13064,5,0,0:0:0:0:
219,295,13182,2,0,P|181:317|133:308,1,80,0|0,1:0|0:0,0:0:0:0:
51,203,13650,2,0,L|148:214,1,80,0|0,1:0|0:0,0:0:0:0:
280,74,14119,2,0,P|315:47|349:47,1,80,0|0,1:0|0:0,0:0:0:0:
353,153,14588,2,0,L|378:231,1,80,0|0,1:0|0:0,0:0:0:0:
445,280,15057,5,0,1:0:0:0:
352,309,15291,1,0,0:0:0:0:
296,232,15525,1,0,1:0:0:0:
353,153,15760,1,0,0:0:0:0:
444,183,15994,2,0,L|534:175,1,80,0|0,1:0|0:0,0:0:0:0:
320,72,16463,2,0,L|399:79,1,80,0|0,1:0|1:0,0:0:0:0:
378,231,16932,5,0,1:0:0:0:
219,207,17166,5,2,0:0:0:0:
232,47,17400,5,0,0:0:0:0:
392,55,17635,5,2,0:0:0:0:
328,145,17869,5,0,1:0:0:0:
328,145,18338,2,0,L|229:140,1,90.0000034332277
181,192,18807,6,0,P|139:213|85:203,1,95.9999970703126,4|0,1:0|0:0,0:0:0:0:
119,86,19275,2,0,B|175:79|175:79|208:104|266:93,1,143.999995605469,8|0,1:0|0:0,0:0:0:0:
328,145,19744,1,0,1:0:0:0:
432,72,19978,1,0,0:0:0:0:
490,206,20213,2,0,P|448:228|394:214,1,95.9999970703126,8|0,1:0|0:0,0:0:0:0:
240,191,20682,6,0,L|120:201,1,95.9999970703126,0|0,1:0|0:0,0:0:0:0:
28,324,21150,2,0,P|99:312|179:366,1,143.999995605469,8|0,1:0|0:0,0:0:0:0:
236,320,21619,1,0,1:0:0:0:
336,232,21853,1,0,0:0:0:0:
259,109,22088,2,0,P|303:88|359:94,1,95.9999970703126,8|0,1:0|0:0,0:0:0:0:
489,303,22557,6,0,P|442:305|398:284,1,95.9999970703126,0|0,1:0|0:0,0:0:0:0:
370,179,23025,2,0,B|326:184|326:184|287:223|219:200,1,143.999995605469,8|0,1:0|0:0,0:0:0:0:
172,152,23494,1,0,1:0:0:0:
151,340,23728,2,0,P|101:339|61:307,1,95.9999970703126,0|8,0:0|1:0,0:0:0:0:
224,296,24197,1,0,1:0:0:0:
298,340,24432,5,4,1:0:0:0:
112,224,24783,1,8,1:0:0:0:
330,166,25135,2,0,L|376:149,2,47.9999985351563,0|0|4,1:0|0:0|0:0,0:0:0:0:
239,161,25486,6,0,L|195:124,1,47.9999985351563,0|2,0:0|0:0,0:0:0:0:
277,241,25721,6,0,L|265:296,1,47.9999985351563,0|2,0:0|0:0,0:0:0:0:
361,245,25955,6,0,L|361:298,1,47.9999985351563,0|2,0:0|0:0,0:0:0:0:
443,275,26189,1,0,0:0:0:0:
443,275,26307,2,0,P|498:234|481:163,1,143.999995605469
430,107,26775,6,0,B|397:54|397:54|389:89|367:116,1,120.000004577637,4|0,1:0|0:0,0:0:0:0:
313,157,27127,1,0,0:0:0:0:
313,157,27244,2,0,L|200:138,1,95.9999970703126,0|0,1:0|0:0,0:0:0:0:
112,207,27713,2,0,P|66:213|14:221,1,95.9999970703126,8|0,1:0|0:0,0:0:0:0:
124,338,28182,6,0,P|169:360|224:352,1,95.9999970703126,0|0,1:0|0:0,0:0:0:0:
272,300,28533,2,0,L|280:250,1,47.9999985351563,0|8,0:0|1:0,0:0:0:0:
382,355,28885,1,0,0:0:0:0:
382,355,29002,1,0,0:0:0:0:
382,355,29119,2,0,L|373:250,1,95.9999970703126,0|0,1:0|0:0,0:0:0:0:
499,134,29588,2,0,L|490:229,1,95.9999970703126,8|0,1:0|0:0,0:0:0:0:
325,171,30057,6,0,P|324:104|394:61,1,143.999995605469,0|0,1:0|0:0,0:0:0:0:
466,53,30525,1,8,1:0:0:0:
507,163,30760,1,0,0:0:0:0:
507,163,30877,1,0,0:0:0:0:
507,163,30994,1,0,1:0:0:0:
388,136,31228,2,0,L|277:146,1,95.9999970703126,0|8,0:0|1:0,0:0:0:0:
164,185,31697,2,0,L|103:180,1,47.9999985351563,8|8,0:0|0:0,0:0:0:0:
58,130,31932,5,4,1:0:0:0:
244,363,32400,1,0,1:0:0:0:
244,363,32517,2,0,P|287:339|300:295,1,95.9999970703126,0|4,0:0|1:0,0:0:0:0:
388,136,32986,6,0,L|431:176,1,47.9999985351563,0|2,0:0|0:0,0:0:0:0:
297,219,33221,6,0,L|310:161,1,47.9999985351563,0|2,0:0|0:0,0:0:0:0:
414,263,33455,6,0,L|357:280,1,47.9999985351563,0|2,0:0|0:0,0:0:0:0:
434,347,33689,5,0,0:0:0:0:
434,347,33807,2,0,P|491:313|499:223,1,160,4|2,1:0|0:0,0:0:0:0:
421,145,34510,1,8,0:0:0:0:
340,228,34744,2,0,P|368:254|413:256,1,80,2|8,0:0|0:0,0:0:0:0:
315,117,35213,2,0,P|278:128|254:166,1,80,2|8,0:0|0:0,0:0:0:0:
256,336,35682,6,0,P|284:362|329:364,1,80,2|8,0:0|0:0,0:0:0:0:
256,336,36150,2,0,P|228:362|186:364,1,80,2|8,0:0|0:0,0:0:0:0:
120,188,36619,2,0,P|156:199|179:234,1,80,2|8,0:0|0:0,0:0:0:0:
66,384,37088,2,0,P|57:346|76:309,1,80,2|8,0:0|0:0,0:0:0:0:
296,302,37557,6,0,P|259:313|220:296,1,80,2|8,0:0|0:0,0:0:0:0:
294,130,38025,2,0,P|330:118|369:135,1,80,2|8,0:0|0:0,0:0:0:0:
461,274,38494,6,0,P|431:298|389:298,1,80,2|8,0:0|0:0,0:0:0:0:
281,202,38963,2,0,P|274:164|295:128,1,80,2|8,0:0|0:0,0:0:0:0:
433,82,39432,2,0,P|468:95|489:131,1,80,2|8,0:0|0:0,0:0:0:0:
405,276,39900,2,0,B|366:273|345:251|345:251|309:294|243:277,1,160,2|2,0:0|0:0,0:0:0:0:
144,174,40603,5,8,0:0:0:0:
290,114,40838,1,2,0:0:0:0:
265,268,41072,1,0,0:0:0:0:
184,248,41189,5,8,0:0:0:0:
184,248,41307,2,0,B|171:342|171:342|145:301|107:305,1,160,2|2,0:0|0:0,0:0:0:0:
24,200,42010,1,8,0:0:0:0:
80,88,42244,2,0,P|114:64|156:59,1,80,2|8,0:0|0:0,0:0:0:0:
288,172,42713,2,0,P|244:171|208:150,1,80,2|8,0:0|0:0,0:0:0:0:
96,280,43182,2,0,P|128:256|176:256,1,80,2|8,0:0|0:0,0:0:0:0:
256,80,43650,6,0,P|176:72|120:136,1,160,2|2,0:0|0:0,0:0:0:0:
189,216,44353,1,8,0:0:0:0:
190,348,44588,2,0,P|228:349|264:323,1,80,2|8,0:0|0:0,0:0:0:0:
400,248,45057,5,2,0:0:0:0:
448,184,45291,1,8,0:0:0:0:
399,125,45525,2,0,P|363:103|317:106,1,80,2|8,0:0|0:0,0:0:0:0:
171,191,45994,2,0,L|76:198,1,80,2|8,0:0|0:0,0:0:0:0:
168,49,46463,2,0,L|263:57,1,80,2|8,0:0|0:0,0:0:0:0:
77,81,46932,5,2,0:0:0:0:
23,139,47166,1,8,0:0:0:0:
56,211,47400,1,2,0:0:0:0:
212,163,47635,2,0,L|121:152,1,80,8|0,0:0|0:0,0:0:0:0:
311,239,48103,2,0,L|402:228,1,80,8|0,0:0|0:0,0:0:0:0:
256,352,48572,1,8,0:0:0:0:
400,362,48807,6,0,B|433:340|464:343|464:343|487:287,1,120,4|0,1:0|0:0,0:0:0:0:
480,218,49275,2,0,P|464:182|421:160,1,80,0|8,1:0|0:0,0:0:0:0:
275,140,49744,2,0,L|190:151,2,80,0|8|0,1:0|0:0|1:0,0:0:0:0:
367,78,50447,1,8,0:0:0:0:
202,71,50682,6,0,L|195:155,1,80,0|8,1:0|0:0,0:0:0:0:
212,224,51033,1,0,0:0:0:0:
212,224,51150,1,0,1:0:0:0:
83,349,51385,2,0,P|46:326|34:285,1,80,8|0,0:0|1:0,0:0:0:0:
66,218,51736,1,0,0:0:0:0:
66,218,51853,2,0,P|104:197|145:207,1,80,8|0,0:0|1:0,0:0:0:0:
273,273,52322,1,8,0:0:0:0:
358,155,52557,6,0,L|482:150,1,120,0|0,1:0|0:0,0:0:0:0:
373,107,53025,2,0,P|414:104|455:89,1,80,0|8,1:0|0:0,0:0:0:0:
504,228,53494,1,0,1:0:0:0:
368,312,53728,1,8,0:0:0:0:
368,312,53846,1,0,0:0:0:0:
368,312,53963,2,0,P|328:312|288:288,1,80,0|8,1:0|0:0,0:0:0:0:
200,176,54432,5,0,1:0:0:0:
128,240,54666,1,8,0:0:0:0:
120,256,54783,1,0,0:0:0:0:
112,272,54900,2,0,L|136:352,1,80,0|8,1:0|0:0,0:0:0:0:
208,264,55369,5,0,1:0:0:0:
120,144,55603,1,0,0:0:0:0:
120,144,55721,1,0,0:0:0:0:
120,144,55838,1,0,1:0:0:0:
248,56,56072,1,8,0:0:0:0:
328,176,56307,6,0,L|208:160,1,120,0|0,1:0|0:0,0:0:0:0:
152,216,56775,2,0,P|104:224|72:200,1,80,0|8,1:0|0:0,0:0:0:0:
0,88,57244,1,0,1:0:0:0:
16,72,57361,1,0,0:0:0:0:
32,56,57478,2,0,P|64:40|112:56,1,80,8|0,0:0|1:0,0:0:0:0:
216,128,57947,1,8,0:0:0:0:
328,64,58182,6,0,L|456:48,1,120,0|0,1:0|0:0,0:0:0:0:
488,152,58650,2,0,P|440:152|400:128,1,80,0|8,1:0|0:0,0:0:0:0:
336,144,59002,1,0,0:0:0:0:
336,144,59119,2,0,L|320:224,1,80,0|8,1:0|0:0,0:0:0:0:
162,294,59588,2,0,P|122:278|74:278,1,80,0|0,1:0|1:0,0:0:0:0:
3,355,60057,5,4,1:0:0:0:
76,324,60291,1,0,0:0:0:0:
126,261,60525,1,0,0:0:0:0:
137,240,60642,1,0,0:0:0:0:
142,216,60760,1,0,0:0:0:0:
197,68,60994,1,0,1:0:0:0:
97,115,61228,1,0,0:0:0:0:
244,169,61463,2,0,P|281:155|332:161,1,80,0|0,1:0|0:0,0:0:0:0:
243,331,61932,6,0,P|293:369|348:363,1,120,4|0,1:0|0:0,0:0:0:0:
242,253,62400,6,0,P|185:277|163:328,1,120,0|0,1:0|0:0,0:0:0:0:
314,288,62869,6,0,P|323:240|300:197,1,95.9999970703126,0|0,1:0|0:0,0:0:0:0:
353,240,63221,1,0,0:0:0:0:
353,240,63338,2,0,L|452:229,1,95.9999970703126,4|0,0:0|0:0,0:0:0:0:
512,28,63807,5,4,1:0:0:0:
439,133,64041,1,0,0:0:0:0:
326,76,64275,2,0,P|270:67|216:87,1,95.9999970703126,8|0,1:0|0:0,0:0:0:0:
146,202,64744,1,0,1:0:0:0:
146,202,64861,1,0,0:0:0:0:
146,202,64978,2,0,L|157:311,2,95.9999970703126,0|8|0,0:0|1:0|0:0,0:0:0:0:
59,151,65682,5,0,1:0:0:0:
114,72,65916,1,0,0:0:0:0:
208,55,66150,1,8,1:0:0:0:
308,151,66385,2,0,L|410:159,1,95.9999970703126,0|0,0:0|1:0,0:0:0:0:
364,239,66736,1,0,0:0:0:0:
364,239,66853,2,0,L|268:231,1,95.9999970703126,0|8,0:0|1:0,0:0:0:0:
214,343,67322,1,0,1:0:0:0:
373,371,67557,6,0,B|426:360|426:360|458:333|465:275,1,143.999995605469,4|0,1:0|0:0,0:0:0:0:
440,198,68025,2,0,L|434:92,1,95.9999970703126,8|0,1:0|0:0,0:0:0:0:
280,48,68494,2,0,L|279:-2,2,47.9999985351563,0|0|0,1:0|0:0|0:0,0:0:0:0:
231,113,68846,1,0,0:0:0:0:
231,113,68963,2,0,P|178:115|125:92,1,95.9999970703126,8|0,1:0|0:0,0:0:0:0:
62,160,69432,5,0,1:0:0:0:
173,254,69666,1,0,0:0:0:0:
292,172,69900,2,0,P|341:152|405:155,1,95.9999970703126,8|0,1:0|0:0,0:0:0:0:
441,211,70252,1,0,0:0:0:0:
441,211,70369,2,0,L|449:315,1,95.9999970703126,0|0,1:0|0:0,0:0:0:0:
340,190,70838,2,0,B|345:140|382:114|382:114|345:67,1,143.999995605469,8|0,1:0|0:0,0:0:0:0:
270,109,71307,6,0,P|222:119|164:105,1,95.9999970703126,0|0,1:0|0:0,0:0:0:0:
34,223,71775,2,0,P|82:213|140:227,1,95.9999970703126,8|0,1:0|0:0,0:0:0:0:
161,295,72127,1,0,0:0:0:0:
161,295,72244,2,0,P|201:259|207:218,1,95.9999970703126,0|0,1:0|0:0,0:0:0:0:
67,53,72713,2,0,P|65:102|104:137,1,95.9999970703126,8|0,1:0|0:0,0:0:0:0:
312,81,73182,5,0,1:0:0:0:
219,107,73416,1,0,0:0:0:0:
164,186,73650,2,0,P|125:218|71:217,1,95.9999970703126,8|0,1:0|0:0,0:0:0:0:
70,63,74119,1,0,1:0:0:0:
143,187,74353,2,0,P|192:175|239:196,1,95.9999970703126,0|8,0:0|1:0,0:0:0:0:
229,329,74822,2,0,L|284:315,1,47.9999985351563
222,368,75057,6,0,B|165:349|121:376|121:376|79:322,1,143.999995605469,4|0,1:0|0:0,0:0:0:0:
52,278,75525,1,8,1:0:0:0:
187,137,75760,1,0,0:0:0:0:
210,142,75877,1,0,0:0:0:0:
232,150,75994,2,0,P|273:178|285:223,1,95.9999970703126,0|0,1:0|0:0,0:0:0:0:
407,348,76463,2,0,P|413:301|455:273,1,95.9999970703126,8|0,1:0|0:0,0:0:0:0:
497,349,76932,5,0,1:0:0:0:
338,267,77166,1,0,0:0:0:0:
497,177,77400,1,8,1:0:0:0:
438,267,77635,2,0,B|387:236|316:300|248:250,1,191.999994140625,2|2,0:0|0:0,0:0:0:0:
200,180,78221,1,0,0:0:0:0:
228,102,78338,6,0,P|274:123|285:198,1,120.000004577637,4|0,0:2|0:0,0:0:0:0:
82,372,78807,6,0,P|65:325|94:278,1,95.9999970703126,4|2,1:0|0:0,0:0:0:0:
144,238,79158,1,0,0:0:0:0:
144,238,79275,2,0,L|30:221,1,95.9999970703126,8|0,1:0|0:0,0:0:0:0:
0,63,79744,1,0,1:0:0:0:
39,35,79861,1,0,0:0:0:0:
87,42,79978,2,0,L|103:137,1,95.9999970703126,2|8,0:0|1:0,0:0:0:0:
244,235,80447,5,0,0:0:0:0:
311,166,80682,1,0,1:0:0:0:
406,172,80916,1,2,0:0:0:0:
449,192,81033,1,0,0:0:0:0:
496,185,81150,1,8,1:0:0:0:
458,68,81385,1,0,0:0:0:0:
333,33,81619,5,0,1:0:0:0:
333,33,81736,1,0,0:0:0:0:
333,33,81853,2,0,P|282:29|233:62,1,95.9999970703126,2|8,0:0|1:0,0:0:0:0:
179,159,82322,1,0,1:0:0:0:
207,312,82557,6,0,P|145:328|81:278,1,143.999995605469,0|0,1:0|0:0,0:0:0:0:
79,202,83025,2,0,P|126:215|159:251,1,95.9999970703126,8|2,1:0|0:0,0:0:0:0:
301,353,83494,5,0,1:0:0:0:
414,306,83728,1,2,0:0:0:0:
317,260,83963,5,8,1:0:0:0:
430,213,84197,1,0,1:0:0:0:
269,182,84432,5,0,1:0:0:0:
375,373,84666,1,2,0:0:0:0:
511,230,84900,2,0,L|504:127,1,95.9999970703126,8|2,1:0|0:0,0:0:0:0:
389,280,85369,5,0,1:0:0:0:
197,237,85603,1,0,1:0:0:0:
355,132,85838,2,0,P|314:97|254:96,1,95.9999970703126,8|2,1:0|0:0,0:0:0:0:
203,134,86189,6,0,L|143:131,1,47.9999985351563,0|0,0:0|1:0,0:0:0:0:
41,206,86541,1,2,0:0:0:0:
159,336,86775,2,0,P|231:344|289:276,1,143.999995605469,8|0,1:0|0:0,0:0:0:0:
293,219,87244,2,0,L|285:118,1,95.9999970703126,0|2,1:0|0:0,0:0:0:0:
429,230,87713,2,0,L|429:329,1,95.9999970703126,8|0,1:0|0:0,0:0:0:0:
212,234,88182,6,0,B|209:173|258:145|258:145|267:94,1,143.999995605469,0|0,1:0|0:0,0:0:0:0:
341,143,88650,2,0,L|345:38,1,95.9999970703126,8|2,1:0|0:0,0:0:0:0:
430,106,89119,5,0,1:0:0:0:
265,28,89353,1,2,0:0:0:0:
341,272,89588,1,8,1:0:0:0:
180,190,89822,1,0,1:0:0:0:
342,143,90057,6,0,L|243:147,1,95.9999970703126,0|2,1:0|0:0,0:0:0:0:
332,287,90525,2,0,L|431:291,1,95.9999970703126,8|0,1:0|0:0,0:0:0:0:
510,210,90994,5,0,1:0:0:0:
512,320,91228,1,2,0:0:0:0:
407,368,91463,1,8,1:0:0:0:
308,308,91697,1,0,1:0:0:0:
399,251,91932,5,4,1:0:0:0:
197,335,92166,5,2,0:0:0:0:
113,133,92400,5,0,0:0:0:0:
315,49,92635,5,2,0:0:0:0:
298,178,92869,5,0,1:0:0:0:
298,178,93338,2,2,L|423:173,1,120
490,222,93807,6,0,P|509:175|489:124,1,95.9999970703126,4|0,1:0|0:0,0:0:0:0:
358,72,94275,2,0,B|333:122|360:167|360:167|344:222,1,143.999995605469,8|0,1:0|0:0,0:0:0:0:
368,286,94744,2,0,P|309:284|278:251,1,95.9999970703126,0|0,1:0|0:0,0:0:0:0:
170,109,95213,2,0,P|119:95|79:126,1,95.9999970703126,8|0,1:0|0:0,0:0:0:0:
58,189,95564,1,0,0:0:0:0:
101,256,95682,6,0,P|138:218|131:168,1,95.9999970703126,0|0,1:0|0:0,0:0:0:0:
45,58,96150,2,0,B|17:89|19:126|19:126|49:106|92:119,1,143.999995605469,8|0,1:0|0:0,0:0:0:0:
170,109,96619,2,0,P|209:144|211:195,1,95.9999970703126,0|0,1:0|0:0,0:0:0:0:
311,374,97088,2,0,P|322:328|384:309,1,95.9999970703126,8|0,1:0|0:0,0:0:0:0:
427,348,97439,5,0,0:0:0:0:
427,348,97557,2,0,P|443:296|417:250,1,95.9999970703126,0|0,1:0|0:0,0:0:0:0:
214,186,98025,2,0,P|280:198|343:151,1,143.999995605469,8|0,1:0|0:0,0:0:0:0:
340,156,98494,2,0,L|353:55,1,95.9999970703126,0|0,1:0|0:0,0:0:0:0:
478,159,98963,2,0,L|452:278,1,95.9999970703126,8|0,1:0|1:0,0:0:0:0:
267,365,99432,5,4,1:0:0:0:
224,208,99783,1,8,1:0:0:0:
296,64,100135,2,0,L|288:16,2,47.9999985351563,0|0|4,1:0|0:0|0:0,0:0:0:0:
240,128,100486,6,0,L|184:120,1,47.9999985351563,0|2,0:0|0:0,0:0:0:0:
64,120,100721,6,0,L|85:172,1,47.9999985351563,0|2,0:0|0:0,0:0:0:0:
128,280,100955,6,0,L|162:235,1,47.9999985351563,0|2,0:0|0:0,0:0:0:0:
240,240,101189,1,0,0:0:0:0:
240,240,101307,2,0,P|304:240|352:304,1,143.999995605469
272,312,101775,6,0,P|288:256|344:224,1,120.000004577637,4|0,1:0|0:0,0:0:0:0:
414,248,102127,1,0,0:0:0:0:
414,248,102244,2,0,L|424:137,1,95.9999970703126,0|0,1:0|0:0,0:0:0:0:
385,30,102713,2,0,L|283:76,1,95.9999970703126,8|0,1:0|0:0,0:0:0:0:
247,128,103064,1,0,0:0:0:0:
247,128,103182,2,0,P|199:136|151:104,1,95.9999970703126,0|0,1:0|0:0,0:0:0:0:
179,43,103533,5,0,0:0:0:0:
179,43,103650,2,0,P|123:43|91:91,1,95.9999970703126,8|0,1:0|0:0,0:0:0:0:
79,144,104002,2,0,L|15:128,1,47.9999985351563,0|0,0:0|1:0,0:0:0:0:
167,232,104353,1,0,0:0:0:0:
167,232,104471,1,0,0:0:0:0:
167,232,104588,2,0,L|63:256,1,95.9999970703126,8|0,1:0|0:0,0:0:0:0:
23,328,104939,5,0,0:0:0:0:
23,328,105057,2,0,P|71:344|119:328,1,95.9999970703126,0|0,1:0|0:0,0:0:0:0:
159,152,105525,2,0,B|215:144|247:208|247:208|279:184,1,143.999995605469,8|0,1:0|0:0,0:0:0:0:
287,112,105994,5,0,1:0:0:0:
167,232,106228,1,0,0:0:0:0:
127,80,106463,1,8,1:0:0:0:
151,72,106580,1,0,0:0:0:0:
175,64,106697,1,8,1:0:0:0:
199,56,106814,1,8,1:0:0:0:
223,48,106932,1,4,1:0:0:0:
367,288,107400,5,12,1:0:0:0:
367,288,107517,2,0,P|415:256|471:264,1,95.9999970703126,0|4,0:0|1:0,0:0:0:0:
495,72,107986,6,0,L|431:104,1,47.9999985351563,2|2,0:0|0:0,0:0:0:0:
359,248,108221,6,0,L|363:176,1,47.9999985351563,0|2,0:0|0:0,0:0:0:0:
263,48,108455,6,0,L|322:87,1,47.9999985351563,0|4,0:0|0:0,0:0:0:0:
