osu file format v11

[General]
AudioFilename: kz(livetune)xhachiouji P feat. hatsune miku - fake doll.mp3
AudioLeadIn: 2000
PreviewTime: 71632
Countdown: 0
SampleSet: Normal
StackLeniency: 0.7
Mode: 0
LetterboxInBreaks: 0

[Editor]
DistanceSpacing: 1
BeatDivisor: 4
GridSize: 8

[Metadata]
Title:fake doll
TitleUnicode:fake doll
Artist:8#Prince
ArtistUnicode:8#Prince
Creator:y u c a
Version:Normal
Source:Vocaloid
Tags:HachiojiP hatsune miku James yuca y_u_c_a
BeatmapID:194228
BeatmapSetID:66622

[Difficulty]
HPDrainRate:4
CircleSize:4
OverallDifficulty:4
ApproachRate:5
SliderMultiplier:1.4
SliderTickRate:1

[Events]
//Background and Video events
0,0,"mikuyucaneto.jpg"
//Break Periods
2,116605,122478
//Storyboard Layer 0 (Background)
//Storyboard Layer 1 (Fail)
//Storyboard Layer 2 (Pass)
//Storyboard Layer 3 (Foreground)
//Storyboard Sound Samples
//Background Colour Transformations
3,100,0,0,0

[TimingPoints]
42,454.545454545455,4,1,1,60,1,0
12712,-200,4,1,1,60,0,0
12882,-200,4,2,1,5,0,0
14473,-100,4,1,1,60,0,0
21973,-100,4,1,1,60,0,0
22655,-100,4,1,1,50,0,0
23564,-100,4,1,1,40,0,0
24473,-100,4,1,1,30,0,0
25382,-100,4,1,1,60,0,0
29246,-100,4,2,1,80,0,0
29473,-100,4,1,1,60,0,0
29701,-100,4,2,1,80,0,0
29928,-100,4,1,1,60,0,0
30155,-100,4,2,1,80,0,0
30837,-100,4,1,1,60,0,0
31064,-100,4,2,1,80,0,0
32655,-100,4,1,1,60,0,0
32882,-100,4,2,1,80,0,0
33110,-100,4,1,1,60,0,0
33621,-100,4,2,1,80,0,0
33848,-100,4,1,1,60,0,0
34303,-100,4,2,1,80,0,0
34473,-100,4,1,1,60,0,0
34928,-100,4,2,1,60,0,0
35155,-100,4,2,1,80,0,0
35382,-100,4,1,1,60,0,0
35610,-100,4,2,1,80,0,0
35837,-100,4,2,1,60,0,0
36348,-100,4,1,1,60,0,0
36519,-100,4,2,1,80,0,0
36746,-100,4,1,1,60,0,0
36973,-100,4,2,1,80,0,0
37257,-100,4,2,1,80,0,0
37542,-100,4,2,1,60,0,0
37882,-100,4,2,1,80,0,0
38110,-100,4,1,1,60,0,0
38337,-100,4,2,1,80,0,0
39473,-100,4,1,1,60,0,0
39701,-100,4,2,1,80,0,0
39928,-100,4,1,1,60,0,0
40610,-100,4,2,1,80,0,0
41292,-100,4,1,1,80,0,0
41519,-100,4,2,1,80,0,0
41803,-100,4,1,1,60,0,0
41973,-100,4,2,1,80,0,0
42428,-100,4,2,1,80,0,0
42712,-100,4,1,1,80,0,0
42939,-100,4,2,1,80,0,0
43053,-100,4,2,1,60,0,0
43621,-100,4,2,1,80,0,0
44019,-100,4,1,1,60,0,0
44246,-100,4,2,1,80,0,0
44530,-100,4,1,1,60,0,0
44701,-100,4,2,1,80,0,0
45382,-100,4,1,1,60,0,0
45610,-100,4,2,1,80,0,0
47201,-100,4,1,1,60,0,0
47428,-100,4,2,1,80,0,0
47655,-100,4,1,1,60,0,0
47882,-100,4,2,1,60,0,0
48167,-100,4,2,1,80,0,0
48280,-100,4,2,1,80,0,0
48564,-100,4,1,1,60,0,0
48848,-100,4,2,1,80,0,0
49019,-100,4,1,1,60,0,0
49473,-100,4,2,1,60,0,0
49701,-100,4,2,1,80,0,0
49928,-100,4,1,1,60,0,0
50155,-100,4,2,1,80,0,0
50439,-100,4,2,1,80,0,0
50894,-100,4,1,1,60,0,0
51064,-100,4,2,1,80,0,0
51292,-100,4,1,1,60,0,0
51519,-100,4,2,1,60,0,0
51803,-100,4,2,1,80,0,0
52087,-100,4,2,1,60,0,0
52201,-100,4,1,1,60,0,0
52428,-100,4,2,1,80,0,0
52655,-100,4,1,1,60,0,0
52882,-100,4,2,1,80,0,0
53110,-100,4,1,1,60,0,0
53337,-100,4,2,1,80,0,0
54019,-100,4,1,1,60,0,0
54246,-100,4,2,1,80,0,0
54473,-100,4,1,1,60,0,0
55155,-100,4,2,1,80,0,0
55837,-100,4,1,1,80,0,0
56348,-100,4,1,1,60,0,0
56746,-100,4,2,1,80,0,0
56973,-100,4,2,1,80,0,0
57257,-100,4,1,1,60,0,0
57882,-100,4,2,1,80,0,0
58110,-100,4,1,1,60,0,0
58564,-100,4,2,1,100,0,0
58792,-100,4,1,1,60,0,0
59473,-100,4,2,1,100,0,0
59701,-100,4,1,1,60,0,0
60382,-100,4,2,1,100,0,0
60610,-100,4,1,1,60,0,0
61292,-100,4,2,1,100,0,0
61803,-100,4,1,1,60,0,0
62201,-100,4,2,1,100,0,0
62428,-100,4,1,1,60,0,0
63110,-100,4,2,1,100,0,0
63337,-100,4,1,1,60,0,0
64019,-100,4,2,1,100,0,0
64246,-100,4,1,1,60,0,0
64928,-100,4,2,1,100,0,0
65439,-100,4,1,1,60,0,0
65780,-100,4,2,1,100,0,0
66292,-100,4,1,1,100,0,0
66803,-100,4,2,1,100,0,0
67201,-100,4,1,1,100,0,0
67542,-100,4,2,1,100,0,0
68110,-100,4,1,1,100,0,0
68564,-100,4,2,1,100,0,0
68792,-100,4,1,1,100,0,0
70894,-100,4,1,1,40,0,0
71007,-100,4,1,1,60,0,0
72163,-100,4,2,1,5,0,0
72617,-100,4,1,1,60,0,0
76292,-100,4,1,1,60,0,0
77314,-100,4,1,1,50,0,0
78223,-100,4,1,1,40,0,0
79132,-100,4,1,1,30,0,0
79928,-100,4,1,1,60,0,0
80155,-100,4,2,1,80,0,0
80382,-100,4,1,1,60,0,0
80610,-100,4,2,1,80,0,0
81292,-100,4,1,1,60,0,0
81519,-100,4,2,1,80,0,0
82201,-100,4,1,1,60,0,0
82428,-100,4,2,1,80,0,0
83110,-100,4,1,1,60,0,0
83337,-100,4,2,1,80,0,0
83564,-100,4,1,1,60,0,0
85439,-100,4,1,1,60,0,0
85894,-100,4,2,1,100,0,0
86064,-100,4,1,1,60,0,0
86746,-100,4,2,1,100,0,0
87201,-100,4,1,1,60,0,0
90837,-100,4,1,1,60,0,0
91860,-100,4,1,1,50,0,0
92769,-100,4,1,1,40,0,0
93678,-100,4,1,1,30,0,0
94701,-100,4,2,1,80,0,0
94928,-100,4,1,1,60,0,0
95155,-100,4,2,1,80,0,0
95382,-100,4,1,1,60,0,0
95610,-100,4,2,1,80,0,0
95837,-100,4,1,1,80,0,0
96064,-100,4,2,1,80,0,0
96292,-100,4,1,1,60,0,0
96519,-100,4,2,1,80,0,0
96746,-100,4,1,1,60,0,0
96973,-100,4,2,1,80,0,0
97201,-100,4,1,1,60,0,0
97428,-100,4,2,1,80,0,0
97655,-100,4,2,1,60,0,0
98167,-100,4,1,1,60,0,0
99985,-200,4,1,1,60,0,0
100837,-100,4,2,1,5,0,0
101746,-100,4,1,1,60,0,0
109246,-100,4,1,1,60,0,0
109928,-100,4,1,1,50,0,0
110837,-100,4,1,1,40,0,0
111746,-100,4,1,1,30,0,0
112655,-100,4,1,1,60,0,0
124019,-100,4,2,1,100,0,0
124246,-100,4,1,1,60,0,0
124928,-100,4,2,1,100,0,0
125382,-100,4,1,1,60,0,0
125837,-100,4,2,1,100,0,0
126064,-100,4,1,1,60,0,0
126746,-100,4,2,1,100,0,0
127257,-100,4,1,1,60,0,0
127655,-100,4,2,1,100,0,0
127882,-100,4,1,1,60,0,0
128564,-100,4,2,1,100,0,0
129076,-200,4,1,1,5,0,0
130382,-100,4,2,1,5,0,0
130837,-100,4,1,1,60,0,0
149019,-100,4,1,1,50,0,0
150042,-100,4,1,1,50,0,0
150951,-100,4,1,1,40,0,0
151973,-100,4,1,1,30,0,0
152882,-100,4,2,1,80,0,0
153110,-100,4,1,1,80,0,0
153337,-100,4,2,1,80,0,0
154019,-100,4,1,1,80,0,0
154246,-100,4,2,1,80,0,0
154928,-100,4,1,1,80,0,0
155155,-100,4,2,1,80,0,0
155837,-100,4,1,1,80,0,0
156064,-100,4,2,1,80,0,0
156348,-100,4,1,1,60,0,0
157655,-100,4,1,1,80,0,0
158167,-100,4,1,1,60,0,0
158621,-100,4,2,1,100,0,0
158792,-100,4,1,1,60,0,0
159473,-100,4,2,1,100,0,0
159985,-100,4,1,1,60,0,0
163564,-100,4,1,1,50,0,0
167428,-100,4,2,1,80,0,0
167655,-100,4,1,1,60,0,0
167882,-100,4,2,1,80,0,0
168564,-100,4,1,1,60,0,0
168792,-100,4,2,1,80,0,0
169019,-100,4,1,1,60,0,0
169246,-100,4,2,1,80,0,0
169473,-100,4,1,1,60,0,0
169701,-100,4,2,1,80,0,0
169928,-100,4,1,1,60,0,0
170155,-100,4,2,1,80,0,0
170382,-100,4,1,1,80,0,0
170610,-100,4,2,1,80,0,0
170894,-100,4,1,1,60,0,0
172712,-200,4,1,1,5,0,0
173564,-200,4,2,1,5,0,0
174473,-100,4,1,1,60,0,0
174587,-100,4,1,1,60,0,1
182655,-100,4,1,1,50,0,1
183564,-100,4,1,1,40,0,1
184473,-100,4,1,1,30,0,1
185382,-100,4,1,1,50,0,0

[Colours]
Combo1 : 255,255,255
Combo2 : 254,177,211
Combo3 : 154,222,183
Combo4 : 236,211,96
Combo5 : 255,150,0

[HitObjects]
72,64,7314,1,0,0:0:0
184,128,7769,1,0,0:0:0
296,64,8223,1,0,0:0:0
408,120,8678,2,0,B|488:120,2,70
336,224,9587,5,0,0:0:0
232,152,10041,1,0,0:0:0
128,224,10496,2,0,B|56:224,2,70
216,312,11405,5,0,0:0:0
336,288,11860,1,0,0:0:0
352,160,12314,1,0,0:0:0
352,160,12542,1,0,0:0:0
352,160,12769,22,0,B|304:96|208:104|168:168,1,210
80,264,14814,54,2,B|64:312|88:360,1,70,2|2,0:0|0:0,0:0:0
184,296,15496,2,2,B|208:248|176:176,2,105,2|2|2,0:0|0:0|0:0,0:0:0
320,128,16632,2,2,B|304:176|328:224,1,70,2|2,0:0|0:0,0:0:0
424,160,17314,2,2,B|448:112|416:40,2,105,2|2|2,0:0|0:0|0:0,0:0:0
424,272,18451,22,2,B|424:352,1,70,2|2,0:0|0:0,0:0:0
320,272,19133,2,2,B|320:160,2,105
184,280,20269,2,2,B|184:352,1,70,2|2,0:0|0:0,0:0:0
80,280,20951,2,2,B|80:160,2,105,2|2|2,0:0|0:0|0:0,0:0:0
304,288,22087,6,2,B|344:288|384:320,1,70,2|2,0:0|0:0,0:0:0
336,176,22769,2,2,B|280:168|248:112,2,105,2|2|2,0:0|0:0|0:0,0:0:0
200,288,23905,2,2,B|160:288|120:320,1,70,2|2,0:0|0:0,0:0:0
168,176,24587,2,2,B|224:168|256:112,2,105,2|2|2,0:0|0:0|0:0,0:0:0
168,176,25496,5,0,0:0:0
368,176,26178,1,0,0:0:0
368,176,26405,2,0,B|416:96|344:40,1,140
232,24,27314,1,0,0:0:0
112,72,27769,1,0,0:0:0
72,192,28223,1,0,0:0:0
144,192,28451,1,0,0:0:0
216,192,28678,2,0,B|256:192,4,35
368,288,29814,5,2,0:0:0
416,232,30042,2,0,B|448:192|448:136|408:104,1,140
410,105,30723,1,2,0:0:0
288,176,31178,2,0,B|256:136|256:80|296:48,3,140,2|2|2|2,0:0|0:0|0:0|0:0,0:0:0
408,48,32996,21,2,0:0:0
408,48,33223,1,0,0:0:0
440,168,33678,2,0,B|464:240|448:312,1,140,2|0,0:0|0:0,0:0:0
328,336,34587,1,0,0:0:0
208,304,35042,1,2,0:0:0
88,336,35496,1,0,0:0:0
88,264,35723,1,2,0:0:0
88,192,35951,2,0,B|88:128,4,35,2|2|2|2|0,0:0|0:0|0:0|0:0|0:0,0:0:0
224,232,36860,6,0,B|296:256,1,70,0|2,0:0|0:0,0:0:0
384,168,37542,2,0,B|304:144,1,70,2|0,0:0|0:0,0:0:0
200,112,38223,1,0,0:0:0
80,64,38678,2,0,B|8:40,1,70,0|2,0:0|0:0,0:0:0
48,160,39360,2,0,B|128:184,1,70,2|0,0:0|0:0,0:0:0
256,208,40042,6,0,B|256:48,1,140
256,68,40723,1,2,0:0:0
384,48,41178,2,0,B|432:72|456:72,1,70,2|0,0:0|0:0,0:0:0
448,208,41860,1,0,0:0:0
448,280,42087,1,2,0:0:0
448,352,42314,1,2,0:0:0
312,320,42769,1,0,0:0:0
312,248,42996,1,2,0:0:0
312,176,43224,2,0,B|312:120,4,35,2|2|2|2|4,0:0|0:0|0:0|0:0|0:0,0:0:0
256,56,44359,5,2,0:0:0
184,40,44587,2,0,B|112:16|40:48,1,140
47,44,45269,1,2,0:0:0
48,184,45723,2,0,B|120:208|192:176,3,140,2|2|2|2,0:0|0:0|0:0|0:0,0:0:0
320,136,47541,1,2,0:0:0
384,104,47769,2,0,B|416:80|464:72,1,70,0|2,0:0|0:0,0:0:0
440,216,48451,2,0,B|408:224|368:256,1,70,2|0,0:0|0:0,0:0:0
256,288,49132,21,0,0:0:0
256,288,49587,1,2,0:0:0
128,288,50042,1,0,0:0:0
64,256,50268,1,2,0:0:0
56,184,50496,2,0,B|24:160,4,35,2|2|2|2|0,0:0|0:0|0:0|0:0|0:0,0:0:0
152,80,51405,6,0,B|176:48|232:48,1,70,0|2,0:0|0:0,0:0:0
280,168,52087,2,0,B|256:200|200:200,1,70,2|0,0:0|0:0,0:0:0
80,224,52769,1,0,0:0:0
192,312,53223,2,0,B|216:336|280:328,1,70,0|2,0:0|0:0,0:0:0
320,208,53905,2,0,B|296:184|232:192,1,70,2|0,0:0|0:0,0:0:0
254,190,54587,6,0,B|254:46,1,140
254,50,55269,1,2,0:0:0
392,56,55723,2,0,B|432:80|464:80,1,70,2|0,0:0|0:0,0:0:0
488,192,56405,1,0,0:0:0
488,192,56632,1,0,0:0:0
488,192,56860,1,2,0:0:0
320,192,57314,2,0,B|320:272,1,70,0|0,0:0|0:0,0:0:0
248,224,57769,2,0,B|248:304,1,70,0|2,0:0|0:0,0:0:0
248,294,58223,5,0,0:0:0
104,296,58678,1,2,0:0:0
192,56,59587,1,2,0:0:0
336,56,60042,2,0,B|488:56,1,140,0|2,0:0|0:0,0:0:0
400,192,61405,21,2,0:0:0
256,192,61860,1,0,0:0:0
120,192,62314,1,2,0:0:0
256,48,63223,1,2,0:0:0
256,192,63678,2,0,B|240:240|264:296|256:352,1,140,0|2,0:0|0:0,0:0:0
328,64,65042,21,2,0:0:0
328,64,65496,2,0,B|448:64,1,105,0|2,0:0|0:0,0:0:0
400,168,66178,2,0,B|312:168,1,70,2|0,0:0|0:0,0:0:0
256,280,66860,1,2,0:0:0
168,168,67314,2,0,B|48:168,1,105,0|2,0:0|0:0,0:0:0
104,72,67996,2,0,B|192:72,1,70,2|0,0:0|0:0,0:0:0
256,184,68678,1,2,0:0:0
256,192,69132,12,4,70951,0:0:0
256,288,72314,37,0,0:0:0
256,288,72769,5,2,0:0:0
320,320,72996,2,2,B|384:368|464:312,1,140,2|2,0:0|0:0,0:0:0
384,192,73905,1,2,0:0:0
432,56,74360,1,2,0:0:0
360,40,74587,2,2,B|304:16|240:48,1,105,2|2,0:0|0:0,0:0:0
256,144,75269,2,2,B|256:208|256:264,2,105,2|2|2,0:0|0:0|0:0,0:0:0
144,64,76405,21,2,0:0:0
96,120,76632,2,2,B|40:200|104:272,1,140
208,184,77542,1,2,0:0:0
280,304,77996,1,2,0:0:0
328,248,78223,2,2,B|368:192|344:128,1,105,2|2,0:0|0:0,0:0:0
328,48,78905,2,2,B|200:48,2,105,2|2|2,0:0|0:0|0:0,0:0:0
424,192,80269,54,0,B|432:240|424:280,2,70,2|0|2,0:0|0:0|0:0,0:0:0
304,112,81178,2,0,B|296:64|304:24,2,70,2|0|2,0:0|0:0|0:0,0:0:0
160,104,82087,2,0,B|112:112|72:104,2,70,2|0|2,0:0|0:0|0:0,0:0:0
232,224,82996,2,0,B|280:216|320:224,2,70,2|0|2,0:0|0:0|0:0,0:0:0
232,224,83678,37,0,0:0:0
104,288,84132,1,0,0:0:0
104,288,84360,2,0,B|72:256|24:248,1,70
40,112,85042,2,0,B|80:56|168:48,1,140,0|0,0:0|0:0,0:0:0
256,152,85951,1,2,0:0:0
256,152,86178,1,0,0:0:0
256,152,86405,2,0,B|256:304,1,140,0|2,0:0|0:0,0:0:0
128,344,87314,5,2,0:0:0
80,288,87542,2,2,B|48:256|48:184|104:144,1,140,2|2,0:0|0:0,0:0:0
224,160,88450,1,2,0:0:0
368,160,88905,1,2,0:0:0
368,160,89132,2,2,B|392:104|360:32,1,105,2|2,0:0|0:0,0:0:0
264,56,89814,2,2,B|160:56,2,105,2|2|2,0:0|0:0|0:0,0:0:0
408,56,90951,21,2,0:0:0
464,112,91179,2,2,B|496:144|496:216|440:256,1,140,2|2,0:0|0:0,0:0:0
320,248,92087,1,2,0:0:0
176,248,92542,1,2,0:0:0
176,248,92769,2,2,B|152:304|184:376,1,105,2|2,0:0|0:0,0:0:0
280,352,93451,2,2,B|384:352,2,105,2|2|2,0:0|0:0|0:0,0:0:0
144,192,94814,54,0,B|104:200|72:192,2,70,2|0|2,0:0|0:0|0:0,0:0:0
256,104,95723,2,0,B|248:64|256:32,2,70,2|0|2,0:0|0:0|0:0,0:0:0
368,192,96632,2,0,B|408:184|440:192,2,70,2|0|2,0:0|0:0|0:0,0:0:0
256,272,97541,1,2,0:0:0
256,344,97769,2,0,B|256:384,4,35,2|2|2|2|0,0:0|0:0|0:0|0:0|0:0,0:0:0
136,272,98678,37,0,0:0:0
136,136,99132,1,0,0:0:0
256,64,99587,1,0,0:0:0
256,64,99814,1,0,0:0:0
256,64,100042,54,0,B|248:104|272:144|256:208,1,140
257,203,102087,22,2,B|297:207|336:184,1,70,2|2,0:0|0:0,0:0:0
456,160,102769,2,2,B|457:35,2,105
456,304,103905,2,2,B|416:308|376:288,1,70,2|2,0:0|0:0,0:0:0
256,248,104587,2,2,B|256:128,2,105
256,360,105723,21,2,0:0:0
256,360,105951,1,2,0:0:0
176,240,106406,2,2,B|176:128,2,105
112,360,107542,1,2,0:0:0
112,360,107769,1,2,0:0:0
40,240,108224,2,2,B|40:128,2,105,2|2|2,0:0|0:0|0:0,0:0:0
176,280,109360,54,2,B|176:208,1,70,2|2,0:0|0:0,0:0:0
176,72,110042,2,2,B|224:48|304:80,2,105,2|2|2,0:0|0:0|0:0,0:0:0
280,168,111178,2,2,B|280:240,1,70,2|2,0:0|0:0,0:0:0
376,344,111860,2,2,B|424:368|504:336,2,105,2|2|2,0:0|0:0|0:0,0:0:0
376,344,112769,37,0,0:0:0
256,168,113451,1,0,0:0:0
256,168,113678,2,0,B|256:312,1,140
120,344,114587,1,0,0:0:0
56,216,115042,1,0,0:0:0
120,88,115496,1,0,0:0:0
192,88,115724,1,0,0:0:0
264,88,115951,2,0,B|304:88,4,35,0|0|0|0|4,0:0|0:0|0:0|0:0|0:0,0:0:0
56,56,123678,38,0,B|56:200,1,140,0|2,0:0|0:0,0:0:0
56,196,124360,1,0,0:0:0
192,200,124814,2,0,B|264:200,1,70,0|2,0:0|0:0,0:0:0
448,336,125496,2,0,B|448:192,1,140,0|2,0:0|0:0,0:0:0
448,196,126178,1,0,0:0:0
312,200,126632,2,0,B|240:200,1,70,0|2,0:0|0:0,0:0:0
192,320,127314,54,0,B|344:320,1,140,0|2,0:0|0:0,0:0:0
332,320,127996,1,0,0:0:0
256,200,128451,1,0,0:0:0
256,128,128678,2,0,B|256:56,1,70,2|0,0:0|0:0,0:0:0
328,48,129132,22,0,B|384:32|440:64|472:128|440:184,1,210
256,192,130951,5,0,0:0:0
176,120,131292,1,0,0:0:0
224,24,131632,1,0,0:0:0
328,40,131973,1,0,0:0:0
344,144,132314,1,0,0:0:0
344,144,132769,5,0,0:0:0
432,224,133110,1,0,0:0:0
376,312,133450,1,0,0:0:0
272,296,133791,1,0,0:0:0
256,192,134132,1,0,0:0:0
256,192,134587,21,0,0:0:0
336,128,134928,1,0,0:0:0
288,32,135268,1,0,0:0:0
184,40,135609,1,0,0:0:0
168,144,135950,1,0,0:0:0
168,144,136405,53,0,0:0:0
80,208,136746,1,0,0:0:0
120,304,137086,1,0,0:0:0
224,296,137427,1,0,0:0:0
256,200,137768,1,0,0:0:0
384,144,138223,38,0,B|424:96|376:40,2,105
384,144,139246,1,0,0:0:0
256,200,139587,1,0,0:0:0
128,144,140042,2,0,B|88:96|136:40,2,105
128,144,141064,1,0,0:0:0
256,200,141406,1,0,0:0:0
256,200,141860,6,0,B|256:96,2,105
256,272,142770,2,0,B|256:312,8,35,0|0|0|0|0|0|0|0|4,0:0|0:0|0:0|0:0|0:0|0:0|0:0|0:0|0:0,0:0:0
256,344,145496,21,0,0:0:0
256,192,146632,53,0,0:0:0
256,192,146860,1,0,0:0:0
256,56,147314,38,2,B|208:32|136:64,1,105,2|2,0:0|0:0,0:0:0
56,88,147996,2,2,B|56:152|56:208,2,105,2|2|2,0:0|0:0|0:0,0:0:0
184,136,149132,5,2,0:0:0
256,160,149359,2,2,B|320:200|408:152,1,140
480,256,150269,1,2,0:0:0
368,336,150723,1,2,0:0:0
296,352,150950,2,2,B|240:376|176:344,1,105,2|2,0:0|0:0,0:0:0
88,328,151632,2,2,B|88:200,2,105,2|2|2,0:0|0:0|0:0,0:0:0
288,288,152996,22,0,B|368:288,2,70,2|0|2,0:0|0:0|0:0,0:0:0
192,208,153905,2,0,B|120:208,2,70,2|0|2,0:0|0:0|0:0,0:0:0
328,128,154814,2,0,B|408:128,2,70,2|0|2,0:0|0:0|0:0,0:0:0
160,56,155723,2,0,B|80:56,2,70,2|0|2,0:0|0:0|0:0,0:0:0
160,56,156405,53,0,0:0:0
296,56,156859,1,0,0:0:0
296,56,157087,2,0,B|312:96|352:112,1,70,0|0,0:0|0:0,0:0:0
464,176,157769,2,0,B|480:264|384:288,1,140,0|0,0:0|0:0,0:0:0
256,304,158678,1,2,0:0:0
256,304,158905,1,0,0:0:0
256,304,159360,38,0,B|248:232|280:184|256:88,1,210,0|0,0:0|0:0,0:0:0
480,192,161177,5,0,0:0:0
480,192,161404,1,0,0:0:0
432,64,161860,22,2,B|384:40|312:72,1,105,2|2,0:0|0:0,0:0:0
256,144,162542,2,2,B|256:264,2,105
136,72,163678,53,2,0:0:0
112,144,163905,2,2,B|88:216|120:288,1,140,2|2,0:0|0:0,0:0:0
256,320,164815,1,2,0:0:0
392,280,165269,1,2,0:0:0
408,208,165496,2,2,B|424:152|400:88,1,105,2|2,0:0|0:0,0:0:0
312,56,166178,2,2,B|296:112|320:184,2,105
256,256,167542,37,2,0:0:0
192,288,167769,1,0,0:0:0
128,256,167996,1,2,0:0:0
64,128,168451,1,2,0:0:0
128,96,168678,1,0,0:0:0
192,128,168905,1,2,0:0:0
312,200,169360,5,2,0:0:0
376,232,169587,1,0,0:0:0
440,200,169814,1,2,0:0:0
496,72,170269,1,2,0:0:0
432,40,170496,1,0,0:0:0
368,72,170723,1,2,0:0:0
304,40,170951,21,0,0:0:0
168,72,171405,1,0,0:0:0
144,208,171860,1,0,0:0:0
256,296,172314,1,0,0:0:0
256,296,172542,1,0,0:0:0
256,296,172769,6,0,B|240:240|272:200|248:144,1,140
252,157,174587,5,0,0:0:0
252,157,174814,2,2,B|164:157,1,70,2|2,0:0|0:0,0:0:0
32,160,175496,2,2,B|16:224|32:272,2,105,2|2|2,0:0|0:0|0:0,0:0:0
184,144,176632,2,2,B|184:56,1,70,2|2,0:0|0:0,0:0:0
328,160,177314,2,2,B|352:112|328:48,2,105,2|2|2,0:0|0:0|0:0,0:0:0
472,248,178451,6,2,B|472:328,1,70,2|2,0:0|0:0,0:0:0
312,256,179133,2,2,B|312:152,2,105
184,360,180269,1,2,0:0:0
184,360,180496,1,2,0:0:0
48,264,180951,2,2,B|48:160,2,105,2|2|2,0:0|0:0|0:0,0:0:0
184,168,182087,22,2,B|184:72,1,70,2|2,0:0|0:0,0:0:0
344,40,182769,2,2,B|416:24|464:48,2,105,2|2|2,0:0|0:0|0:0,0:0:0
344,208,183905,2,2,B|344:304,1,70,2|2,0:0|0:0,0:0:0
184,336,184587,2,2,B|112:352|64:328,2,105,2|2|2,0:0|0:0|0:0,0:0:0
184,336,185496,53,0,0:0:0
200,88,186178,1,0,0:0:0
200,88,186405,2,0,B|224:48|296:48|320:96,1,140
456,192,187314,1,0,0:0:0
288,192,187769,1,0,0:0:0
120,192,188223,1,0,0:0:0
120,192,188451,1,0,0:0:0
120,192,188678,2,0,B|56:192,3,35
