osu file format v11

[General]
AudioFilename: kz(livetune)xhachiouji P feat. hatsune miku - fake doll.mp3
AudioLeadIn: 2000
PreviewTime: 71632
Countdown: 0
SampleSet: Normal
StackLeniency: 0.7
Mode: 0
LetterboxInBreaks: 0

[Editor]
DistanceSpacing: 1.2
BeatDivisor: 4
GridSize: 8

[Metadata]
Title:fake doll
TitleUnicode:fake doll
Artist:8#Prince
ArtistUnicode:8#Prince
Creator:y u c a
Version:Easy
Source:Vocaloid
Tags:HachiojiP hatsune miku James yuca y_u_c_a
BeatmapID:194226
BeatmapSetID:66622

[Difficulty]
HPDrainRate:2
CircleSize:3
OverallDifficulty:1
ApproachRate:2
SliderMultiplier:1.4
SliderTickRate:1

[Events]
//Background and Video events
0,0,"mikuyucaneto.jpg"
//Break Periods
2,116605,122118
//Storyboard Layer 0 (Background)
//Storyboard Layer 1 (Fail)
//Storyboard Layer 2 (Pass)
//Storyboard Layer 3 (Foreground)
//Storyboard Sound Samples
//Background Colour Transformations
3,100,0,0,0

[TimingPoints]
42,454.545454545455,4,1,1,60,1,0
12712,-200,4,1,1,60,0,0
12882,-200,4,2,1,5,0,0
14473,-100,4,1,1,60,0,0
21973,-100,4,1,1,60,0,0
22655,-100,4,1,1,50,0,0
23564,-100,4,1,1,40,0,0
24473,-100,4,1,1,30,0,0
25382,-100,4,1,1,60,0,0
29246,-100,4,2,1,80,0,0
29473,-100,4,1,1,60,0,0
29701,-100,4,2,1,80,0,0
29928,-100,4,1,1,60,0,0
30155,-100,4,1,1,80,0,0
30837,-100,4,1,1,60,0,0
31064,-100,4,1,1,80,0,0
32655,-100,4,1,1,60,0,0
32882,-100,4,2,1,80,0,0
33110,-100,4,1,1,60,0,0
33621,-100,4,2,1,80,0,0
33848,-100,4,1,1,60,0,0
34303,-100,4,2,1,80,0,0
34473,-100,4,1,1,60,0,0
35155,-100,4,2,1,80,0,0
35382,-100,4,1,1,60,0,0
35610,-100,4,2,1,80,0,0
35837,-100,4,2,1,60,0,0
36348,-100,4,1,1,60,0,0
36519,-100,4,2,1,80,0,0
36746,-100,4,1,1,60,0,0
37257,-100,4,2,1,80,0,0
37542,-100,4,1,1,60,0,0
37882,-100,4,2,1,80,0,0
38110,-100,4,1,1,60,0,0
38337,-100,4,1,1,80,0,0
39473,-100,4,1,1,60,0,0
39701,-100,4,2,1,80,0,0
39928,-100,4,1,1,60,0,0
40610,-100,4,1,1,80,0,0
41803,-100,4,1,1,60,0,0
41973,-100,4,2,1,80,0,0
42201,-100,4,1,1,60,0,0
42428,-100,4,2,1,80,0,0
42712,-100,4,1,1,80,0,0
42939,-100,4,2,1,80,0,0
43053,-100,4,2,1,60,0,0
43621,-100,4,2,1,80,0,0
44019,-100,4,2,1,80,0,0
44246,-100,4,2,1,80,0,0
44530,-100,4,1,1,60,0,0
44701,-100,4,1,1,60,0,0
44928,-100,4,2,1,80,0,0
45382,-100,4,1,1,60,0,0
45610,-100,4,2,1,80,0,0
45837,-100,4,2,1,80,0,0
46519,-100,4,1,1,60,0,0
46746,-100,4,2,1,80,0,0
47201,-100,4,1,1,60,0,0
47428,-100,4,2,1,80,0,0
47655,-100,4,2,1,80,0,0
48167,-100,4,2,1,80,0,0
48280,-100,4,1,1,60,0,0
48564,-100,4,2,1,80,0,0
48848,-100,4,2,1,80,0,0
49019,-100,4,1,1,60,0,0
49473,-100,4,2,1,80,0,0
49701,-100,4,2,1,80,0,0
49928,-100,4,1,1,60,0,0
50155,-100,4,2,1,80,0,0
50439,-100,4,2,1,80,0,0
50894,-100,4,1,1,60,0,0
51064,-100,4,2,1,80,0,0
51292,-100,4,2,1,80,0,0
51519,-100,4,1,1,60,0,0
51803,-100,4,1,1,60,0,0
52201,-100,4,2,1,80,0,0
52428,-100,4,2,1,80,0,0
52655,-100,4,1,1,60,0,0
52882,-100,4,2,1,80,0,0
53110,-100,4,2,1,80,0,0
53337,-100,4,1,1,60,0,0
54019,-100,4,2,1,80,0,0
54246,-100,4,2,1,80,0,0
54473,-100,4,1,1,60,0,0
54928,-100,4,2,1,80,0,0
55155,-100,4,1,1,60,0,0
55837,-100,4,2,1,80,0,0
56348,-100,4,1,1,60,0,0
56746,-100,4,2,1,80,0,0
56973,-100,4,2,1,80,0,0
57257,-100,4,1,1,60,0,0
57655,-100,4,2,1,80,0,0
57882,-100,4,2,1,80,0,0
58110,-100,4,1,1,60,0,0
58564,-100,4,2,1,100,0,0
58792,-100,4,1,1,60,0,0
59473,-100,4,2,1,100,0,0
59701,-100,4,1,1,60,0,0
60382,-100,4,2,1,100,0,0
60610,-100,4,1,1,60,0,0
61292,-100,4,2,1,100,0,0
61803,-100,4,1,1,60,0,0
62201,-100,4,2,1,100,0,0
62428,-100,4,1,1,60,0,0
63110,-100,4,2,1,100,0,0
63337,-100,4,1,1,60,0,0
64019,-100,4,2,1,100,0,0
64246,-100,4,1,1,60,0,0
64928,-100,4,2,1,100,0,0
65439,-100,4,1,1,60,0,0
65780,-100,4,2,1,100,0,0
66292,-100,4,1,1,100,0,0
66803,-100,4,2,1,100,0,0
67201,-100,4,1,1,100,0,0
67542,-100,4,2,1,100,0,0
68110,-100,4,1,1,100,0,0
68564,-100,4,2,1,100,0,0
68792,-100,4,1,1,50,0,0
72163,-100,4,2,1,5,0,0
72617,-100,4,1,1,60,0,0
76292,-100,4,1,1,60,0,0
77314,-100,4,1,1,50,0,0
78223,-100,4,1,1,40,0,0
79132,-100,4,1,1,30,0,0
79928,-100,4,1,1,60,0,0
80155,-100,4,2,1,80,0,0
80382,-100,4,1,1,60,0,0
80610,-100,4,2,1,80,0,0
81292,-100,4,1,1,60,0,0
81519,-100,4,2,1,80,0,0
82201,-100,4,1,1,60,0,0
82428,-100,4,2,1,80,0,0
83110,-100,4,1,1,60,0,0
83337,-100,4,2,1,80,0,0
83564,-100,4,1,1,60,0,0
86746,-100,4,2,1,100,0,0
87201,-100,4,1,1,60,0,0
90837,-100,4,1,1,60,0,0
91860,-100,4,1,1,50,0,0
92769,-100,4,1,1,40,0,0
93678,-100,4,1,1,30,0,0
94701,-100,4,2,1,80,0,0
94928,-100,4,1,1,60,0,0
95155,-100,4,2,1,80,0,0
95382,-100,4,1,1,60,0,0
95610,-100,4,2,1,80,0,0
95837,-100,4,1,1,80,0,0
96064,-100,4,2,1,80,0,0
96292,-100,4,1,1,60,0,0
96519,-100,4,2,1,80,0,0
96746,-100,4,1,1,60,0,0
96973,-100,4,2,1,80,0,0
97201,-100,4,1,1,60,0,0
97428,-100,4,1,1,60,0,0
97655,-100,4,2,1,80,0,0
98167,-100,4,1,1,60,0,0
99985,-200,4,1,1,60,0,0
100837,-100,4,2,1,5,0,0
101746,-100,4,1,1,60,0,0
109246,-100,4,1,1,60,0,0
109928,-100,4,1,1,50,0,0
110837,-100,4,1,1,40,0,0
111746,-100,4,1,1,30,0,0
112655,-100,4,1,1,60,0,0
124019,-100,4,2,1,100,0,0
124246,-100,4,1,1,60,0,0
124928,-100,4,2,1,100,0,0
125382,-100,4,1,1,60,0,0
125837,-100,4,2,1,100,0,0
126064,-100,4,1,1,60,0,0
126746,-100,4,2,1,100,0,0
127257,-100,4,1,1,60,0,0
127655,-100,4,2,1,100,0,0
127882,-100,4,1,1,60,0,0
128564,-100,4,2,1,100,0,0
129076,-200,4,1,1,5,0,0
130837,-100,4,1,1,60,0,0
149019,-100,4,1,1,50,0,0
150042,-100,4,1,1,50,0,0
150951,-100,4,1,1,40,0,0
151973,-100,4,1,1,30,0,0
152882,-100,4,2,1,80,0,0
153110,-100,4,1,1,80,0,0
153337,-100,4,2,1,80,0,0
154019,-100,4,1,1,80,0,0
154246,-100,4,2,1,80,0,0
154928,-100,4,1,1,80,0,0
155155,-100,4,2,1,80,0,0
155837,-100,4,1,1,80,0,0
156064,-100,4,2,1,80,0,0
156348,-100,4,1,1,60,0,0
157655,-100,4,2,1,80,0,0
158167,-100,4,1,1,60,0,0
158621,-100,4,2,1,100,0,0
158792,-100,4,1,1,60,0,0
159473,-100,4,2,1,100,0,0
159985,-100,4,1,1,60,0,0
163564,-100,4,1,1,50,0,0
167428,-100,4,2,1,80,0,0
167655,-100,4,1,1,60,0,0
167882,-100,4,2,1,80,0,0
168564,-100,4,1,1,60,0,0
168792,-100,4,2,1,80,0,0
169019,-100,4,1,1,60,0,0
169246,-100,4,2,1,80,0,0
169473,-100,4,1,1,60,0,0
169701,-100,4,2,1,80,0,0
169928,-100,4,1,1,60,0,0
170155,-100,4,1,1,60,0,0
170382,-100,4,2,1,100,0,0
170894,-100,4,1,1,60,0,0
172712,-200,4,1,1,5,0,0
173564,-200,4,2,1,5,0,0
174473,-100,4,1,1,60,0,0
174587,-100,4,1,1,60,0,1
182655,-100,4,1,1,50,0,1
183564,-100,4,1,1,40,0,1
184473,-100,4,1,1,30,0,1
185382,-100,4,1,1,50,0,0

[Colours]
Combo1 : 255,255,255
Combo2 : 254,177,211
Combo3 : 154,222,183
Combo4 : 236,211,96
Combo5 : 255,150,0

[HitObjects]
192,136,7314,1,0,0:0:0
400,136,8223,1,0,0:0:0
400,312,9132,1,0,0:0:0
192,312,10042,1,0,0:0:0
80,312,10496,6,0,B|56:232|88:152,1,140
104,72,11405,1,0,0:0:0
216,72,11860,1,0,0:0:0
328,72,12314,1,0,0:0:0
432,72,12769,38,0,B|456:176|432:296,1,210
434,280,15042,5,2,0:0:0
328,320,15496,2,2,B|280:344|216:344,2,105
224,184,16860,1,2,0:0:0
160,272,17314,2,2,B|112:232|112:168,2,105
78,104,18678,5,2,0:0:0
184,64,19132,2,2,B|232:40|296:40,2,105
288,200,20496,1,2,0:0:0
352,112,20950,2,2,B|400:152|400:216,2,105
256,56,22087,21,2,0:0:0
256,112,22314,1,2,0:0:0
144,88,22768,2,2,B|144:216,2,105
256,56,23905,1,2,0:0:0
256,112,24132,1,2,0:0:0
368,88,24586,2,2,B|368:208,1,105
368,280,25269,2,0,B|328:280|288:296,1,70,2|0,0:0|0:0,0:0:0
136,336,26178,1,0,0:0:0
88,192,27314,53,0,0:0:0
200,192,27769,1,0,0:0:0
312,192,28223,1,0,0:0:0
424,192,28678,2,0,B|448:120|416:24,1,140
312,56,29587,37,0,0:0:0
160,128,30496,1,0,0:0:0
288,240,31405,1,0,0:0:0
144,328,32314,1,0,0:0:0
56,256,32769,6,0,B|40:184|56:112,1,140
208,48,34132,1,0,0:0:0
368,120,35042,1,0,0:0:0
312,216,35496,1,0,0:0:0
200,216,35951,2,0,B|136:216,4,35,0|2|2|2|0,0:0|0:0|0:0|0:0|0:0,0:0:0
200,328,36860,21,0,0:0:0
352,256,37769,1,0,0:0:0
224,144,38678,1,0,0:0:0
368,56,39587,1,0,0:0:0
456,128,40042,54,0,B|472:200|456:272,1,140
304,336,41405,1,0,0:0:0
144,264,42315,1,0,0:0:0
200,168,42769,1,0,0:0:0
312,168,43224,2,0,B|376:168,4,35,2|2|2|2|4,0:0|0:0|0:0|0:0|0:0,0:0:0
360,56,44132,38,0,B|144:56,1,210,2|0,0:0|0:0,0:0:0
152,112,45042,1,2,0:0:0
152,224,45496,1,0,0:0:0
152,336,45951,2,0,B|376:336,1,210,2|0,0:0|0:0,0:0:0
360,280,46860,1,2,0:0:0
248,280,47314,6,0,B|88:280,1,140,0|2,0:0|0:0,0:0:0
112,112,48451,2,0,B|112:32,1,70,0|2,0:0|0:0,0:0:0
224,40,49132,2,0,B|224:192,1,140,0|2,0:0|0:0,0:0:0
336,180,50042,1,0,0:0:0
447,181,50496,2,0,B|447:237,4,35,2|2|2|2|0,0:0|0:0|0:0|0:0|0:0,0:0:0
448,296,51405,22,0,B|408:312|376:344,1,70,2|0,0:0|0:0,0:0:0
280,304,52087,2,0,B|240:312|192:312,1,70,0|2,0:0|0:0,0:0:0
96,296,52769,1,0,0:0:0
144,200,53223,2,0,B|184:192|224:192,1,70,2|0,0:0|0:0,0:0:0
328,176,53905,2,0,B|369:188|416:184,1,70,0|2,0:0|0:0,0:0:0
472,96,54587,53,0,0:0:0
368,48,55041,2,0,B|328:40|280:56,1,70,2|0,0:0|0:0,0:0:0
184,64,55723,2,0,B|144:64|104:40,1,70,0|2,0:0|0:0,0:0:0
64,144,56405,2,0,B|131:176|224:184,1,140,0|2,0:0|0:0,0:0:0
368,192,57542,2,0,B|368:288,1,70,0|2,0:0|0:0,0:0:0
472,288,58223,38,0,B|472:120,1,140,0|2,0:0|0:0,0:0:0
320,192,59360,2,0,B|320:280,1,70,0|2,0:0|0:0,0:0:0
192,296,60042,2,0,B|192:128,1,140,0|2,0:0|0:0,0:0:0
40,192,61178,2,0,B|40:288,1,70,0|2,0:0|0:0,0:0:0
144,296,61860,6,0,B|128:224|152:136,1,140,0|2,0:0|0:0,0:0:0
256,32,62996,2,0,B|256:128,1,70,0|2,0:0|0:0,0:0:0
368,160,63678,2,0,B|384:240|360:320,1,140,0|2,0:0|0:0,0:0:0
200,312,64814,2,0,B|160:312|104:328,1,70,0|2,0:0|0:0,0:0:0
96,216,65496,22,0,B|80:152|88:88,1,105,0|2,0:0|0:0,0:0:0
184,152,66178,2,0,B|192:120|224:80,1,70,2|0,0:0|0:0,0:0:0
416,216,67314,2,0,B|432:152|424:88,1,105,0|2,0:0|0:0,0:0:0
328,152,67996,2,0,B|320:120|288:80,1,70,2|0,0:0|0:0,0:0:0
256,192,69132,12,4,70951,0:0:0
232,336,72314,21,0,0:0:0
344,336,72769,6,2,B|464:336,2,105
232,336,73905,1,0,0:0:0
232,336,74132,1,2,0:0:0
232,224,74587,2,2,B|384:224,1,140,2|0,0:0|0:0,0:0:0
376,168,75269,2,2,B|280:112|160:160,1,210,2|2,0:0|0:0,0:0:0
168,48,76405,22,2,B|48:48,2,105
280,48,77541,1,0,0:0:0
280,48,77768,1,2,0:0:0
280,160,78223,2,2,B|128:160,1,140,2|0,0:0|0:0,0:0:0
136,216,78905,2,2,B|232:272|352:224,1,210,2|2,0:0|0:0,0:0:0
448,200,80042,54,0,B|448:120,1,70,0|2,0:0|0:0,0:0:0
360,64,80723,1,2,0:0:0
256,112,81178,1,2,0:0:0
144,88,81632,1,2,0:0:0
48,144,82087,2,0,B|48:304,1,140,2|2,0:0|0:0,0:0:0
160,320,82996,1,2,0:0:0
280,304,83451,2,0,B|312:328|368:320,1,70,2|0,0:0|0:0,0:0:0
424,240,84132,2,0,B|424:80,4,140,0|0|0|0|0,0:0|0:0|0:0|0:0|0:0,0:0:0
256,224,86632,2,0,B|256:144,1,70,0|0,0:0|0:0,0:0:0
256,48,87314,38,2,B|104:48,1,140,2|0,0:0|0:0,0:0:0
104,104,87996,2,2,B|64:208|104:320,1,210,2|2,0:0|0:0,0:0:0
216,312,89132,2,2,B|328:312,2,105
256,208,90269,1,0,0:0:0
256,160,90496,1,2,0:0:0
256,48,90951,6,2,B|408:48,1,140,2|0,0:0|0:0,0:0:0
408,104,91633,2,2,B|448:208|408:320,1,210,2|2,0:0|0:0,0:0:0
296,312,92769,2,2,B|184:312,2,105
256,208,93906,1,0,0:0:0
256,152,94133,1,2,0:0:0
256,40,94587,22,0,B|160:40,1,70,0|2,0:0|0:0,0:0:0
96,104,95269,1,2,0:0:0
120,216,95723,1,2,0:0:0
216,152,96178,2,0,B|216:216|264:296,1,140
360,328,97087,1,2,0:0:0
432,240,97542,1,0,0:0:0
432,240,97769,2,0,B|432:168|376:80,1,140,2|0,0:0|0:0,0:0:0
280,104,98678,2,0,B|112:104,2,140
232,208,100042,6,0,B|384:208,1,140
372,208,102314,37,2,0:0:0
304,120,102768,2,2,B|352:80|424:112,2,105
140,176,104132,1,2,0:0:0
208,264,104586,2,2,B|160:304|88:272,2,105
368,312,105951,37,2,0:0:0
312,216,106405,2,2,B|336:168|320:96,2,105
144,312,107769,1,2,0:0:0
200,216,108223,2,2,B|176:168|192:96,2,105
256,312,109360,5,2,0:0:0
256,312,109587,1,2,0:0:0
344,240,110041,2,2,B|464:240,2,105
256,168,111178,1,2,0:0:0
256,168,111405,1,2,0:0:0
176,88,111859,2,2,B|56:88,2,105
232,88,112769,2,0,B|456:88,1,210
440,296,114587,53,0,0:0:0
328,296,115042,1,0,0:0:0
216,296,115496,1,0,0:0:0
104,296,115951,2,0,B|56:296,4,35,0|0|0|0|4,0:0|0:0|0:0|0:0|0:0,0:0:0
80,64,123678,5,0,0:0:0
184,96,124132,2,0,B|224:88|256:64,1,70,2|0,0:0|0:0,0:0:0
360,72,124814,2,0,B|408:72|448:96,1,70,0|2,0:0|0:0,0:0:0
440,200,125496,53,0,0:0:0
328,200,125950,2,0,B|296:224|240:216,1,70,2|0,0:0|0:0,0:0:0
152,200,126632,2,0,B|104:192|56:216,1,70,0|2,0:0|0:0,0:0:0
64,312,127314,37,0,0:0:0
176,336,127768,2,0,B|208:312|264:320,1,70,2|0,0:0|0:0,0:0:0
352,320,128450,2,0,B|392:296|416:248,1,70,0|2,0:0|0:0,0:0:0
360,168,129132,6,0,B|256:128|144:168,1,210
48,192,130951,6,0,B|48:312,4,105
184,224,132769,2,0,B|184:104,4,105
320,184,134587,2,0,B|320:304,4,105
456,224,136405,2,0,B|456:96,4,105
336,304,138223,6,0,B|336:360,12,35,0|0|0|0|0|0|0|0|0|0|0|0|0,0:0|0:0|0:0|0:0|0:0|0:0|0:0|0:0|0:0|0:0|0:0|0:0|0:0,0:0:0
176,304,140042,2,0,B|176:360,12,35
256,192,141860,12,4,143678,0:0:0
256,192,145496,21,0,0:0:0
256,192,146632,54,0,B|256:280,1,70
160,232,147314,38,2,B|160:88,1,140,2|0,0:0|0:0,0:0:0
216,80,147996,2,2,B|320:48|448:72,1,210
472,168,149132,2,2,B|344:168,2,105
416,264,150269,2,0,B|384:288|336:296,1,70,0|2,0:0|0:0,0:0:0
240,296,150951,2,2,B|240:136,1,140,2|0,0:0|0:0,0:0:0
240,104,151632,2,2,B|160:32|32:48,1,210
48,160,152769,6,0,B|48:248,1,70,0|2,0:0|0:0,0:0:0
136,304,153451,1,2,0:0:0
240,264,153905,1,2,0:0:0
352,288,154360,1,2,0:0:0
456,256,154814,2,0,B|456:112,1,140,2|2,0:0|0:0,0:0:0
352,80,155723,1,2,0:0:0
256,144,156178,2,0,B|256:232,1,70,2|0,0:0|0:0,0:0:0
256,328,156860,21,0,0:0:0
152,280,157314,1,0,0:0:0
48,320,157769,2,0,B|48:376,4,35,2|2|2|2|0,0:0|0:0|0:0|0:0|0:0,0:0:0
48,208,158678,1,2,0:0:0
116,119,159132,54,0,B|255:79|412:127,1,280
256,248,161178,38,0,B|256:328,1,70
360,288,161860,6,2,B|360:160,2,105
456,232,162996,1,0,0:0:0
456,232,163223,2,2,B|456:64,1,140,2|2,0:0|0:0,0:0:0
352,56,164132,2,0,B|352:128,1,70,0|2,0:0|0:0,0:0:0
352,296,165042,2,2,B|288:320|200:304,1,140,2|2,0:0|0:0,0:0:0
128,288,165837,2,2,B|128:176,1,105,2|2,0:0|0:0,0:0:0
240,168,166632,2,0,B|272:160|328:160,1,70,0|2,0:0|0:0,0:0:0
424,152,167314,22,0,B|424:56,1,70,0|2,0:0|0:0,0:0:0
312,56,167996,1,2,0:0:0
200,80,168451,1,2,0:0:0
200,192,168905,2,0,B|200:360,1,140,2|2,0:0|0:0,0:0:0
88,304,169814,1,2,0:0:0
88,192,170269,2,0,B|88:112,1,70,0|2,0:0|0:0,0:0:0
192,48,170951,53,0,0:0:0
320,48,171405,1,0,0:0:0
320,176,171860,1,0,0:0:0
192,184,172314,1,0,0:0:0
256,304,172769,22,0,B|256:160,1,140
256,164,174587,5,0,0:0:0
256,248,174814,1,2,0:0:0
256,336,175042,2,2,B|328:352|428:340,1,140,2|2,0:0|0:0,0:0:0
424,216,175837,2,2,B|440:168|424:104,1,105
256,80,176632,1,2,0:0:0
256,168,176860,1,2,0:0:0
256,336,177314,2,2,B|208:352|128:344,2,105
256,164,178451,5,2,0:0:0
256,80,178679,2,2,B|184:56|96:56,1,140,2|2,0:0|0:0,0:0:0
120,184,179474,2,2,B|120:296,1,105
256,304,180269,1,2,0:0:0
256,216,180497,1,2,0:0:0
256,48,180951,2,2,B|304:32|384:40,2,105
160,192,182087,21,2,0:0:0
160,192,182314,1,2,0:0:0
256,328,182769,2,2,B|312:352|368:344,2,105
352,192,183905,1,2,0:0:0
352,192,184132,1,2,0:0:0
256,56,184587,2,2,B|200:32|144:40,2,105
256,56,185496,53,0,0:0:0
256,312,186178,1,0,0:0:0
88,192,187314,37,0,0:0:0
200,192,187769,1,0,0:0:0
312,192,188223,1,0,0:0:0
424,192,188678,2,0,B|424:136,3,35
