osu file format v11

[General]
AudioFilename: fake.mp3
AudioLeadIn: 0
PreviewTime: 88038
Countdown: 0
SampleSet: Soft
StackLeniency: 0.7
Mode: 0
LetterboxInBreaks: 0

[Editor]
DistanceSpacing: 1.3
BeatDivisor: 4
GridSize: 4

[Metadata]
Title:fake doll
TitleUnicode:fake doll
Artist:8#Prince
ArtistUnicode:8#Prince
Creator:alacat
Version:Pokie
Source:Vocaloid
Tags:hatsune miku wakamura pokie hachiojip
BeatmapID:197332
BeatmapSetID:68036

[Difficulty]
HPDrainRate:5
CircleSize:4
OverallDifficulty:5
ApproachRate:7
SliderMultiplier:1.4
SliderTickRate:1

[Events]
//Background and Video events
Video,0,"doll.flv"
0,0,"BG.jpg"
//Break Periods
2,118465,124638
//Storyboard Layer 0 (Background)
//Storyboard Layer 1 (Fail)
//Storyboard Layer 2 (Pass)
//Storyboard Layer 3 (Foreground)
//Storyboard Sound Samples
//Background Colour Transformations
3,100,0,0,0

[TimingPoints]
1902,454.545454545455,4,2,1,50,1,0
1902,-133.333333333333,4,2,1,50,0,0
2583,-133.333333333333,4,2,1,50,0,0
4061,-133.333333333333,4,2,1,20,0,0
4402,-133.333333333333,4,2,1,40,0,0
4856,-133.333333333333,4,2,1,50,0,0
5311,-133.333333333333,4,2,1,20,0,0
5538,-133.333333333333,4,2,1,40,0,0
6220,-133.333333333333,4,2,1,50,0,0
8379,-133.333333333333,4,2,1,30,0,0
8492,-133.333333333333,4,2,1,50,0,0
14629,-133.333333333333,4,2,1,50,0,0
16447,-100,4,2,1,70,0,0
29174,-100,4,2,1,60,0,0
29629,-100,4,2,1,70,0,0
30992,-100,4,2,1,60,0,0
60083,-133.333333333333,4,2,1,40,0,0
71447,-100,4,2,1,50,0,0
71902,-100,4,2,1,60,0,0
72356,-100,4,2,1,70,0,0
72811,-100,4,2,1,50,0,0
74629,-100,4,2,1,60,0,1
88492,-100,4,2,1,80,0,1
88720,-100,4,2,1,80,0,1
88947,-100,4,2,1,80,0,0
89174,-100,4,2,1,80,0,1
102811,-100,4,2,1,50,0,1
103265,-100,4,2,1,80,0,1
103492,-100,4,2,1,20,0,1
103720,-100,4,2,1,70,0,0
125538,-100,4,2,1,50,0,0
132811,-100,4,2,1,70,0,0
147356,-100,4,2,1,50,0,0
148947,-100,4,2,1,20,0,0
149174,-100,4,2,1,80,0,1
163265,-100,4,2,1,80,0,1
163492,-100,4,2,1,20,0,0
163720,-100,4,2,1,80,0,1
175992,-100,4,2,1,80,0,1
176220,-100,4,2,1,20,0,0
180083,-100,4,2,1,70,0,0

[Colours]
Combo1 : 166,255,255
Combo2 : 238,130,235

[HitObjects]
224,60,1902,2,0,P|192:128|224:204,1,157.500006008148,0|0,0:0|0:0,0:0:0
232,216,3492,1,2,0:0:0
232,216,3606,1,0,0:0:0
232,216,3720,2,0,P|324:208,1,78.7500030040742
284,308,4402,2,0,P|180:316,2,105.000004005432
344,256,5538,5,0,0:0:0
168,128,6220,1,0,0:0:0
192,152,6674,1,2,0:0:0
192,152,6788,1,0,0:0:0
192,152,6902,2,0,P|204:212,1,52.5000020027161,0|2,0:0|0:0,0:0:0
324,160,7356,6,0,P|308:240,1,78.7500030040742,0|2,0:0|0:0,0:0:0
184,160,8038,2,0,P|200:240,2,78.7500030040742,0|2|0,0:0|0:0|0:0,0:0:0
256,96,8947,2,0,P|256:36,1,52.5000020027161,2|4,0:0|0:0,0:0:0
412,36,9629,5,8,0:0:0
480,176,10083,1,0,0:0:0
336,240,10538,1,8,0:0:0
340,160,10765,6,0,P|368:144,2,26.2500010013581,8|0|0,0:0|0:0|0:0,0:0:0
332,316,11447,1,8,0:0:0
176,304,11902,1,0,0:0:0
184,148,12356,1,8,1:2:0
184,148,12470,1,0,0:0:0
184,148,12583,2,0,P|196:184,2,26.2500010013581,0|0|0,1:0|0:0|1:0,0:0:0
212,72,13038,6,0,P|160:48,1,52.5000020027161,0|8,1:0|0:0,0:0:0
300,72,13492,2,0,P|352:48,1,52.5000020027161,0|0,1:0|1:0,0:0:0
256,144,13947,1,0,1:0:0
256,164,14061,1,0,1:0:0
256,184,14174,2,0,P|256:216,4,26.2500010013581,0|0|0|0|4,1:0|1:0|1:0|1:0|1:0,1:0:0
256,184,16447,5,4,0:0:0
164,152,16674,1,0,0:0:0
180,248,16902,1,8,0:0:0
180,248,17356,2,0,P|72:244,2,105,2|2|0,0:0|0:0|0:0,0:0:0
308,296,18265,6,0,P|384:300,1,70
460,244,18720,1,8,0:0:0
392,184,18947,1,0,2:0:0
392,184,19061,2,0,P|400:72,1,105,2|2,0:0|0:0,0:0:0
484,32,19629,1,8,0:0:0
504,128,19856,1,0,0:0:0
312,104,20083,6,0,P|216:112,1,70,0|0,0:0|0:0,0:0:0
200,200,20538,1,8,0:0:0
200,200,20992,2,0,P|312:192,2,105,2|2|0,0:0|0:0|0:0,0:0:0
112,152,21902,6,0,P|100:188|104:224,1,70,0|0,0:0|0:0,0:0:0
176,288,22356,1,8,0:0:0
256,236,22583,1,0,0:0:0
256,236,22697,2,0,P|256:120,1,105,2|2,0:0|0:0,0:0:0
288,48,23265,2,0,P|248:40|212:52,1,70,8|8,0:0|0:0,0:0:0
188,168,23720,6,0,P|248:184|328:164,1,140,0|8,0:0|0:0,0:0:0
322,166,24629,2,0,P|300:272,2,105,2|2|0,0:0|0:0|0:0,0:0:0
256,64,25538,5,0,0:0:0
160,64,25765,1,2,0:0:0
120,152,25992,1,8,0:0:0
188,224,26220,1,2,0:0:0
216,148,26447,2,0,P|288:152,1,70,0|0,0:0|0:0,0:0:0
216,268,26902,2,0,P|146:264,1,70,8|0,0:0|0:0,0:0:0
60,216,27356,5,4,0:0:0
36,296,27583,1,8,0:0:0
104,344,27811,1,8,0:0:0
172,296,28038,1,4,0:0:0
144,216,28265,2,0,P|148:136,1,70,8|8,0:0|0:0,0:0:0
260,72,28720,2,0,P|256:152,1,70,0|4,1:0|0:0,0:0:0
320,200,29174,5,4,1:0:0
320,200,29629,1,0,1:0:0
320,200,30083,1,0,1:0:0
388,252,30311,1,0,0:0:0
388,252,30424,1,0,0:0:0
388,252,30538,2,0,P|440:256|484:224,1,105,0|0,1:0|1:0,0:0:0
497,184,30992,5,4,1:0:0
318,149,31447,1,0,1:0:0
288,328,31902,1,0,0:0:0
467,357,32356,2,0,P|457:272,1,70,0|0,1:0|0:0,0:0:0
408,197,32811,6,0,P|349:174|276:205,1,140,0|0,0:0|1:0,0:0:0
216,301,33492,2,0,P|275:324|348:293,1,140,0|0,0:0|0:0,0:0:0
280,200,34174,2,0,P|200:187,1,70,0|0,1:0|0:0,0:0:0
175,105,34629,5,0,0:0:0
1,142,35083,1,0,1:0:0
203,285,35539,1,0,0:0:0
26,324,35993,2,0,P|34:254,1,70,0|0,1:0|0:0,0:0:0
102,194,36447,6,0,P|150:184|202:210,1,105
199,207,36902,2,0,P|278:199,1,70,0|0,1:0|0:0,0:0:0
347,80,37356,2,0,P|277:87,1,70,0|0,0:0|1:0,0:0:0
198,41,37811,1,2,0:0:0
198,41,38038,1,0,1:0:0
198,41,38265,6,0,P|190:152,1,105
210,187,38720,2,0,P|243:202|286:198,1,70,0|0,1:0|0:0,0:0:0
385,138,39174,2,0,P|529:122,2,140,0|0|0,0:0|1:0|0:0,0:0:0
270,102,40311,5,0,0:0:0
195,154,40538,1,0,1:0:0
216,242,40765,1,0,0:0:0
306,250,40992,2,0,P|288:167,1,70
394,108,41447,2,0,P|412:191,1,70,0|0,1:0|0:0,0:0:0
481,231,41902,6,0,P|469:302|411:333,1,140,0|0,0:0|1:0,0:0:0
228,208,42811,2,0,P|240:137|298:106,1,140,0|0,0:0|1:0,0:0:0
320,200,43492,5,0,0:0:0
320,200,43606,1,0,0:0:0
320,200,43720,2,0,P|365:262,1,70,0|0,1:0|0:0,0:0:0
220,132,44174,2,0,P|281:87,1,70,0|0,1:0|0:0,0:0:0
152,232,44629,2,0,P|110:175,1,70,0|2,1:0|0:0,0:0:0
256,300,45083,2,0,P|199:341,1,70,0|0,1:0|0:0,0:0:0
240,212,45538,5,4,2:0:0
50,135,45992,1,0,1:0:0
240,212,46447,1,0,0:0:0
144,348,46902,2,0,P|156:280,1,70,0|0,1:0|0:0,0:0:0
103,154,47356,6,0,P|159:130|235:154,1,140,0|0,0:0|1:0,0:0:0
297,240,48038,2,0,P|241:264|165:240,1,140,0|0,0:0|1:0,0:0:0
232,151,48720,2,0,P|224:72,1,70,0|0,1:0|0:0,0:0:0
299,206,49174,5,0,0:0:0
411,337,49629,1,0,1:0:0
471,182,50083,1,0,0:0:0
411,337,50538,2,0,P|339:330,1,70,0|0,1:0|0:0,0:0:0
244,282,50992,5,0,0:0:0
290,204,51220,1,0,0:0:0
290,204,51333,1,0,0:0:0
290,204,51447,2,0,P|296:127,1,70,0|0,1:0|0:0,0:0:0
200,22,51902,2,0,P|194:91,1,70,0|0,1:0|1:0,0:0:0
98,227,52356,2,0,P|17:221,1,70,0|0,1:0|0:0,0:0:0
225,181,52811,6,0,P|295:184|379:189,2,140,0|0|0,0:0|1:0|0:0,0:0:0
183,301,53947,1,0,0:0:0
97,330,54174,1,0,1:0:0
40,258,54402,1,0,0:0:0
86,180,54629,6,0,P|122:181|157:186,1,70
216,259,55083,1,0,1:0:0
284,198,55311,2,0,P|294:58,1,140,0|2,0:0|0:0,0:0:0
382,36,55992,2,0,P|459:41,1,70,0|0,1:0|0:0,0:0:0
491,122,56447,5,0,0:0:0
352,240,56902,1,0,1:0:0
491,122,57356,1,0,0:0:0
443,199,57583,2,0,P|435:283,1,70,0|0,0:0|1:0,0:0:0
347,347,58038,1,0,1:0:0
327,339,58152,1,0,0:0:0
307,331,58265,6,0,P|235:327,1,70,4|0,1:2|1:0,0:0:0
182,207,58720,2,0,P|251:210,1,70,0|0,1:2|1:0,0:0:0
360,103,59174,2,0,P|290:99,1,70,0|0,1:2|1:0,0:0:0
220,40,59629,1,0,1:0:0
144,91,59856,1,0,0:0:0
181,178,60083,6,0,P|224:201|289:189,1,105.000004005432,4|8,0:0|0:0,0:0:0
422,49,60992,2,0,P|379:26|314:38,1,105.000004005432,0|8,0:0|0:0,0:0:0
286,110,61674,6,0,P|345:113,1,52.5000020027161,8|0,0:0|0:0,0:0:0
417,163,62129,2,0,P|432:220,1,52.5000020027161,2|8,0:0|0:0,0:0:0
380,294,62583,2,0,P|330:326,1,52.5000020027161,0|2,0:0|0:0,0:0:0
258,267,63038,5,0,0:0:0
337,216,63265,1,8,0:0:0
413,270,63492,1,0,0:0:0
392,362,63720,2,0,P|340:383|282:373,1,105.000004005432,0|8,0:0|0:0,0:0:0
136,220,64629,2,0,P|188:199|246:209,1,105.000004005432,0|8,0:0|0:0,0:0:0
301,151,65311,1,0,0:0:0
251,82,65538,6,0,P|184:77,1,52.5000020027161,8|0,0:0|0:0,0:0:0
116,93,65992,2,8,P|62:116,1,52.5000020027161,8|0,1:2|0:0,0:0:0
19,182,66447,2,0,P|0:236,1,52.5000020027161,8|2,0:0|0:0,0:0:0
13,314,66902,2,0,P|44:371,1,52.5000020027161,8|2,0:0|0:0,0:0:0
100,255,67356,6,0,P|187:260,1,78.7500030040742,4|8,1:0|1:2,0:0:0
310,228,68038,2,0,P|238:232,1,52.5000020027161,4|8,1:0|1:2,0:0:0
239,211,68379,1,0,0:0:0
219,193,68492,2,0,P|213:170|217:131,1,52.5000020027161,0|8,0:0|1:2,0:0:0
307,148,68947,1,2,0:0:0
368,64,69174,6,0,P|281:60,1,78.7500030040742,0|2,1:0|0:0,0:0:0
167,135,69856,2,0,P|232:122,1,52.5000020027161,0|2,1:0|0:0,0:0:0
244,119,70197,1,0,0:0:0
270,115,70311,1,0,0:0:0
357,116,70538,1,8,1:2:0
398,195,70765,1,0,0:0:0
308,191,70992,5,4,1:0:0
256,192,71106,12,4,72811,0:0:0
256,280,74629,6,0,P|178:274,1,70,4|0,0:0|0:0,0:0:0
267,188,75083,2,0,P|345:182,1,70,8|0,1:2|0:0,0:0:0
190,142,75538,1,0,0:0:0
356,316,75992,1,8,1:2:0
445,275,76220,1,0,0:0:0
445,275,76333,1,0,0:0:0
445,275,76447,6,0,P|447:202,1,70,0|0,1:0|0:0,0:0:0
338,45,76902,2,0,P|336:114,1,70,8|0,1:2|0:0,0:0:0
293,202,77356,1,0,0:0:0
420,52,77811,1,8,1:2:0
323,33,78038,1,0,0:0:0
302,36,78152,1,0,0:0:0
281,39,78265,6,0,P|205:34,1,70,0|0,0:0|0:0,0:0:0
157,116,78720,2,0,P|81:111,1,70,8|0,1:2|0:0,0:0:0
226,167,79174,1,0,0:0:0
33,42,79629,1,8,1:2:0
6,136,79856,6,0,P|-42:144,2,35,0|0|0,0:0|0:0|1:0,0:0:0
90,101,80311,1,0,0:0:0
154,165,80538,1,8,1:2:0
111,245,80765,1,0,0:0:0
21,232,80992,2,0,P|16:268|15:308,1,70,0|0,0:0|0:0,0:0:0
169,373,81447,2,0,P|174:337|175:297,1,70,8|0,1:2|0:0,0:0:0
168,279,81788,1,0,1:0:0
158,256,81902,6,0,P|310:252,1,140,0|8,0:0|1:2,0:0:0
361,178,82583,1,0,0:0:0
417,258,82811,2,0,P|429:340,1,70
502,212,83265,2,0,P|510:131,1,70,8|0,1:2|0:0,0:0:0
439,73,83720,6,0,P|372:80|342:149,1,140,0|8,0:0|1:2,0:0:0
299,228,84402,1,0,0:0:0
299,228,84515,2,0,P|312:337,1,105,0|2,1:0|0:0,0:0:0
225,379,85083,2,0,P|192:379|154:372,1,70,8|0,1:2|0:0,0:0:0
63,269,85538,6,0,P|178:290,1,105,0|0,1:0|0:0,0:0:0
166,287,85992,2,0,P|180:249|175:214,1,70,8|0,1:2|0:0,0:0:0
123,138,86447,2,0,P|38:146,1,70,0|0,1:0|0:0,0:0:0
212,94,86902,1,8,1:2:0
212,94,87015,1,0,0:0:0
212,94,87129,1,8,0:0:0
212,94,87242,1,0,0:0:0
212,94,87356,6,0,P|338:100,1,105,4|0,1:0|0:0,0:0:0
316,98,87811,2,0,P|370:68|462:90,1,140,0|2,1:0|0:0,0:0:0
394,162,88492,1,8,0:0:0
394,162,88720,1,8,0:0:0
394,162,89174,6,0,P|384:237,1,70,4|2,0:0|0:0,0:0:0
460,353,89629,2,0,P|470:278,1,70,8|0,1:2|0:0,0:0:0
363,357,90083,1,0,0:0:0
478,124,90538,1,8,1:2:0
383,97,90765,1,0,0:0:0
383,97,90879,1,0,0:0:0
383,97,90992,6,0,P|298:100,1,70,0|0,1:0|0:0,0:0:0
179,161,91447,2,0,P|264:164,1,70,8|2,1:2|0:0,0:0:0
336,208,91902,1,0,0:0:0
278,287,92129,1,0,0:0:0
183,260,92356,1,8,1:2:0
179,161,92583,1,0,0:0:0
267,119,92811,6,0,P|256:205,1,70,0|2,0:0|0:0,0:0:0
175,329,93265,2,0,P|186:243,1,70,8|0,1:2|0:0,0:0:0
250,371,93720,1,0,0:0:0
42,223,94174,1,8,1:2:0
119,162,94402,1,0,0:0:0
119,162,94515,1,0,0:0:0
119,162,94629,5,0,1:0:0
111,273,94856,1,0,0:0:0
0,264,95083,1,8,1:2:0
11,152,95311,1,2,0:0:0
78,81,95538,6,0,P|151:76,1,70,0|2,0:0|0:0,0:0:0
293,169,95992,2,0,P|223:173,1,70,8|2,1:2|0:0,0:0:0
203,165,96333,1,0,0:0:0
183,156,96447,6,0,P|165:203|169:262,1,105,4|0,0:2|0:0,0:0:0
197,296,96902,2,0,P|232:313|272:311,1,70,8|0,1:2|0:0,0:0:0
418,228,97356,2,0,P|308:240,1,105,0|2,0:0|0:0,0:0:0
313,239,97811,2,0,P|320:159,1,70,8|2,1:2|0:0,0:0:0
464,84,98265,6,0,P|495:122|488:189,1,105,4|0,0:0|0:0,0:0:0
463,214,98720,2,0,P|388:207,1,70,8|0,1:2|0:0,0:0:0
237,144,99174,1,2,0:0:0
160,205,99402,1,2,0:0:0
200,294,99629,1,8,1:2:0
200,294,99742,1,0,0:0:0
200,294,99856,6,0,P|284:287,1,70,0|4,1:0|0:0,0:0:0
338,208,100311,2,0,P|331:124,1,70,0|8,0:0|1:2,0:0:0
254,67,100765,2,0,P|170:74,1,70,0|8,0:0|1:2,0:0:0
118,154,101220,2,0,P|125:238,1,70,0|8,1:0|1:2,0:0:0
75,317,101674,1,0,1:0:0
75,317,101788,1,0,0:0:0
75,317,101902,1,4,0:0:0
75,317,102811,6,0,P|66:200,2,105,2|8|2,0:0|0:0|0:0,0:0:0
144,364,103720,2,0,P|196:352|256:364,1,105,4|0,0:0|0:0,0:0:0
284,340,104174,1,8,0:0:0
368,360,104402,1,2,0:0:0
384,276,104629,2,0,P|368:164,2,105,2|2|0,0:0|0:0|0:0,0:0:0
300,256,105538,6,0,P|216:264,1,70,0|0,0:0|0:0,0:0:0
176,200,105992,1,8,0:0:0
248,156,106220,1,0,0:0:0
248,156,106333,2,0,P|236:40,1,105,2|2,0:0|0:0,0:0:0
156,24,106902,1,8,0:0:0
96,84,107129,1,2,0:0:0
176,200,107356,6,0,P|184:244|184:276,1,70
132,336,107811,1,8,0:0:0
132,336,108265,2,0,P|16:328,2,105,2|2|0,0:0|0:0|0:0,0:0:0
256,308,109174,6,0,P|336:312,1,70,0|2,0:0|0:0,0:0:0
396,264,109629,1,8,0:0:0
328,208,109856,2,0,P|292:216,2,35,2|0|0,0:0|0:0|0:0,0:0:0
400,164,110311,1,2,0:0:0
348,96,110538,1,8,0:0:0
424,64,110765,2,0,P|464:72,2,35,8|0|0,1:2|0:0|1:0,0:0:0
296,36,111220,6,0,P|224:28,1,70,2|8,0:0|0:0,0:0:0
226,28,111902,2,0,P|216:72|220:136,2,105,2|2|0,0:0|0:0|0:0,0:0:0
296,88,112811,5,0,0:0:0
312,172,113038,1,2,0:0:0
240,216,113265,1,8,0:0:0
160,192,113492,1,2,0:0:0
144,108,113720,2,0,P|220:96,1,70
72,208,114174,2,8,P|2:218,1,70
112,288,114629,5,4,0:0:0
184,328,114856,1,8,0:0:0
260,288,115083,1,8,0:0:0
244,204,115311,1,4,0:0:0
324,232,115538,2,0,P|404:240,1,70,8|8,0:0|0:0,0:0:0
504,144,115992,2,0,P|434:137,1,70,0|4,1:0|0:0,0:0:0
380,72,116447,5,4,1:0:0
380,72,116902,1,0,1:0:0
320,132,117129,1,2,0:0:0
236,116,117356,1,0,1:0:0
208,36,117583,1,0,0:0:0
300,24,117811,6,0,P|276:172,1,140,8|4,1:2|0:0,0:0:0
320,216,125538,6,0,P|432:212,2,105,0|2|0,1:0|0:0|1:0,0:0:0
320,216,126674,2,0,P|308:136,1,70,0|0,0:0|1:0,0:0:0
292,64,127129,1,0,0:0:0
216,104,127356,6,0,P|104:100,2,105,2|2|0,1:2|0:0|1:0,0:0:0
292,64,128265,1,0,0:0:0
292,64,128379,2,0,P|409:66,1,105,2|0,0:0|1:0,0:0:0
468,110,128947,1,0,0:0:0
423,181,129174,6,0,P|399:286,2,105,0|2|0,1:0|0:0|1:0,0:0:0
423,181,130311,2,0,P|340:189,1,70,0|0,0:0|1:0,0:0:0
270,173,130765,1,2,0:0:0
270,173,130879,1,0,0:0:0
270,173,130992,5,4,0:0:0
173,192,131447,1,0,0:0:0
124,277,131902,1,0,0:0:0
187,351,132356,1,2,0:0:0
187,351,132583,1,0,0:0:0
279,355,132811,6,0,P|267:232,1,105,4|2,0:0|0:0,0:0:0
265,103,133492,2,0,P|254:207,1,105,4|2,0:0|0:0,0:0:0
353,317,134174,1,4,0:0:0
353,317,134629,6,0,P|229:307,1,105,4|2,0:0|0:0,0:0:0
155,193,135311,2,0,P|279:183,1,105,4|2,0:0|0:0,0:0:0
359,74,135992,1,4,0:0:0
359,74,136220,1,2,0:0:0
359,74,136447,6,0,P|420:168,1,105,4|2,0:0|0:0,0:0:0
359,298,137129,2,0,P|420:204,1,105,4|2,0:0|0:0,0:0:0
256,192,137811,1,4,0:0:0
153,74,138265,6,0,P|92:168,1,105,4|2,0:0|0:0,0:0:0
153,298,138947,2,0,P|92:204,1,105,4|2,0:0|0:0,0:0:0
256,192,139629,2,0,P|255:110,1,70,4|0,0:0|0:0,0:0:0
256,40,140083,1,4,0:0:0
256,192,140197,12,0,143720,0:0:0
256,192,143833,12,4,145538,0:0:0
256,256,147356,6,0,P|256:144,1,105,4|0,1:0|0:0,0:0:0
256,151,148265,2,0,P|256:104,2,35,0|0|0,1:0|0:0|1:0,0:0:0
328,80,148720,1,8,1:2:0
252,41,148947,6,0,P|162:50,1,70,0|4,0:0|0:0,0:0:0
86,71,149402,1,2,0:0:0
52,162,149629,1,8,1:2:0
125,226,149856,2,0,P|280:212,1,140,2|2,0:0|0:0,0:0:0
330,140,150538,1,8,1:2:0
235,114,150765,1,0,0:0:0
235,114,150879,1,0,0:0:0
235,114,150992,6,0,P|226:197,1,70,0|2,0:0|0:0,0:0:0
298,340,151447,2,0,P|307:257,1,70,8|2,1:2|0:0,0:0:0
209,289,151902,1,0,0:0:0
422,161,152356,1,8,1:2:0
330,140,152583,1,0,1:2:0
330,140,152697,1,0,0:0:0
330,140,152811,5,0,1:0:0
373,227,153038,1,0,0:0:0
470,223,153265,1,8,1:2:0
492,127,153492,1,2,0:0:0
410,71,153720,2,0,P|335:61,1,70,0|2,0:0|0:0,0:0:0
146,124,154174,2,0,P|215:133,1,70,8|2,1:2|0:0,0:0:0
230,152,154515,1,0,0:0:0
243,172,154629,6,0,P|250:208|248:244,1,70,0|2,1:0|0:0,0:0:0
154,346,155083,2,0,P|147:310|149:274,1,70,8|2,1:2|0:0,0:0:0
105,172,155538,2,0,P|174:161|258:178,1,140,0|8,0:0|1:2,0:0:0
314,228,156220,1,0,1:0:0
384,170,156447,6,0,P|476:165,1,70,0|2,0:0|0:0,0:0:0
492,83,156902,1,8,0:0:0
409,44,157129,1,0,0:0:0
409,44,157242,2,0,P|289:50,1,105,0|2,1:0|0:0,0:0:0
242,117,157811,1,8,1:2:0
295,190,158038,1,8,1:2:0
285,212,158152,1,0,0:0:0
274,233,158265,6,0,P|236:248|170:239,1,105,4|0,0:0|0:0,0:0:0
173,240,158720,2,0,P|79:248,1,70,8|2,1:2|0:0,0:0:0
224,350,159174,2,0,P|302:354,1,70,8|0,1:2|0:0,0:0:0
400,254,159629,1,8,1:2:0
400,254,159742,1,0,0:0:0
400,254,159856,1,0,1:0:0
400,254,159970,1,0,0:0:0
400,254,160083,6,0,P|274:266,1,105,4|0,1:0|0:0,0:0:0
295,263,160538,2,0,P|267:201|277:133,1,140,8|0,1:2|0:0,0:0:0
366,192,161220,1,8,1:2:0
366,192,161447,1,8,1:2:0
178,115,161902,6,0,P|122:110|50:111,2,105,4|0|0,0:0|0:0|0:0,0:0:0
178,115,163038,2,0,P|220:94,2,35,8|0|8,1:2|0:0|1:2,0:0:0
117,191,163492,6,0,P|113:230|121:278,1,70,0|4,0:0|0:0,0:0:0
173,340,163947,1,2,0:0:0
256,288,164174,1,8,1:2:0
341,336,164402,2,0,P|480:329,1,140,2|2,0:0|0:0,0:0:0
481,231,165083,2,0,P|473:149,1,70,8|2,1:2|0:0,0:0:0
407,88,165538,6,0,P|368:108|350:171,1,105,4|2,0:0|0:0,0:0:0
348,163,165992,2,0,P|262:178,1,70,8|0,1:2|0:0,0:0:0
188,138,166447,1,0,1:0:0
131,217,166674,1,2,0:0:0
189,295,166902,1,8,1:2:0
285,266,167129,1,0,0:0:0
207,206,167356,6,0,P|148:184|92:192,1,105,0|0,1:0|0:0,0:0:0
107,187,167811,2,0,P|29:174,1,70,8|2,1:2|0:0,0:0:0
6,46,168265,2,0,P|75:57,1,70,0|2,1:2|0:0,0:0:0
168,28,168720,1,8,1:2:0
246,86,168947,1,0,1:0:0
246,86,169061,1,0,0:0:0
246,86,169174,6,0,P|234:200,1,105,4|0,0:0|0:0,0:0:0
261,223,169629,2,0,P|298:244|344:242,1,70,8|2,1:2|0:0,0:0:0
472,142,170083,2,0,P|418:130|370:150,1,105,0|0,1:0|0:0,0:0:0
373,147,170538,2,0,P|284:138,1,70,8|0,1:2|0:0,0:0:0
152,224,170992,6,0,P|270:240,1,105,4|2,0:0|0:0,0:0:0
288,265,171447,2,0,P|299:301|296:337,1,70,8|2,1:2|0:0,0:0:0
143,374,171902,1,0,1:0:0
64,344,172129,1,2,0:0:0
85,263,172356,1,0,1:0:0
85,263,172470,1,0,0:0:0
85,263,172583,6,0,P|77:191,1,70,0|8,1:0|1:2,0:0:0
173,135,173038,2,0,P|180:204,1,70,0|8,0:0|1:2,0:0:0
282,251,173492,2,0,P|274:181,1,70,0|8,0:0|1:2,0:0:0
374,131,173947,2,0,P|381:200,1,70,0|8,0:0|1:2,0:0:0
471,302,174402,1,0,0:0:0
471,302,174515,1,0,0:0:0
471,302,174629,6,0,P|503:264|503:204,2,105,4|2|0,0:0|0:0|0:0,0:0:0
381,342,175538,1,8,1:2:0
320,265,175765,1,0,0:0:0
320,265,175879,1,0,0:0:0
320,265,175992,1,8,1:2:0
390,196,176220,2,0,P|459:203,1,70,0|4,0:0|0:0,0:0:0
256,192,176561,12,0,179629,0:0:0
234,262,180083,6,0,P|306:274,1,70,0|0,0:0|0:0,0:0:0
383,216,180538,1,8,0:0:0
383,216,180992,2,0,P|365:101,2,105,2|2|0,0:0|0:0|0:0,0:0:0
365,313,181902,5,0,0:0:0
278,342,182129,1,0,0:0:0
210,281,182356,1,8,0:0:0
251,191,182583,1,0,0:0:0
251,191,182697,2,0,P|136:191,1,105,2|2,0:0|0:0,0:0:0
78,129,183265,1,8,0:0:0
119,47,183492,1,0,0:0:0
209,58,183720,1,4,0:0:0
256,192,183833,12,0,186902,0:0:0
313,269,187356,5,4,1:0:0
360,183,187583,1,0,0:0:0
287,116,187811,1,8,1:2:0
197,156,188038,1,4,0:0:0
209,253,188265,2,0,P|124:258,1,70,8|0,1:2|1:0,0:0:0
258,170,188720,2,0,P|327:165,1,70,0|12,1:0|0:0,0:0:0
363,74,189174,5,4,1:0:0
387,268,189629,1,0,1:0:0
205,191,190083,1,0,1:0:0
280,277,190311,5,0,1:0:0
280,277,190424,1,0,0:0:0
280,277,190538,2,0,P|271:332,3,35,0|0|0|0,1:0|1:0|1:0|0:0,0:0:0
